osu file format v9

[General]
AudioFilename: Cube Land - A Minecraft Music Video - Original Song by Laura Shigihara (PvZ Composer) - YouTu.mp3
AudioLeadIn: 1500
PreviewTime: 7535
Countdown: 0
SampleSet: Soft
StackLeniency: 0.8
Mode: 0
LetterboxInBreaks: 1

[Editor]
Bookmarks: -48,8293,26754,43164,59575,80087,88292,104703,121113,137523,158036,166241,199062
DistanceSpacing: 1.1
BeatDivisor: 4
GridSize: 8

[Metadata]
Title:Cube Land
Artist:Laura Shigihara
Creator:nick666101
Version:Hard
Source:
Tags:minecraft

[Difficulty]
HPDrainRate:5
CircleSize:5
OverallDifficulty:6
ApproachRate:5
SliderMultiplier:1.4
SliderTickRate:2

[Events]
//Background and Video events
0,0,"y_2c8a3cd6.jpg"
Video,99,"Cube Land - A Minecraft Music Video - Original Song by Laura Shigihara (PvZ Composer) - YouTube_0.flv"
//Break Periods
2,80023,86315
2,157972,164007
//Storyboard Layer 0 (Background)
//Storyboard Layer 1 (Fail)
//Storyboard Layer 2 (Pass)
//Storyboard Layer 3 (Foreground)
//Storyboard Sound Samples
//Background Colour Transformations
3,100,163,162,255

[TimingPoints]
79.9825244904168,512.819759862778,4,2,0,25,1,0
8293,-100,4,2,0,50,0,0
26754,-80,4,2,0,75,0,0
43164,-66.6666666666667,4,2,0,85,0,0
59567,-57.1428571428571,4,2,0,100,0,1
75977,-80,4,2,0,75,0,1
80079,-100,4,2,0,25,0,0
88284,-100,4,2,0,50,0,0
104695,-80,4,2,0,75,0,0
121113,-66.6666666666667,4,2,0,85,0,0
137515,-57.1428571428571,4,2,0,100,0,1
153925,-80,4,2,0,75,0,1
158028,-100,4,2,0,25,0,0
166233,-66.6666666666667,4,2,0,90,0,0
205079,-66.6666666666667,4,2,0,10,0,0

[Colours]
Combo1 : 255,0,0
Combo2 : 0,0,255
Combo3 : 0,64,0
Combo4 : 192,192,192

[HitObjects]
100,177,79,1,0
150,118,336,2,0,B|180:84|231:87,1,70
288,89,849,1,0
354,128,1105,2,0,B|403:160|417:195,1,70
392,250,1618,1,0
340,307,1874,1,0
269,338,2131,1,0
192,336,2387,2,0,B|139:329|110:299,1,70
79,251,2900,1,0
89,174,3156,2,0,B|107:126|154:107,1,70
197,79,3669,1,0
274,76,3926,1,0
126,271,4182,5,0
189,315,4438,2,0,B|242:331|278:308,1,70
330,290,4951,1,0
396,250,5208,2,0,B|423:212|408:166,1,70
372,118,5720,1,0
313,68,5977,1,0
240,43,6233,1,0
165,61,6490,2,0,B|122:94|105:129,1,70
89,183,7003,1,0
114,255,7259,2,0,B|142:295|191:301,1,70
245,308,7772,1,0
320,292,8028,1,0
366,125,8285,5,2
153,269,8797,1,0
361,269,9310,2,0,B|309:203|224:191,1,140,2|0
186,146,10079,1,2
54,225,10592,1,0
182,309,11105,2,0,B|222:324|274:313,1,70,0|2
319,280,11618,1,0
371,224,11874,1,0
405,155,12131,1,0
293,77,12387,5,2
127,257,12900,1,0
359,266,13413,1,2
313,204,13669,2,0,B|277:158|235:147,1,70
192,121,14182,1,2
102,194,14567,1,0
136,211,14695,1,0
197,256,14951,2,0,B|239:298|279:303,1,70,0|2
384,169,15720,1,0
321,124,15977,2,0,B|281:97|247:95,1,70
181,79,16490,5,2
362,259,17003,1,0
280,259,17259,1,2
105,79,17772,1,0
258,74,18285,2,0,B|332:47|418:92|391:98,1,140,2|0
333,138,19054,1,0
392,187,19310,1,2
279,291,19823,1,0
202,289,20079,1,0
104,226,20336,6,0,B|68:194|63:130|127:97,1,140,2|0
185,79,21105,1,0
261,70,21362,1,2
448,306,21874,1,2
315,306,22131,1,0
182,307,22387,1,0
256,192,22644,12,0,24182
352,96,24695,5,2
160,96,25208,1,0
160,288,25720,1,2
256,288,25977,1,0
352,288,26233,2,0,B|393:282|418:244,1,70
286,201,26746,5,2
386,38,27259,1,2
196,63,27772,1,2
89,221,28285,1,2
231,347,28797,1,2
312,296,29054,1,0
373,223,29310,2,0,B|396:172|349:129,1,87.5,2|0
291,75,29823,1,2
195,78,30079,1,0
108,118,30336,2,0,B|63:169|72:214,1,87.5,2|0
120,276,30849,5,2
293,353,31361,1,2
422,212,31874,1,2
370,131,32131,2,0,B|341:80|286:80,1,87.5,0|2
206,79,32644,1,0
127,133,32900,1,2
86,219,33156,2,0,B|109:272|162:286,1,87.5,0|2
235,310,33669,1,0
328,292,33926,1,2
401,231,34182,2,0,B|427:186|394:141,1,87.5,0|2
325,87,34695,1,0
200,194,34951,5,2
290,228,35208,2,0,B|350:212|358:169,1,87.5,0|2
291,105,35720,2,0,B|234:54|163:73|147:154,1,175
45,297,36746,1,2
233,335,37259,1,0
325,308,37515,1,2
399,246,37772,1,0
319,70,38285,1,0
222,70,38541,1,2
139,119,38797,6,0,B|75:172|66:232|144:275,1,175
204,319,39567,1,2
299,306,39823,1,0
373,69,40336,1,0
237,69,40592,1,2
101,67,40849,1,0
96,192,41105,1,2
256,352,41618,1,2
416,192,42131,1,2
256,32,42644,1,2
437,297,43156,5,2
208,330,43669,1,2
42,169,44182,2,0,B|80:120|141:118,1,105.000004005432,2|0
240,82,44695,1,2
354,92,44951,2,0,B|413:44|503:40,2,157.500006008148,0|0|2
444,163,45977,1,0
355,237,46233,1,2
442,312,46490,1,0
331,343,46746,2,0,B|263:351|210:321,1,105.000004005432,2|0
121,284,47259,5,2
41,200,47515,1,0
117,113,47772,2,0,B|151:64|214:64,1,105.000004005432,2|0
266,162,48285,1,2
346,79,48541,1,0
454,118,48797,2,0,B|428:173|364:177,1,105.000004005432,2|0
301,267,49310,1,2
75,319,49823,2,0,B|116:254|166:242,1,105.000004005432,2|0
64,168,50336,1,2
166,115,50592,1,0
270,64,50849,2,0,B|337:62|386:97,1,105.000004005432,2|0
459,161,51361,5,2
309,337,51874,1,2
98,241,52387,1,2
171,151,52644,1,0
253,70,52900,1,2
356,119,53156,1,0
434,273,53541,1,0
268,324,53926,1,2
62,219,54438,1,2
116,117,54695,2,0,B|159:71|227:64,1,105.000004005432,0|2
322,72,55208,1,0
435,221,55464,5,2
241,347,55977,1,2
53,212,56490,1,2
227,60,57002,1,2
264,169,57259,1,0
256,192,57515,12,2,58541
409,262,59054,5,2
256,321,59310,1,0
109,247,59567,5,2
286,45,60079,1,8
462,248,60592,1,2
212,350,61105,2,0,B|147:323|111:259,1,122.500001168251,8|0
78,143,61618,1,2
188,66,61874,2,0,B|207:134|257:214|309:223,1,183.750001752377
392,42,62643,1,2
461,157,62900,1,0
412,282,63156,1,8
289,339,63413,1,0
156,317,63669,5,2
34,76,64182,1,8
258,225,64695,1,2
467,55,65208,2,0,B|415:85|380:161,1,122.500001168251,8|0
138,41,65977,2,0,B|72:89|45:172|104:262,1,245.000002336502
212,334,66746,1,2
345,319,67002,1,0
434,218,67259,1,8
374,97,67515,1,0
256,30,67772,5,2
41,192,68285,1,8
257,352,68797,1,2
474,193,69310,2,0,B|433:132|341:132,1,122.500001168251,8|0
121,31,70079,2,0,B|54:61|19:142|25:214,1,183.750001752377
133,349,70849,1,2
209,238,71105,1,0
317,317,71361,1,8
401,211,71618,1,0
452,86,71874,5,2
184,53,72387,1,8
83,303,72900,2,0,B|139:343|206:312,1,122.500001168251,2|0
334,312,73413,2,0,B|404:306|459:247,1,122.500001168251,8|0
296,36,74182,1,0
94,53,74567,2,0,B|77:111|111:194|179:225,1,183.750001752377,0|2
257,304,75208,1,0
384,261,75464,1,8
429,134,75720,1,0
309,54,75977,5,2
118,79,76490,1,0
42,255,77002,1,2
126,300,77259,2,0,B|186:333|232:318,1,87.5
304,309,77772,1,0
447,180,78284,1,2
313,41,78797,2,0,B|256:21|207:55,1,87.5,0|2
152,103,79310,1,0
95,181,79567,1,0
190,185,79823,1,0
377,139,87515,5,0
425,198,87772,2,0,B|449:244|414:280,1,70
352,287,88284,5,2
208,342,88797,1,0
90,242,89310,1,2
187,32,90079,2,0,B|212:94|292:127,1,140
425,56,91105,1,2
481,199,91618,1,0
434,260,91874,1,0
371,304,92131,1,0
299,331,92387,5,2
154,277,92900,1,0
47,165,93413,1,2
88,100,93669,2,0,B|112:58|162:57,1,70
219,66,94182,1,0
334,73,94567,1,2
367,92,94695,1,0
422,145,94951,1,0
454,214,95208,2,0,B|440:262|395:276,1,70,0|2
344,303,95720,1,0
267,308,95977,1,0
192,289,96233,1,0
318,119,96490,5,2
245,94,96746,2,0,B|191:62|162:97,1,70
115,127,97259,2,0,B|61:193|116:259,1,140
180,289,98028,1,2
249,321,98284,2,0,B|302:353|367:339|383:296,1,140
416,242,99054,1,2
392,168,99310,1,0
287,54,99823,1,0
210,56,100079,1,0
137,81,100336,6,0,B|89:119|62:186|76:222,1,140,2|0
92,275,101105,1,0
149,326,101361,1,0
302,342,101874,1,2
368,302,102131,1,0
409,237,102387,1,0
256,192,102643,12,2,103669
122,242,104182,6,0,B|99:194|137:160,1,70
186,102,104695,1,2
375,137,105208,1,2
338,325,105720,1,2
241,331,105977,1,0
152,293,106233,2,0,B|94:261|80:216,1,87.5,2|0
94,138,106746,1,2
154,63,107002,1,0
248,41,107259,2,0,B|284:76|334:90,1,87.5,2|0
408,128,107772,1,2
456,210,108028,1,0
406,292,108284,2,0,B|360:329|309:322,1,87.5,2|0
123,277,108797,5,2
312,242,109310,1,2
418,81,109823,2,0,B|365:54|319:70,1,87.5,2|0
236,66,110336,2,0,B|178:41|133:76,1,87.5,2|0
85,134,110849,1,2
40,218,111105,1,0
90,299,111361,2,0,B|143:339|179:330,1,87.5,2|0
265,332,111874,1,2
359,311,112131,1,0
422,239,112387,1,2
446,145,112643,2,0,B|403:94|357:94,1,87.5,0|2
282,70,113156,6,0,B|226:84|179:117,1,87.5
117,149,113669,1,2
80,338,114182,1,0
272,338,114695,2,0,B|323:324|344:292,1,87.5,0|2
405,217,115208,1,0
368,128,115464,1,2
289,72,115720,1,0
103,123,116233,1,0
35,192,116490,1,2
102,260,116746,6,0,B|137:308|210:326|262:294,1,175
343,249,117515,1,2
404,174,117772,1,0
255,51,118284,1,0
168,92,118541,1,2
116,172,118797,1,0
128,272,119054,1,2
336,320,119566,1,2
384,128,120079,1,2
176,64,120592,1,2
36,248,121105,5,2
243,348,121618,1,2
433,217,122131,2,2,B|377:200|338:263,2,105.000004005432,2|0|2
356,130,122900,1,0
203,47,123284,1,0
78,167,123669,1,2
227,342,124182,1,2
340,320,124438,1,0
431,249,124695,2,0,B|467:183|408:142,1,105.000004005432,2|0
344,67,125208,5,2
231,40,125464,1,0
117,61,125720,2,0,B|74:97|59:166,1,105.000004005432,2|0
86,262,126233,1,2
170,341,126490,1,0
285,333,126746,2,0,B|349:319|379:262,1,105.000004005432,2|0
410,167,127259,1,2
212,47,127772,1,2
45,206,128284,1,2
135,278,128541,1,0
235,334,128797,2,0,B|296:333|346:291,1,105.000004005432,2|0
422,228,129310,5,2
290,38,129823,1,2
66,97,130336,2,0,B|28:148|82:216,1,105.000004005432,2|0
133,290,130849,2,0,B|187:338|247:307,1,105.000004005432,2|0
399,276,131490,1,0
320,121,131874,1,2
98,54,132387,1,2
39,153,132643,1,0
91,256,132900,2,0,B|125:307|185:326,1,105.000004005432,2|0
288,352,133413,5,2
416,160,133925,1,2
224,32,134438,1,2
96,224,134951,1,2
199,274,135207,1,0
256,192,135464,12,2,136490
385,154,137002,5,2
294,82,137259,1,0
174,143,137515,5,2
23,366,138028,1,8
292,349,138541,1,2
462,140,139054,2,0,B|447:75|369:52,1,122.500001168251,8|0
111,46,139823,2,0,B|138:105|177:144|259:165,1,183.750001752377
401,290,140592,1,2
273,335,140849,1,0
141,304,141105,1,8
74,187,141361,1,0
144,72,141618,5,2
413,57,142131,1,8
485,316,142643,2,0,B|438:358|364:321,1,122.500001168251,2|0
235,326,143156,2,0,B|176:366|125:299,1,122.500001168251,8|0
46,46,143925,1,0
197,180,144310,1,0
320,19,144695,1,2
433,91,144951,1,0
484,215,145207,2,0,B|451:284|386:291,1,122.500001168251,8|0
270,346,145720,5,2
49,190,146233,1,8
265,29,146746,1,2
481,189,147259,2,0,B|408:179|353:202,1,122.500001168251,8|0
129,338,148028,1,0
48,152,148413,2,0,B|60:95|101:50|186:43,1,183.750001752377,0|2
248,159,149054,1,0
314,41,149310,1,8
379,158,149566,1,0
454,269,149823,5,2
194,342,150336,1,8
32,126,150848,2,0,B|64:63|137:62,1,122.500001168251,2|0
264,64,151361,1,8
393,103,151618,1,0
299,355,152131,2,0,B|352:307|419:306|485:363,2,183.750001752377,0|0|2
170,315,153156,1,0
62,233,153413,1,8
99,103,153669,1,0
181,53,153925,5,2
353,137,154438,1,0
461,295,154951,1,2
381,349,155207,2,0,B|346:306|286:314,1,87.5,0|0
216,352,155720,1,0
68,227,156233,1,2
145,50,156746,2,0,B|164:108|223:106,1,87.5,0|2
302,96,157259,1,0
368,165,157515,1,0
409,252,157772,1,0
101,147,165207,5,0
130,121,165336,1,0
197,84,165592,1,0
273,74,165848,1,0
310,81,165977,1,0
409,139,166233,5,2
281,331,166746,1,8
62,255,167259,1,2
185,59,167772,1,8
357,211,168284,1,2
155,324,168797,1,8
105,98,169310,1,2
269,43,169695,1,0
372,181,170079,1,0
340,292,170336,5,2
224,92,170848,1,8
93,282,171361,1,2
310,360,171874,1,8
405,149,172387,1,2
196,49,172900,1,8
79,248,173413,1,2
232,327,173797,1,0
369,221,174182,1,0
336,112,174438,5,2
96,112,174951,1,8
96,352,175464,1,2
336,352,175977,1,8
400,128,176489,1,2
192,64,177002,1,8
112,256,177515,1,2
266,333,177900,1,0
392,215,178284,1,0
358,104,178541,6,0,B|309:50|253:56,1,105.000004005432,2|0
152,66,179054,2,0,B|93:91|65:152,1,105.000004005432,8|0
59,248,179566,2,0,B|82:304|145:325,1,105.000004005432,2|0
244,346,180079,2,0,B|309:344|355:286,1,105.000004005432,8|0
412,216,180592,2,0,B|434:156|359:136,1,105.000004005432,2|0
250,132,181105,2,0,B|199:145|210:216|162:205,1,105.000004005432,8|0
64,190,181618,2,0,B|24:235|12:307|91:342,2,157.500006008148,2|0|0
110,84,182643,5,2
213,31,182900,2,0,B|268:24|321:60,1,105.000004005432,0|8
410,118,183413,1,0
458,222,183669,2,0,B|443:287|382:319,1,105.000004005432,2|0
289,336,184182,1,8
174,320,184438,1,0
99,231,184695,1,2
72,118,184951,2,0,B|90:59|157:57,1,105.000004005432,0|8
264,58,185464,1,0
377,80,185720,2,0,B|423:118|422:185,1,105.000004005432,2|0
405,286,186233,1,8
299,239,186489,1,0
118,136,186746,5,2
96,249,187002,2,0,B|120:306|194:323,1,105.000004005432,0|8
284,290,187515,1,0
375,219,187772,2,0,B|408:172|361:116,1,105.000004005432,2|0
271,56,188284,1,8
155,68,188541,1,0
78,154,188797,1,2
92,268,189054,2,0,B|132:324|191:324,1,105.000004005432,0|8
291,307,189566,1,0
391,250,189823,2,0,B|428:204|381:146,1,105.000004005432,2|0
313,64,190336,1,8
199,44,190592,1,0
326,252,190848,5,2
221,302,191105,1,0
110,269,191361,2,0,B|53:234|67:179,1,105.000004005432,8|0
133,87,191874,1,2
242,51,192130,1,0
357,59,192387,2,0,B|411:82|429:137,1,105.000004005432,8|0
429,248,192900,1,2
347,329,193156,1,0
233,352,193413,2,0,B|170:341|143:286,1,105.000004005432,8|0
75,206,193925,1,2
121,99,194182,1,0
226,51,194438,2,0,B|293:41|341:80,1,105.000004005432,8|0
115,300,194951,5,2
223,339,195207,1,0
338,333,195464,2,0,B|389:307|411:257,1,105.000004005432,8|0
419,143,195977,1,2
334,64,196233,1,0
226,23,196489,2,0,B|171:34|141:97,1,105.000004005432,8|0
93,189,197002,1,2
160,283,197259,1,0
258,342,197515,2,0,B|321:338|373:305,1,105.000004005432,8|0
424,218,198028,1,2
396,106,198284,1,0
296,46,198541,2,0,B|225:25|181:60,1,105.000004005432,8|0
124,199,199054,5,0
39,82,199310,1,0
176,126,199566,1,0
39,171,199823,1,0
124,54,200079,1,0
200,201,200336,5,0
284,317,200592,1,0
284,173,200848,1,0
200,290,201105,1,0
337,245,201361,1,0
354,63,201618,5,0
491,108,201874,1,0
354,152,202130,1,0
439,36,202387,1,0
439,180,202643,1,0
256,84,202900,5,0
256,192,203156,12,4,205207
