osu file format v13

[General]
AudioFilename: Laura Pausini - Limpido (Solo Version).mp3
AudioLeadIn: 0
PreviewTime: -1
Countdown: 0
SampleSet: Soft
StackLeniency: 0.7
Mode: 0
LetterboxInBreaks: 1
WidescreenStoryboard: 1

[Editor]
DistanceSpacing: 1
BeatDivisor: 4
GridSize: 4
TimelineZoom: 1.1

[Metadata]
Title:Limpido (Solo Version)
TitleUnicode:Limpido (Solo Version)
Artist:Laura Pausini
ArtistUnicode:Laura Pausini
Creator:Jenny4ever96
Version:Hard
Source:20-The Greatest Hits
Tags:
BeatmapID:487348
BeatmapSetID:201552

[Difficulty]
HPDrainRate:6
CircleSize:5
OverallDifficulty:5
ApproachRate:6
SliderMultiplier:2.3
SliderTickRate:2

[Events]
//Background and Video events
0,0,"Limpido.jpg",0,0
//Break Periods
2,146267,155119
2,179854,195527
//Storyboard Layer 0 (Background)
//Storyboard Layer 1 (Fail)
//Storyboard Layer 2 (Pass)
//Storyboard Layer 3 (Foreground)
//Storyboard Sound Samples
//Background Colour Transformations
3,100,163,162,255

[TimingPoints]
0,1200,4,2,0,100,1,0
48600,-100,4,2,0,100,0,1
78000,-100,4,2,0,100,0,0
116700,-100,4,2,0,100,0,1
179700,-100,4,2,0,100,0,0

[Colours]
Combo1 : 192,192,192
Combo2 : 0,0,0
Combo3 : 255,255,255

[HitObjects]
54,78,10455,6,0,L|258:76,1,157.5
296,77,11679,1,0,0:0:0:0:
397,78,11985,1,0,0:0:0:0:
410,215,12291,2,0,P|245:192|244:191,3,157.5,0|0|0|0,0:0|0:0|0:0|0:0,0:0:0:0:
61,66,15659,5,0,0:0:0:0:
61,66,15965,1,0,0:0:0:0:
61,66,16271,1,0,0:0:0:0:
61,66,16577,1,0,0:0:0:0:
139,120,16883,2,0,L|231:211|231:211,1,115,0|0,0:0|0:0,0:0:0:0:
324,205,17802,2,0,B|399:206|399:206|400:206,2,57.5,0|0|0,0:0|0:0|0:0,0:0:0:0:
468,180,18720,2,0,L|468:61,1,115
45,57,20251,5,0,0:0:0:0:
182,53,21169,1,0,0:0:0:0:
233,51,21475,1,0,0:0:0:0:
281,52,21781,1,0,0:0:0:0:
359,156,22087,2,0,P|101:155|106:113,1,402.5,0|0,0:0|0:0,0:0:0:0:
25,121,25149,6,0,P|160:118|195:96,1,172.5
188,100,26373,1,0,0:0:0:0:
188,100,26679,1,0,0:0:0:0:
318,100,26985,2,0,B|379:102|380:102|379:32,2,115,0|0|0,0:0|0:0|0:0,0:0:0:0:
41,56,29740,5,0,0:0:0:0:
100,56,30047,1,0,0:0:0:0:
159,54,30353,1,0,0:0:0:0:
240,56,30659,2,0,L|239:132|239:132,2,57.5,0|0|0,0:0|0:0|0:0,0:0:0:0:
448,234,31883,2,0,L|309:236,1,115
332,235,32802,1,8,0:0:0:0:
332,235,33108,1,8,0:0:0:0:
84,300,34026,5,0,0:0:0:0:
84,300,34332,1,0,0:0:0:0:
84,300,34638,1,0,0:0:0:0:
84,300,34945,1,0,0:0:0:0:
110,193,35557,2,0,P|181:62|365:127,1,345
348,99,37700,1,0,0:0:0:0:
348,99,38006,1,0,0:0:0:0:
41,46,39536,6,0,P|35:171|88:177,1,172.5
132,182,40761,2,0,L|257:183,1,115
342,179,41679,2,0,L|491:277,1,172.5
486,273,42904,1,0,0:0:0:0:
485,66,43822,1,0,0:0:0:0:
401,66,44128,1,0,0:0:0:0:
313,66,44434,1,0,0:0:0:0:
202,71,44740,2,0,L|83:72,2,115,0|0|0,0:0|0:0|0:0,0:0:0:0:
120,226,46577,2,0,P|323:224|325:235,1,287.5
256,192,48720,12,0,50251,0:0:0:0:
79,66,50557,5,0,0:0:0:0:
79,66,50863,1,0,0:0:0:0:
79,66,51169,1,0,0:0:0:0:
79,66,51475,1,0,0:0:0:0:
170,78,51781,2,0,L|372:78,1,172.5
471,109,53006,2,0,L|474:241,1,115
361,246,53924,2,0,L|285:245,3,57.5,0|0|0|0,0:0|0:0|0:0|0:0,0:0:0:0:
165,251,55149,2,0,L|46:251,1,115
70,116,56067,2,0,P|230:114|230:141,1,230
426,61,58210,5,0,0:0:0:0:
354,59,58516,1,0,0:0:0:0:
284,60,58822,1,0,0:0:0:0:
217,59,59128,1,0,0:0:0:0:
149,60,59434,1,0,0:0:0:0:
83,180,59740,2,0,L|221:179,3,115,0|0|0|0,0:0|0:0|0:0|0:0,0:0:0:0:
300,178,61883,2,0,P|457:146|461:154,1,172.5
452,226,63414,5,0,0:0:0:0:
408,292,63720,1,0,0:0:0:0:
316,328,64026,1,0,0:0:0:0:
215,328,64332,2,0,L|77:327,1,115,0|0,0:0|0:0,0:0:0:0:
70,229,65251,2,0,L|230:153,1,172.5
225,154,66475,1,0,0:0:0:0:
225,154,66781,1,0,0:0:0:0:
225,154,67087,1,0,0:0:0:0:
256,192,68006,12,0,70761,0:0:0:0:
256,192,73210,12,0,77802,0:0:0:0:
65,49,78720,6,0,L|194:48,1,115
443,82,79945,2,0,L|445:170,1,57.5
397,232,80557,1,0,0:0:0:0:
397,232,80863,1,0,0:0:0:0:
397,232,81169,1,0,0:0:0:0:
274,231,81475,2,0,L|198:231,3,57.5,0|0|0|0,0:0|0:0|0:0|0:0,0:0:0:0:
119,219,82700,2,8,L|118:85,1,115,8|0,0:0|0:0,0:0:0:0:
237,51,83618,5,0,0:0:0:0:
301,50,83924,1,0,0:0:0:0:
359,51,84230,1,0,0:0:0:0:
421,112,84536,2,0,L|421:240|421:240,2,115,0|0|0,0:0|0:0|0:0,0:0:0:0:
386,261,86067,2,0,P|194:265|176:226,1,230,0|0,0:0|0:0,0:0:0:0:
191,261,87598,1,0,0:0:0:0:
191,261,87904,1,0,0:0:0:0:
72,58,88822,5,0,0:0:0:0:
145,60,89128,1,0,0:0:0:0:
218,60,89434,1,0,0:0:0:0:
308,70,89740,2,0,L|430:152,1,115
392,224,91271,1,0,0:0:0:0:
330,276,91577,1,0,0:0:0:0:
236,303,91883,1,0,0:0:0:0:
145,311,92189,2,0,L|27:310,1,115
61,218,93108,2,0,L|188:152,1,115
246,144,94026,2,0,P|328:60|427:158,1,230,0|0,0:0|0:0,0:0:0:0:
416,184,95557,2,0,L|418:311,1,115
417,298,96475,1,0,0:0:0:0:
417,298,96781,1,0,0:0:0:0:
28,181,98618,6,0,L|26:100,1,57.5,0|0,0:0|0:0,0:0:0:0:
105,73,99230,1,0,0:0:0:0:
189,75,99536,1,0,0:0:0:0:
283,75,99842,2,0,L|368:75,2,57.5,0|0|0,0:0|0:0|0:0,0:0:0:0:
408,111,100761,2,0,L|409:240,1,115,0|0,0:0|0:0,0:0:0:0:
408,225,101679,1,8,0:0:0:0:
408,225,101985,1,8,0:0:0:0:
302,279,102291,2,0,L|89:279,1,172.5
87,131,103516,2,0,P|267:91|277:155,1,287.5
368,136,105353,2,0,L|457:137,2,57.5,0|0|0,0:0|0:0|0:0,0:0:0:0:
99,308,107802,6,0,L|99:177,1,115
146,113,108720,1,0,0:0:0:0:
242,114,109026,1,0,0:0:0:0:
337,114,109332,1,0,0:0:0:0:
432,144,109638,2,0,L|434:225,3,57.5,0|0|0|0,0:0|0:0|0:0|0:0,0:0:0:0:
436,293,110863,2,0,L|318:294,1,115,0|0,0:0|0:0,0:0:0:0:
235,304,111781,1,0,0:0:0:0:
148,302,112087,1,0,0:0:0:0:
53,299,112394,1,0,0:0:0:0:
59,220,112700,2,0,L|214:126,1,172.5,0|0,0:0|0:0,0:0:0:0:
206,130,113924,1,0,0:0:0:0:
206,130,114230,1,0,0:0:0:0:
256,233,115149,6,0,L|255:167,2,57.5,0|0|0,0:0|0:0|0:0,0:0:0:0:
256,192,116985,12,0,119128,0:0:0:0:
80,304,119434,5,0,0:0:0:0:
80,304,119740,1,0,0:0:0:0:
80,304,120047,1,0,0:0:0:0:
80,304,120353,1,0,0:0:0:0:
76,229,120659,2,0,L|76:99,1,115,0|0,0:0|0:0,0:0:0:0:
208,84,121577,2,0,P|346:79|348:72,1,172.5
475,107,122802,2,0,L|481:256,1,115
413,286,123720,2,0,L|274:287,1,115
298,286,124638,1,0,0:0:0:0:
298,286,124945,1,0,0:0:0:0:
298,286,125251,1,0,0:0:0:0:
77,70,126781,6,0,L|277:67,1,172.5
392,92,128006,2,0,P|408:189|353:196,1,172.5
253,219,129230,2,0,L|122:219,3,115,0|0|0|0,0:0|0:0|0:0|0:0,0:0:0:0:
434,307,131985,1,0,0:0:0:0:
337,310,132291,1,0,0:0:0:0:
249,310,132598,1,0,0:0:0:0:
127,308,132904,2,0,L|126:71,1,230,0|0,0:0|0:0,0:0:0:0:
126,78,134434,1,0,0:0:0:0:
126,78,134740,1,0,0:0:0:0:
126,78,135047,1,0,0:0:0:0:
256,192,136577,12,0,139639,0:0:0:0:
256,192,141475,12,0,146067,0:0:0:0:
48,49,156169,6,0,L|266:47,1,172.5
439,67,157394,2,0,B|504:212|427:210|311:210,1,230
219,210,158924,1,0,0:0:0:0:
127,212,159230,1,0,0:0:0:0:
37,214,159536,1,0,0:0:0:0:
46,308,159842,2,0,L|246:309,1,172.5
422,303,161067,2,0,L|419:168,1,115
413,113,161985,1,0,0:0:0:0:
412,37,162291,1,0,0:0:0:0:
294,45,162598,2,0,B|144:46|145:46,1,115
79,66,163516,1,0,0:0:0:0:
63,155,163822,1,0,0:0:0:0:
65,247,164128,2,0,L|66:322,2,57.5,0|0|0,0:0|0:0|0:0,0:0:0:0:
411,275,165965,5,0,0:0:0:0:
411,275,166271,1,0,0:0:0:0:
411,275,166577,1,0,0:0:0:0:
414,181,166883,2,0,L|412:51|412:51,1,115
247,54,168720,2,0,L|71:55,1,172.5
74,54,169945,1,0,0:0:0:0:
74,54,170251,1,0,0:0:0:0:
74,54,170557,1,0,0:0:0:0:
83,274,171169,5,0,0:0:0:0:
178,277,171475,1,0,0:0:0:0:
274,279,171781,1,0,0:0:0:0:
370,268,172087,2,0,L|368:134,1,115
359,51,173006,2,0,L|128:49,1,230
194,286,175455,2,0,B|22:124|41:32|168:43|109:8|221:124|221:124|311:-36|426:47|267:243|221:303|221:303|224:303,1,805,0|0,0:0|0:0,0:0:0:0:
73,60,196577,5,0,0:0:0:0:
146,62,196883,1,0,0:0:0:0:
222,63,197189,1,0,0:0:0:0:
311,66,197496,2,0,L|456:66,1,115
482,141,198414,2,0,P|483:265|466:258,1,230,0|0,0:0|0:0,0:0:0:0:
384,269,199945,2,0,L|303:268,3,57.5,0|0|0|0,0:0|0:0|0:0|0:0,0:0:0:0:
64,262,201475,1,0,0:0:0:0:
64,262,201781,1,0,0:0:0:0:
64,262,202087,1,0,0:0:0:0:
63,191,202394,2,0,L|61:55,1,115
256,192,203312,12,0,206067,0:0:0:0:
