osu file format v5

[General]
AudioFilename: 11 La La.ogg
AudioLeadIn: 0
PreviewTime: 40098
Countdown: 1
SampleSet: Normal
StackLeniency: 0.7
Mode: 0
LetterboxInBreaks: 1
SkinPreference:EliteBeatOsu

[Metadata]
Title:La La
Artist:Laura Jane
Creator:Larto
Version:HARD ROCK!
Source:
Tags:

[Difficulty]
HPDrainRate:4
CircleSize:4
OverallDifficulty:9
SliderMultiplier:2
SliderTickRate:2

[Events]
//Background and Video events
0,0,"EliteBeatAgentsWallpaper_1024.jpg"
//Break Periods
2,27830,37738
2,55061,61507
2,103061,108354
2,132830,138584
//Storyboard Layer 0 (Background)
//Storyboard Layer 1 (Failing)
//Storyboard Layer 2 (Passing)
//Storyboard Layer 3 (Foreground)
//Storyboard Sound Samples
//Background Colour Transformations
3,100,163,162,255

[TimingPoints]
1560,461.538461538462,4,1,0,100,1

[Colours]
Combo1 : 255,0,0
Combo2 : 255,128,0
Combo3 : 0,255,0
Combo4 : 0,0,255

[HitObjects]
32,288,14713,1,0
104,328,14944,1,2
104,248,15175,1,0
176,288,15406,1,0
248,328,15636,1,2
248,248,15867,1,0
320,288,16098,2,4,B|505:297|505:96|505:96,2,300
256,40,18406,5,0
256,120,18636,1,2
256,200,18867,1,0
176,200,19098,1,2
96,200,19329,1,0
96,120,19560,1,2
96,40,19790,1,4
480,288,22098,5,0
408,328,22329,1,2
408,248,22560,1,0
336,288,22791,1,0
264,328,23021,1,2
264,248,23252,1,0
192,288,23483,2,4,B|7:297|7:96|7:96,2,300
176,40,25560,5,0
256,40,25790,1,0
256,120,26021,1,2
256,200,26252,1,0
336,200,26483,1,2
416,200,26713,1,0
416,120,26944,1,2
416,40,27175,1,4
296,136,38944,5,0
216,136,39175,1,0
216,216,39406,1,0
296,216,39636,1,0
256,288,39867,1,0
328,352,40098,1,4
185,352,40560,1,4
16,160,41252,1,0
88,200,41483,1,2
128,128,41713,1,2
56,88,41944,1,0
96,16,42175,1,0
168,56,42406,1,2
232,104,42636,1,4
296,216,43098,5,0
216,216,43329,1,0
256,288,43560,1,0
192,352,43790,1,4
320,352,44252,1,4
496,160,44944,1,0
424,200,45175,1,2
384,128,45405,1,2
456,88,45636,1,0
416,16,45867,1,0
344,56,46098,1,2
280,104,46328,1,4
336,192,46790,5,0
256,192,47021,1,0
176,192,47252,1,0
128,256,47483,1,4
128,128,47944,1,4
496,192,48636,5,2
416,192,48867,1,2
336,192,49098,1,4
184,192,49560,1,2
104,192,49790,1,2
24,192,50021,2,4,B|39:122|47:103|65:79|86:72|134:48|264:56,1,300
424,344,51406,5,0
384,272,51636,1,0
352,200,51867,1,0
320,128,52098,1,2
320,128,52329,1,2
88,344,52790,5,0
128,272,53020,1,0
160,200,53251,1,0
192,128,53482,1,2
192,128,53713,1,2
256,288,54406,1,4
256,344,62713,5,0
216,272,62944,1,0
296,272,63175,1,0
256,200,63406,1,0
256,120,63636,1,0
256,40,63867,1,0
336,40,64098,2,4,B|453:55|505:163|501:234|495:277,2,300
176,32,66175,5,0
176,112,66406,1,2
176,192,66636,1,0
256,192,66867,1,2
336,192,67098,1,0
336,272,67329,1,2
336,352,67560,1,4
256,40,70098,5,0
216,112,70329,1,0
296,112,70560,1,0
256,184,70791,1,0
256,264,71021,1,0
256,344,71252,1,0
176,344,71483,2,4,B|59:329|7:221|11:150|17:107,2,300
336,352,73790,5,0
336,272,74021,1,2
336,192,74251,1,0
256,192,74482,1,2
176,192,74713,1,0
176,112,74944,1,2
176,32,75175,1,4
40,248,78867,6,2,B|90:318|200:392|376:400|480:257|480:224,1,500
448,160,80252,1,0
368,160,80483,1,0
256,160,80944,1,0
256,64,81406,2,4,B|44:63,2,200
448,64,83021,5,4
336,128,83713,1,2
256,128,83944,1,2
176,128,84175,1,2
8,128,84636,2,4,B|32:296|170:345|264:360|384:328|488:296|512:112,1,700
216,48,86944,5,0
296,48,87175,1,0
256,120,87406,1,0
256,200,87636,1,0
256,280,87867,1,0
192,336,88098,1,4
320,336,88559,1,4
480,256,89252,2,2,B|482:190|495:135|419:34|339:32|308:31,2,300
336,192,91098,5,0
256,152,91329,1,0
256,232,91559,1,0
176,272,91790,1,4
176,120,92252,1,4
32,256,92944,2,2,B|30:190|17:135|93:34|173:32|204:31,2,300
176,192,94790,5,0
256,152,95021,1,0
256,232,95251,1,0
336,264,95482,1,4
336,120,95944,1,4
16,192,96636,5,2
96,192,96867,1,2
176,192,97098,1,4
328,192,97560,1,2
408,192,97790,1,2
488,192,98021,2,4,B|473:122|465:103|447:79|426:72|378:48|248:56,1,300
408,264,99406,5,0
328,264,99636,1,0
368,192,99867,1,0
304,144,100098,1,2
304,144,100329,1,2
104,264,100790,5,0
184,264,101020,1,0
144,192,101251,1,0
208,144,101482,1,2
208,144,101713,1,2
256,320,102406,1,4
96,320,109559,5,0
176,320,109790,1,2
256,320,110021,1,0
360,320,110483,2,4,B|448:312|504:240|512:184|488:136|472:88,1,300
336,48,111636,1,2
256,48,111867,2,4,B|72:48|8:128|-8:216|-8:312|96:360,1,500
176,360,113252,5,0
256,360,113483,1,2
336,360,113713,2,2,B|490:360|544:320|566:207|544:64|384:48,1,500
328,40,115098,1,4
192,40,115559,1,4
192,168,116021,1,4
328,168,116483,1,4
304,352,117175,5,2
184,352,117636,2,2,B|95:350|24:320|-16:112|32:80|96:64,1,400
184,32,119021,1,0
264,32,119252,2,2,B|405:33|454:43|503:99|521:137|519:162|524:223|522:302|424:360,1,500
376,352,120636,5,0
288,352,120867,1,0
208,352,121098,2,2,B|8:336|24:280|-16:232|-25:217|-12:161|-4:113|32:69|128:56,1,500
192,48,122483,1,6
320,48,122944,1,6
320,168,123406,1,6
192,168,123867,1,6
256,320,124559,1,4
352,136,125021,6,2,B|257:76|136:144,6,200
296,304,128252,5,2
216,304,128483,1,2
160,240,128713,2,2,B|252:187|360:248,3,200
256,192,130560,12,4,132406
192,320,139790,5,4
320,320,140252,1,4
480,160,140944,1,0
408,200,141175,1,2
440,88,141405,1,0
368,128,141636,1,2
400,16,141867,1,0
328,56,142098,1,2
264,104,142328,1,4
296,216,142790,5,0
216,216,143021,1,0
256,288,143252,1,0
320,352,143483,1,4
192,352,143944,1,4
32,160,144636,1,0
104,200,144867,1,2
72,88,145097,1,0
144,128,145328,1,2
112,16,145559,1,0
184,56,145790,1,2
248,104,146020,1,4
336,192,146483,5,0
256,192,146713,1,0
176,192,146944,1,0
176,272,147175,1,4
336,272,147636,1,4
496,192,148329,5,2
416,192,148560,1,2
336,192,148791,1,4
184,192,149253,1,2
104,192,149483,1,2
24,192,149714,2,4,B|24:256|32:280|56:312|96:336|152:352|264:352,1,300
256,256,151098,5,0
256,176,151329,1,0
256,96,151559,1,0
256,16,151790,1,2
256,16,152021,1,2
184,288,153406,5,0
256,336,153636,1,0
328,288,153867,1,0
296,216,154098,1,0
216,216,154329,1,0
160,160,154559,1,4
352,160,155021,1,4
496,192,155713,5,0
424,160,155944,1,0
352,128,156175,2,2,B|146:128,1,200
72,128,156867,1,0
72,48,157098,2,2,B|283:48,1,200
352,48,157790,1,4
320,256,158252,5,4
192,256,158713,1,4
16,192,159406,1,0
88,160,159637,1,0
160,128,159868,2,2,B|366:128,1,200
440,128,160560,1,0
440,48,160791,2,2,B|229:48,1,200
160,48,161483,1,4
192,192,161944,1,4
320,192,162406,1,4
40,160,163098,6,2,B|160:56|177:49|194:51|204:60|232:86|256:87|259:80|252:87|254:87|240:88|303:72|320:56|327:55|335:52|346:52|344:56|395:97|455:156|465:168,1,500
392,216,164483,2,4,B|344:271|222:294|160:264|122:211|96:200,1,300
256,192,165867,12,4,168867
