osu file format v14

[General]
AudioFilename: Laszlo - Interstellar.mp3
AudioLeadIn: 0
PreviewTime: 166618
Countdown: 0
SampleSet: Soft
StackLeniency: 0.7
Mode: 0
LetterboxInBreaks: 1
WidescreenStoryboard: 1

[Editor]
Bookmarks: 74743,76171,80976,164743,168046
DistanceSpacing: 0.8
BeatDivisor: 4
GridSize: 4
TimelineZoom: 1

[Metadata]
Title:Interstellar
TitleUnicode:Interstellar
Artist:Laszlo
ArtistUnicode:Laszlo
Creator:Kay-
Version:Normal
Source:
Tags:EDM
BeatmapID:649673
BeatmapSetID:284239

[Difficulty]
HPDrainRate:4
CircleSize:3
OverallDifficulty:4
ApproachRate:4.5
SliderMultiplier:1.2
SliderTickRate:1

[Events]
//Background and Video events
0,0,"monstercat.jpg",0,0
//Break Periods
2,46818,59889
2,106818,118952
//Storyboard Layer 0 (Background)
//Storyboard Layer 1 (Fail)
//Storyboard Layer 2 (Pass)
//Storyboard Layer 3 (Foreground)
//Storyboard Sound Samples

[TimingPoints]
1618,468.75,4,2,0,45,1,0
16383,-100,4,2,0,30,0,0
27165,-100,4,2,0,50,0,0
31618,-100,4,2,0,50,0,1
42399,-100,4,2,0,15,0,0
61149,-100,4,2,0,50,0,0
77086,-100,4,2,0,50,0,1
104039,-100,4,2,0,15,0,0
120212,-100,4,2,0,50,0,0
167086,-100,4,2,0,50,0,1
209039,-100,4,2,0,15,0,0
211735,1764.70588235294,4,2,0,10,1,0

[HitObjects]
56,160,16618,6,0,P|140:144|196:164,1,120
260,192,17555,1,0,0:0:0:0:
356,192,18024,1,0,0:0:0:0:
408,112,18493,1,0,0:0:0:0:
500,92,18962,1,0,0:0:0:0:
500,92,19430,2,0,L|480:248,1,120
404,264,20368,5,0,0:0:0:0:
308,248,20837,1,0,0:0:0:0:
224,296,21305,1,0,0:0:0:0:
128,284,21774,1,0,0:0:0:0:
32,296,22243,2,0,P|60:208|96:200,1,120
76,104,23180,2,0,P|121:67|120:9,1,120
216,44,24118,5,0,0:0:0:0:
304,80,24587,1,0,0:0:0:0:
392,44,25055,2,0,P|428:96|408:160,1,120
340,208,25993,1,0,0:0:0:0:
248,240,26462,1,0,0:0:0:0:
156,216,26930,2,0,P|112:180|96:120,1,120
184,128,27868,6,0,P|248:104|324:128,1,120
380,160,28805,1,0,0:0:0:0:
408,252,29274,1,0,0:0:0:0:
364,336,29743,6,0,P|296:328|208:352,1,120
152,352,30680,1,0,0:0:0:0:
64,312,31149,2,0,L|84:232,1,60
52,124,31618,6,0,P|124:124|176:180,1,120
164,208,32321,1,0,0:0:0:0:
148,252,32555,2,0,L|176:312,1,60
220,300,33024,2,0,L|248:360,1,60
292,356,33493,6,0,P|376:348|408:276,1,120
392,276,34196,1,0,0:0:0:0:
436,252,34430,2,0,L|464:188,1,60
432,160,34899,2,0,L|460:96,1,60
416,76,35368,6,0,P|356:52|272:76,1,120
276,100,36071,1,0,0:0:0:0:
228,104,36305,2,0,L|160:144,1,60
132,116,36774,2,0,L|64:156,1,60
32,132,37243,6,0,P|16:204|72:260,1,120
100,316,38180,2,0,L|164:384,2,60
188,276,39118,6,0,P|144:220|152:168,1,120
196,92,40055,2,0,P|240:148|232:200,1,120
276,280,40993,5,0,0:0:0:0:
368,300,41462,1,0,0:0:0:0:
448,248,41930,2,0,P|480:188|460:124,1,120
384,180,42868,6,0,P|380:100|424:56,1,120
308,92,43805,1,0,0:0:0:0:
216,120,44274,1,0,0:0:0:0:
256,192,44743,12,0,46618,0:0:0:0:
256,192,61149,5,0,0:0:0:0:
256,192,61618,12,0,68649,0:0:0:0:
312,44,69118,6,0,P|256:68|204:56,2,90
332,112,70172,2,0,L|344:160,1,30
368,176,70524,2,0,P|372:228|360:256,1,60
348,276,70993,6,0,P|304:283|270:312,2,90
288,240,72047,2,0,L|264:208,1,30
248,176,72399,1,0,0:0:0:0:
228,132,72633,1,0,0:0:0:0:
256,192,72868,12,0,74743,0:0:0:0:
136,44,76149,6,0,L|112:172,1,120
48,232,77087,1,0,0:0:0:0:
144,248,77555,1,0,0:0:0:0:
216,312,78024,1,0,0:0:0:0:
312,308,78493,5,0,0:0:0:0:
356,292,78727,2,0,L|376:384,2,60
384,252,79430,2,0,L|424:184,1,60
388,160,79899,2,0,L|428:92,1,60
424,60,80368,6,0,P|376:12|288:24,1,120
300,100,81305,2,0,P|260:143|202:153,1,120
116,112,82243,1,0,0:0:0:0:
64,192,82712,1,0,0:0:0:0:
68,288,83180,2,0,P|144:296|200:260,1,120
224,256,83883,1,0,0:0:0:0:
322,224,84352,6,0,P|312:288|320:304,2,60
372,224,85055,2,0,P|408:172|420:104,1,120
360,48,85993,1,0,0:0:0:0:
268,28,86462,1,0,0:0:0:0:
184,76,86930,2,0,P|197:134|232:182,1,120
284,264,87868,6,0,L|256:324,2,60
332,276,88571,1,0,0:0:0:0:
372,248,88805,2,0,L|412:304,2,60
392,204,89508,1,0,0:0:0:0:
256,192,89743,12,0,91618,0:0:0:0:
96,200,92087,6,0,P|168:216|196:272,1,120
236,336,93024,1,0,0:0:0:0:
332,352,93493,1,0,0:0:0:0:
412,300,93962,1,0,0:0:0:0:
428,204,94430,2,0,P|404:132|352:96,1,120
276,88,95368,6,0,P|192:80|136:36,1,120
68,84,96305,2,0,L|12:0,2,60
52,180,97243,2,0,P|60:256|44:316,1,120
144,316,98180,2,0,L|184:380,2,60
232,280,99118,6,0,P|288:216|368:220,1,120
416,212,100055,1,0,0:0:0:0:
416,212,100524,2,0,L|388:72,2,120
436,308,101930,2,0,P|400:352|324:336,1,120
244,336,102868,6,0,L|220:264,1,60
216,232,103337,1,0,0:0:0:0:
212,184,103571,2,0,P|236:100|228:52,1,120
256,192,104508,12,0,106618,0:0:0:0:
256,192,120212,12,0,121618,0:0:0:0:
204,40,122087,6,0,P|224:120|212:200,1,120
204,252,123024,1,0,0:0:0:0:
108,236,123493,2,0,P|128:320|200:340,1,120
248,352,124430,2,0,P|324:344|348:360,1,60
352,344,124899,1,0,0:0:0:0:
444,320,125368,6,0,P|400:268|400:204,1,120
436,132,126305,1,0,0:0:0:0:
352,84,126774,1,0,0:0:0:0:
264,124,127243,2,0,P|256:192|200:224,1,120
124,240,128180,2,0,P|132:172|188:140,1,120
260,112,129118,5,0,0:0:0:0:
352,140,129587,1,0,0:0:0:0:
444,112,130055,2,0,L|472:196,2,60
356,72,130993,1,0,0:0:0:0:
284,136,131462,1,0,0:0:0:0:
188,152,131930,2,0,L|140:80,2,60
96,176,132868,6,0,P|132:256|108:328,1,120
208,340,133805,2,0,P|282:293|356:306,1,120
328,196,134743,2,0,P|392:240|408:288,2,120
236,168,136149,6,0,L|152:144,2,60
176,244,137087,1,0,0:0:0:0:
80,232,137555,1,0,0:0:0:0:
72,136,138024,2,0,P|120:88|204:88,1,120
264,80,138962,1,0,0:0:0:0:
356,100,139430,1,0,0:0:0:0:
444,56,139899,1,0,0:0:0:0:
444,56,140368,6,0,P|408:136|404:212,1,120
408,264,141305,1,0,0:0:0:0:
408,264,141774,2,0,P|360:308|312:312,2,90
396,216,142712,2,0,P|404:152|428:128,1,60
408,112,143180,2,0,P|395:48|358:16,2,90
372,148,144118,5,0,0:0:0:0:
304,216,144587,1,0,0:0:0:0:
208,216,145055,1,0,0:0:0:0:
132,156,145524,2,0,P|104:72|56:52,1,120
48,148,146462,2,0,P|76:232|124:252,1,120
180,296,147399,1,0,0:0:0:0:
248,228,147868,5,0,0:0:0:0:
248,228,148337,2,0,P|324:264|340:300,1,120
428,260,149274,1,0,0:0:0:0:
428,260,149743,2,0,P|480:208|484:140,2,120
340,304,151149,1,0,0:0:0:0:
244,296,151618,6,0,L|204:388,2,60
180,224,152555,1,0,0:0:0:0:
84,228,153024,1,0,0:0:0:0:
40,144,153493,2,0,L|-24:132,2,60
100,72,154430,1,0,0:0:0:0:
192,96,154899,1,0,0:0:0:0:
280,56,155368,6,0,L|264:-8,2,60
364,104,156305,1,0,0:0:0:0:
416,184,156774,1,0,0:0:0:0:
372,272,157243,2,0,L|408:344,2,60
292,216,158180,2,0,P|228:204|148:252,1,120
104,284,159118,6,0,P|137:313|181:320,2,90
84,216,160172,1,0,0:0:0:0:
96,144,160524,2,0,P|113:119|137:102,1,60
168,64,160993,2,0,P|134:35|90:28,2,90
208,92,161930,2,0,P|225:116|251:130,1,60
296,152,162399,1,0,0:0:0:0:
340,172,162633,1,0,0:0:0:0:
256,192,162868,12,0,164743,0:0:0:0:
388,320,165680,6,0,P|296:284|272:300,1,120
196,328,166618,6,0,P|136:340|128:272,1,120
124,200,167555,1,0,0:0:0:0:
188,128,168024,1,0,0:0:0:0:
124,56,168493,5,0,0:0:0:0:
100,100,168727,2,0,L|68:176,2,60
116,144,169430,2,0,L|132:224,1,60
112,248,169899,2,0,L|100:324,1,60
148,332,170368,6,0,P|244:360|264:340,1,120
344,344,171305,1,0,0:0:0:0:
344,344,171774,2,0,P|328:284|384:228,1,120
452,220,172712,1,0,0:0:0:0:
476,128,173180,1,0,0:0:0:0:
404,64,173649,1,0,0:0:0:0:
312,88,174118,1,0,0:0:0:0:
264,100,174352,6,0,P|200:96|184:76,2,60
288,140,175055,2,0,P|252:216|204:224,1,120
176,228,175758,1,0,0:0:0:0:
128,216,175993,1,0,0:0:0:0:
96,180,176227,6,0,P|76:128|52:108,2,60
120,140,176930,2,0,L|156:80,1,60
120,52,177399,2,0,L|156:-8,1,60
200,8,177868,5,0,0:0:0:0:
284,52,178337,1,0,0:0:0:0:
308,144,178805,2,0,P|284:224|292:296,1,120
360,320,179743,2,0,P|384:240|376:168,1,120
388,108,180680,5,0,0:0:0:0:
312,48,181149,1,0,0:0:0:0:
216,68,181618,2,0,P|144:92|200:128,1,120
152,208,182555,6,0,P|192:268|272:280,1,120
332,276,183493,1,0,0:0:0:0:
332,276,183962,2,0,P|385:300|414:351,2,120
236,296,185368,5,0,0:0:0:0:
156,244,185837,2,0,P|140:184|144:160,1,60
152,140,186305,1,0,0:0:0:0:
232,84,186774,1,0,0:0:0:0:
328,100,187243,1,0,0:0:0:0:
408,140,187712,2,0,L|476:88,2,60
376,228,188649,1,0,0:0:0:0:
280,232,189118,5,0,0:0:0:0:
212,300,189587,2,0,P|156:336|144:388,1,120
48,372,190524,1,0,0:0:0:0:
8,284,190993,1,0,0:0:0:0:
40,192,191462,2,0,P|80:120|80:64,1,120
172,120,192399,1,0,0:0:0:0:
172,120,192868,6,0,P|224:176|280:180,1,120
352,148,193805,1,0,0:0:0:0:
448,148,194274,1,0,0:0:0:0:
496,232,194743,1,0,0:0:0:0:
456,320,195212,1,0,0:0:0:0:
360,304,195680,2,0,P|288:312|240:352,1,120
156,316,196618,6,0,L|124:376,2,60
88,248,197555,2,0,L|20:268,2,60
100,152,198493,1,0,0:0:0:0:
176,92,198962,1,0,0:0:0:0:
268,112,199430,2,0,L|316:44,2,60
224,196,200368,6,0,P|256:276|240:344,1,120
348,312,201305,2,0,L|388:364,2,60
392,224,202243,1,0,0:0:0:0:
356,136,202712,1,0,0:0:0:0:
380,44,203180,2,0,L|440:4,2,60
284,36,204118,6,0,P|212:84|160:64,1,120
180,176,205055,2,0,P|121:177|80:218,1,120
84,316,205993,1,0,0:0:0:0:
172,356,206462,1,0,0:0:0:0:
264,336,206930,2,0,P|332:300|360:244,1,120
376,172,207868,6,0,L|302:151,1,60
274,137,208337,1,0,0:0:0:0:
232,113,208571,2,0,P|175:46|131:25,1,120
256,192,209508,12,0,211618,0:0:0:0:
256,192,211845,12,0,213499,0:0:0:0:
