osu file format v14

[General]
AudioFilename: Laszlo - Interstellar.mp3
AudioLeadIn: 0
PreviewTime: 166618
Countdown: 0
SampleSet: Soft
StackLeniency: 0.7
Mode: 0
LetterboxInBreaks: 1
WidescreenStoryboard: 1

[Editor]
Bookmarks: 1640,13370,46651,67711,68180,70993,73805,76171,80976,130172,164274,168046,186562,213499
DistanceSpacing: 1.5
BeatDivisor: 4
GridSize: 4
TimelineZoom: 1

[Metadata]
Title:Interstellar
TitleUnicode:Interstellar
Artist:Laszlo
ArtistUnicode:Laszlo
Creator:Kay-
Version:Insane
Source:
Tags:EDM
BeatmapID:649672
BeatmapSetID:284239

[Difficulty]
HPDrainRate:6
CircleSize:4
OverallDifficulty:7
ApproachRate:8
SliderMultiplier:1.8
SliderTickRate:1

[Events]
//Background and Video events
0,0,"monstercat.jpg",0,0
//Break Periods
2,46791,58732
2,106792,120842
//Storyboard Layer 0 (Background)
//Storyboard Layer 1 (Fail)
//Storyboard Layer 2 (Pass)
//Storyboard Layer 3 (Foreground)
//Storyboard Sound Samples

[TimingPoints]
1592,468.75,4,2,0,45,1,0
31592,-100,4,2,0,60,0,1
44482,-200,4,2,0,60,0,0
61123,-100,4,2,0,60,0,0
74717,-83.3333333333333,4,2,0,60,0,0
76592,-200,4,2,0,60,0,0
77060,-100,4,2,0,60,0,1
100498,-100,4,2,0,60,0,1
106592,-100,4,2,0,60,0,0
135185,-83.3333333333333,4,2,0,60,0,0
135654,-71.4285714285714,4,2,0,60,0,0
136123,-62.5,4,2,0,60,0,0
136592,-100,4,2,0,60,0,0
167060,-100,4,2,0,60,0,1
211123,-100,4,2,0,35,0,0
211709,1764.70588235294,4,2,0,10,1,0

[HitObjects]
256,192,12842,12,0,16123,0:0:0:0:
56,144,16592,6,0,P|112:168|144:160,1,90
236,116,17061,1,0,0:0:0:0:
236,116,17295,1,0,0:0:0:0:
308,216,17529,6,0,P|247:224|224:247,1,90
164,352,17998,1,0,0:0:0:0:
164,352,18232,1,0,0:0:0:0:
288,368,18467,6,0,P|323:318|355:308,1,90
468,268,18936,1,0,0:0:0:0:
468,268,19170,1,0,0:0:0:0:
424,80,19404,6,0,P|393:112|387:156,1,90
376,304,19873,1,0,0:0:0:0:
376,304,19990,2,0,L|328:232,1,45
304,200,20342,6,0,P|272:169|228:162,1,90
180,44,20811,1,0,0:0:0:0:
180,44,21045,1,0,0:0:0:0:
92,136,21279,6,0,P|136:131|174:152,1,90
88,244,21748,1,0,0:0:0:0:
88,244,21982,1,0,0:0:0:0:
32,356,22217,6,0,P|75:347|106:315,1,90,0|0,0:3|0:3,0:3:0:0:
228,280,22686,1,0,0:0:0:0:
332,348,22920,1,0,0:0:0:0:
344,340,23037,1,0,0:0:0:0:
356,332,23154,1,0,0:0:0:0:
488,300,23389,1,0,0:0:0:0:
432,176,23623,2,0,P|408:132|384:148,1,90
268,76,24092,6,0,P|232:108|188:104,1,90
124,224,24561,2,0,P|148:172|116:56,1,180
244,12,25264,1,0,0:0:0:0:
320,124,25498,2,0,L|384:216,1,90
336,328,25967,5,0,0:0:0:0:
228,244,26201,1,0,0:0:0:0:
164,364,26436,2,0,B|104:324|104:324|88:244|52:224,1,180
88,96,27139,1,0,0:0:0:0:
216,56,27373,1,0,0:0:0:0:
312,152,27607,1,0,0:0:0:0:
400,265,27842,6,0,P|459:201|444:116,1,180
347,210,28545,2,0,P|288:274|304:360,1,180
347,210,29248,1,0,0:0:0:0:
240,288,29482,2,0,P|192:304|140:296,1,90
48,368,29951,1,0,0:0:0:0:
184,224,30185,5,0,0:0:0:0:
112,68,30420,1,0,0:0:0:0:
32,216,30654,1,0,0:0:0:0:
208,144,30889,5,0,0:0:0:0:
220,140,31006,1,0,0:0:0:0:
232,136,31123,1,0,0:0:0:0:
424,72,31357,1,0,0:0:0:0:
424,72,31592,6,0,L|300:108,1,90
292,224,32061,2,0,L|400:192,1,90
312,316,32529,2,0,B|236:300|168:340|168:340|124:308,1,180
12,348,33232,1,0,0:0:0:0:
40,200,33467,6,0,L|88:300,1,90
112,112,33936,2,0,L|160:212,1,90
204,316,34404,2,0,P|260:336|288:308,1,90
412,344,34873,2,0,P|332:292|320:204,1,180
368,88,35576,5,0,0:0:0:0:
368,88,35811,2,0,L|268:128,1,90
164,64,36279,2,0,P|204:120|204:168,1,90
160,296,36748,2,0,P|120:240|120:192,1,90
64,96,37217,5,0,0:0:0:0:
196,192,37451,1,0,0:0:0:0:
64,96,37686,1,0,0:0:0:0:
196,192,37920,1,0,0:0:0:0:
156,320,38154,2,0,P|232:296|264:312,1,90
296,336,38506,1,0,0:0:0:0:
296,336,38623,2,0,B|268:280|292:204|292:204|264:160,1,180
184,24,39326,1,0,0:0:0:0:
308,68,39560,5,0,0:0:0:0:
72,344,40029,1,0,0:0:0:0:
368,280,40498,1,0,0:0:0:0:
104,64,40967,1,0,0:0:0:0:
392,72,41435,1,0,0:0:0:0:
76,132,41904,1,0,0:0:0:0:
152,48,42139,5,0,0:0:0:0:
256,132,42373,1,0,0:0:0:0:
364,48,42608,1,0,0:0:0:0:
424,176,42842,2,0,P|344:132|224:144,1,180
128,176,43545,1,0,0:0:0:0:
128,176,43779,2,0,P|88:248|92:280,2,90
188,256,44482,6,0,B|163:319|202:370|276:336|276:336|307:367|336:336|336:336|409:367|456:324|424:252,1,405
256,192,59482,12,0,61123,0:0:0:0:
52,56,61592,6,0,B|88:100|88:100|192:88|236:120,1,180
336,52,62295,1,0,0:0:0:0:
336,52,62529,2,0,P|336:108|376:148,1,90
488,144,62998,2,0,P|488:200|448:240,1,90
400,344,63467,6,0,P|356:312|304:316,1,90
112,344,63936,2,0,P|156:312|208:316,1,90
136,188,64404,2,0,B|152:120|152:120|184:80,1,90
300,124,64873,1,0,0:0:0:0:
312,116,64990,1,0,0:0:0:0:
324,108,65107,1,0,0:0:0:0:
336,100,65225,1,0,0:0:0:0:
348,92,65342,2,0,L|320:212,1,90
364,336,65810,5,0,0:0:0:0:
312,316,65927,1,0,0:0:0:0:
260,336,66045,1,0,0:0:0:0:
208,336,66162,1,0,0:0:0:0:
160,360,66279,1,0,0:0:0:0:
108,340,66396,1,0,0:0:0:0:
80,292,66513,1,0,0:0:0:0:
80,236,66631,1,0,0:0:0:0:
104,188,66748,2,0,B|128:144|128:144|128:72,1,90
228,24,67217,5,0,0:0:0:0:
264,76,67334,1,0,0:0:0:0:
324,96,67451,1,0,0:0:0:0:
384,80,67568,1,0,0:0:0:0:
436,44,67685,2,0,P|480:88|472:148,1,90
480,296,68154,2,0,B|400:264|400:264|336:288|280:264,1,180
160,92,69092,6,0,B|200:160|200:160|160:232,2,135
24,112,70029,2,0,P|19:90|20:67,3,45
40,160,70498,1,0,0:0:0:0:
32,208,70615,1,0,0:0:0:0:
12,252,70732,1,0,0:0:0:0:
28,296,70849,1,0,0:0:0:0:
72,316,70967,2,0,B|120:320|120:320|176:292|220:308,2,135
308,328,71904,1,0,0:0:0:0:
308,328,72021,2,0,B|392:352|392:352|436:340|456:292,1,135
404,204,72607,5,0,0:0:0:0:
404,204,72724,1,0,0:0:0:0:
404,204,72842,2,0,L|344:168,1,45
284,200,73076,1,0,0:0:0:0:
284,200,73193,1,0,0:0:0:0:
284,200,73310,2,0,L|216:216,1,45
152,196,73545,1,0,0:0:0:0:
152,196,73662,1,0,0:0:0:0:
152,196,73779,2,0,L|80:176,6,45
124,72,74717,6,0,P|152:132|112:232,1,161.999995056153
100,256,75186,2,0,P|140:324|212:304,1,161.999995056153
240,292,75654,2,0,P|356:268|424:332,1,215.999993408203
292,52,76592,6,0,L|240:72,1,45
368,236,77061,2,0,P|284:188|200:220,1,180
136,324,77764,1,0,0:0:0:0:
136,324,77881,1,0,0:0:0:0:
136,324,77998,2,0,L|96:208,1,90
56,116,78467,5,0,0:0:0:0:
180,60,78701,1,0,0:0:0:0:
180,60,78936,2,0,P|200:120|248:144,1,90
364,140,79404,1,0,0:0:0:0:
300,272,79639,1,0,0:0:0:0:
192,176,79873,1,0,0:0:0:0:
384,224,80107,1,0,0:0:0:0:
396,80,80342,5,0,0:0:0:0:
284,172,80576,1,0,0:0:0:0:
416,232,80811,1,0,0:0:0:0:
396,80,81045,2,0,P|420:32|416:-16,1,90
284,172,81514,2,0,P|260:220|264:268,1,90
432,340,81982,6,0,B|340:316|340:316|292:320|292:320|164:288,1,270
48,116,82920,2,0,P|164:88|128:200,1,270
64,320,83857,1,0,0:0:0:0:
432,28,84326,6,0,B|424:84|424:84|440:136|440:152,1,90
360,240,84795,2,0,B|368:296|368:296|352:348|352:364,1,90
224,280,85264,1,0,0:0:0:0:
132,172,85498,1,0,0:0:0:0:
236,72,85732,1,0,0:0:0:0:
368,124,85967,5,0,0:0:0:0:
368,124,86201,2,0,L|412:244,2,90
236,204,86904,2,0,P|208:264|224:324,1,90
104,84,87373,2,0,P|100:39|76:1,1,90
228,28,87842,5,0,0:0:0:0:
136,152,88076,1,0,0:0:0:0:
288,188,88311,1,0,0:0:0:0:
308,20,88545,1,0,0:0:0:0:
172,88,88779,1,0,0:0:0:0:
288,188,89014,2,0,L|332:288,1,90
200,356,89482,1,0,0:0:0:0:
200,356,89717,6,0,B|152:264|152:264|88:248|88:192,1,180
68,88,90420,2,0,P|104:16|144:4,1,90
192,120,90888,1,0,0:0:0:0:
192,120,91006,1,0,0:0:0:0:
192,120,91123,1,0,0:0:0:0:
304,44,91357,1,0,0:0:0:0:
424,104,91592,6,0,B|420:172|420:172|428:220,1,90
300,364,92061,2,0,B|304:296|304:296|296:248,1,90
344,148,92529,1,0,0:0:0:0:
416,264,92764,1,0,0:0:0:0:
496,156,92998,1,0,0:0:0:0:
376,216,93232,1,0,0:0:0:0:
264,140,93467,6,0,P|228:80|228:56,1,90
164,180,93936,2,0,P|160:232|136:268,1,90
56,380,94404,1,0,0:0:0:0:
184,348,94639,1,0,0:0:0:0:
184,348,94756,1,0,0:0:0:0:
184,348,94873,2,0,L|276:320,1,90
404,340,95342,5,0,0:0:0:0:
376,208,95576,1,0,0:0:0:0:
476,116,95811,1,0,0:0:0:0:
380,20,96045,2,0,B|340:40|340:40|328:56|304:68,1,90
160,40,96514,1,0,0:0:0:0:
160,40,96631,1,0,0:0:0:0:
160,40,96748,1,0,0:0:0:0:
112,148,96982,6,0,B|180:184|180:184|192:220|192:220|236:212|260:232,1,180
392,276,97686,2,0,L|504:316,2,90
264,228,98389,1,0,0:0:0:0:
248,220,98506,1,0,0:0:0:0:
232,212,98623,1,0,0:0:0:0:
108,156,98857,1,0,0:0:0:0:
108,156,99092,5,0,0:0:0:0:
12,52,99326,2,0,B|0:96|0:96|0:148,1,90
96,244,99795,2,0,B|108:200|108:200|108:148,1,90
116,20,100264,1,0,0:0:0:0:
282,88,100498,6,0,L|116:20,1,180
136,152,101201,1,0,0:0:0:0:
60,264,101436,2,0,B|124:224|172:288|172:288|232:292,1,180
352,332,102139,1,0,0:0:0:0:
452,136,102373,1,0,0:0:0:0:
200,40,102842,6,0,B|180:96|180:96|112:140|124:196|152:228,1,180
312,344,103545,2,0,B|332:288|332:288|400:244|388:188|360:156,1,180
256,192,104482,12,0,106592,0:0:0:0:
120,32,121592,6,0,P|128:92|96:140,1,90
84,208,122060,1,0,0:0:0:0:
224,304,122295,1,0,0:0:0:0:
204,200,122529,2,0,P|200:152|208:128,1,45
200,116,122763,2,0,L|208:64,2,45
432,344,123232,1,0,0:0:0:0:
432,344,123467,6,0,P|448:276|488:252,1,90
372,124,123936,1,0,0:0:0:0:
332,248,124170,1,0,0:0:0:0:
316,276,124287,1,0,0:0:0:0:
292,296,124404,1,0,0:0:0:0:
264,312,124521,1,0,0:0:0:0:
232,320,124639,1,0,0:0:0:0:
200,324,124756,2,0,B|152:328|152:328|132:324,1,45
288,60,125342,6,0,P|232:44|172:64,1,90
240,180,125811,1,0,0:0:0:0:
364,128,126045,1,0,0:0:0:0:
364,128,126162,1,0,0:0:0:0:
364,128,126279,2,0,L|448:92,2,90
240,180,126982,1,0,0:0:0:0:
152,364,127217,6,0,L|112:268,1,90
108,256,127568,1,0,0:0:0:0:
96,228,127686,1,0,0:0:0:0:
44,104,127920,2,0,L|4:8,1,90
174,37,128389,2,0,L|208:120,2,90
428,136,129092,5,0,0:0:0:0:
428,136,129326,2,0,B|384:148|384:148|364:168|364:168|316:180,1,90
224,192,129795,1,0,0:0:0:0:
224,192,129912,1,0,0:0:0:0:
224,192,130029,1,0,0:0:0:0:
100,264,130263,2,0,L|40:304,2,45
20,0,130732,1,0,0:0:0:0:
20,0,130967,6,0,B|40:40|40:40|36:116,1,90
20,220,131436,2,0,B|0:260|0:260|4:336,1,90
4,324,131787,1,0,0:0:0:0:
8,340,131904,1,0,0:0:0:0:
168,264,132139,1,0,0:0:0:0:
256,128,132373,1,0,0:0:0:0:
340,288,132607,1,0,0:0:0:0:
256,128,132842,6,0,L|356:316,1,180
204,240,133545,2,0,L|104:52,1,180
56,212,134248,1,0,0:0:0:0:
4,344,134482,1,0,0:0:0:0:
148,336,134717,6,0,L|248:332,1,90
144,324,135186,6,0,L|268:320,1,107.999996704102
140,312,135654,6,0,L|300:308,1,125.999996154785
136,304,136123,6,0,L|292:300,1,144
408,208,136592,6,0,B|392:164|392:164|404:88,1,90
237,1,137061,2,0,B|244:44|244:44|228:88,1,90
185,306,137529,2,0,B|169:262|169:262|176:220,1,90
16,68,137998,2,0,B|62:76|62:76|121:124,1,90
56,272,138467,5,0,0:0:0:0:
56,272,138701,1,0,0:0:0:0:
368,236,138936,5,0,0:0:0:0:
368,236,139170,1,0,0:0:0:0:
236,24,139404,5,0,0:0:0:0:
236,24,139639,1,0,0:0:0:0:
176,220,139873,5,0,0:0:0:0:
176,220,140107,1,0,0:0:0:0:
364,352,140342,5,0,0:0:0:0:
364,352,140576,1,0,0:0:0:0:
464,144,140811,5,0,0:0:0:0:
464,144,141045,1,0,0:0:0:0:
192,136,141279,5,0,0:0:0:0:
192,136,141514,1,0,0:0:0:0:
68,212,141748,6,0,B|84:272|84:272|168:312|180:336,1,135
156,312,142217,1,0,0:0:0:0:
416,336,142451,1,0,0:0:0:0:
416,336,142686,2,0,L|396:240,1,90
308,152,143154,2,0,P|248:181|228:244,2,135
52,200,144092,5,0,0:0:0:0:
96,336,144326,1,0,0:0:0:0:
232,292,144561,1,0,0:0:0:0:
192,152,144795,1,0,0:0:0:0:
52,100,145029,1,0,0:0:0:0:
0,224,145264,1,0,0:0:0:0:
140,280,145498,2,0,P|144:340|136:368,1,90
192,152,145967,6,0,P|182:108|187:63,1,90
312,248,146436,2,0,P|316:308|308:336,1,90
364,92,146904,2,0,P|354:48|359:3,1,90
240,84,147373,1,0,0:0:0:0:
116,16,147607,1,0,0:0:0:0:
116,16,147842,6,0,P|136:80|132:120,1,90
88,276,148311,1,0,0:0:0:0:
108,288,148545,1,0,0:0:0:0:
344,296,148779,5,0,0:0:0:0:
328,276,149013,1,0,0:0:0:0:
432,72,149248,5,0,0:0:0:0:
444,92,149482,1,0,0:0:0:0:
160,72,149717,6,0,P|224:104|240:148,1,90
92,308,150186,2,0,P|160:276|188:288,1,90
300,356,150654,2,0,P|288:308|308:260,1,90
308,260,151006,1,0,0:0:0:0:
328,52,151357,5,0,0:0:0:0:
328,52,151592,2,0,P|248:64|200:52,1,90
192,116,151943,1,0,0:0:0:0:
192,116,152061,2,0,P|224:180|220:228,1,90
140,332,152529,5,0,0:0:0:0:
160,316,152646,1,0,0:0:0:0:
184,304,152764,1,0,0:0:0:0:
212,296,152881,1,0,0:0:0:0:
240,296,152998,1,0,0:0:0:0:
268,300,153115,1,0,0:0:0:0:
292,308,153232,1,0,0:0:0:0:
316,320,153350,2,0,L|372:356,1,45
368,200,153701,1,0,0:0:0:0:
388,56,153936,5,0,0:0:0:0:
364,68,154053,1,0,0:0:0:0:
340,76,154170,1,0,0:0:0:0:
312,80,154287,1,0,0:0:0:0:
284,76,154404,1,0,0:0:0:0:
256,68,154521,1,0,0:0:0:0:
232,56,154639,2,0,L|148:16,1,90
0,120,155107,2,0,L|84:160,1,90
152,284,155576,1,0,0:0:0:0:
296,292,155811,5,0,0:0:0:0:
296,292,155928,1,0,0:0:0:0:
296,292,156045,2,0,P|280:228|292:184,1,90
396,120,156514,2,0,P|456:184|456:296,1,180
396,120,157217,5,0,0:0:0:0:
372,108,157334,1,0,0:0:0:0:
344,100,157451,1,0,0:0:0:0:
316,100,157568,1,0,0:0:0:0:
288,108,157686,2,0,B|248:132|248:132|168:108,1,90
64,232,158154,1,0,0:0:0:0:
88,224,158271,1,0,0:0:0:0:
112,216,158389,2,0,B|153:203|153:203|193:227,1,90
432,356,159092,6,0,B|440:264|440:264|424:240|424:240|428:188,2,135
312,292,160029,1,0,0:0:0:0:
312,292,160146,1,0,0:0:0:0:
312,292,160264,2,0,L|220:320,1,90
68,184,160732,1,0,0:0:0:0:
156,79,160967,6,0,P|139:144|164:205,2,135
292,136,161904,1,0,0:0:0:0:
288,188,162021,1,0,0:0:0:0:
328,216,162138,2,0,P|340:272|316:316,1,90
464,104,162607,1,0,0:0:0:0:
324,28,162842,5,0,0:0:0:0:
296,40,162959,1,0,0:0:0:0:
256,52,163076,1,0,0:0:0:0:
216,56,163193,1,0,0:0:0:0:
168,52,163310,1,0,0:0:0:0:
116,76,163427,1,0,0:0:0:0:
76,120,163545,1,0,0:0:0:0:
72,180,163662,1,0,0:0:0:0:
96,232,163779,1,0,0:0:0:0:
148,276,163896,1,0,0:0:0:0:
216,280,164013,1,0,0:0:0:0:
272,240,164131,1,0,0:0:0:0:
300,180,164248,2,0,L|304:112,4,45
96,344,164951,5,0,0:0:0:0:
96,344,165068,1,0,0:0:0:0:
224,196,165303,1,0,0:0:0:0:
224,196,165420,1,0,0:0:0:0:
36,156,165654,2,0,P|60:72|141:39,1,180
376,216,166592,6,0,P|456:256|384:300,1,180
276,268,167295,1,0,0:0:0:0:
136,240,167529,2,0,L|180:352,1,90
32,372,167998,2,0,L|16:168,1,180
84,64,168701,5,0,0:0:0:0:
84,64,168936,2,0,P|136:68|180:112,1,90
152,212,169404,2,0,P|164:264|196:312,1,90
356,120,169873,2,0,P|344:68|312:20,1,90
264,200,170342,5,0,0:0:0:0:
160,320,170576,1,0,0:0:0:0:
432,200,170811,1,0,0:0:0:0:
408,360,171045,1,0,0:0:0:0:
268,128,171279,1,0,0:0:0:0:
284,336,171514,1,0,0:0:0:0:
480,304,171748,1,0,0:0:0:0:
384,184,171982,6,0,B|392:120|432:56|432:56|480:48|484:12,1,180
256,192,172686,1,0,0:0:0:0:
128,200,172920,2,0,B|120:264|80:328|80:328|32:336|28:372,1,180
48,124,173623,1,0,0:0:0:0:
224,36,173857,1,0,0:0:0:0:
376,164,174092,5,0,0:0:0:0:
376,164,174326,2,0,P|348:220|376:280,2,90
264,344,175029,2,0,P|228:296|172:284,1,90
40,208,175498,1,0,0:0:0:0:
100,360,175732,1,0,0:0:0:0:
284,308,175967,5,0,0:0:0:0:
292,104,176201,1,0,0:0:0:0:
244,240,176436,1,0,0:0:0:0:
136,140,176670,1,0,0:0:0:0:
244,240,176904,2,0,P|232:296|232:344,1,90
292,104,177373,2,0,P|304:48|304:0,1,90
156,44,177842,5,0,0:0:0:0:
128,196,178076,1,0,0:0:0:0:
244,296,178311,1,0,0:0:0:0:
244,144,178545,1,0,0:0:0:0:
148,264,178779,2,0,P|92:296|60:348,1,90
180,168,179248,1,0,0:0:0:0:
180,168,179482,6,0,B|224:124|224:124|312:120|360:72,1,180
464,4,180186,2,0,P|432:72|452:104,1,90
480,264,180654,5,0,0:0:0:0:
460,252,180771,1,0,0:0:0:0:
440,244,180888,1,0,0:0:0:0:
416,240,181006,1,0,0:0:0:0:
392,244,181123,1,0,0:0:0:0:
372,252,181240,1,0,0:0:0:0:
352,264,181357,1,0,0:0:0:0:
332,284,181474,1,0,0:0:0:0:
320,304,181592,6,0,P|284:356|196:296,1,180
76,252,182295,1,0,0:0:0:0:
132,116,182529,1,0,0:0:0:0:
256,164,182764,2,0,L|352:136,1,90
476,196,183232,2,0,L|380:224,1,90
376,364,183701,1,0,0:0:0:0:
264,272,183936,1,0,0:0:0:0:
364,168,184170,1,0,0:0:0:0:
308,36,184404,6,0,P|176:36|128:60,1,180
256,192,185107,1,0,0:0:0:0:
204,348,185342,2,0,P|292:357|377:328,1,180
220,216,186045,1,0,0:0:0:0:
72,64,186279,6,0,P|128:120|80:224,1,180
296,108,186982,1,0,0:0:0:0:
440,320,187217,2,0,P|384:264|432:160,1,180
416,24,187920,1,0,0:0:0:0:
416,24,188037,1,0,0:0:0:0:
416,24,188154,1,0,0:0:0:0:
196,160,188389,2,0,L|292:100,1,90
88,248,188857,1,0,0:0:0:0:
88,248,189092,6,0,P|140:304|240:304,1,180
368,240,189795,1,0,0:0:0:0:
368,240,190029,2,0,L|420:336,2,90
312,108,190732,1,0,0:0:0:0:
184,40,190967,6,0,P|228:140|204:208,1,180
136,328,191670,1,0,0:0:0:0:
272,276,191904,1,0,0:0:0:0:
272,276,192021,1,0,0:0:0:0:
272,276,192139,2,0,L|380:228,1,90
424,364,192607,1,0,0:0:0:0:
456,224,192842,6,0,L|492:32,1,180
348,80,193545,1,0,0:0:0:0:
204,60,193779,1,0,0:0:0:0:
204,60,193896,1,0,0:0:0:0:
204,60,194014,2,0,P|152:56|120:28,1,90
20,132,194482,2,0,P|64:132|100:158,1,90
172,284,194951,5,0,0:0:0:0:
172,284,195068,1,0,0:0:0:0:
172,284,195186,2,0,P|228:344|252:344,1,90
332,240,195654,1,0,0:0:0:0:
332,240,195889,2,0,L|264:152,1,90
60,28,196357,2,0,L|36:124,2,90
172,120,197061,5,0,0:0:0:0:
92,244,197295,1,0,0:0:0:0:
220,282,197529,2,0,P|220:194|172:120,1,180
220,282,198232,1,0,0:0:0:0:
332,192,198467,6,0,P|368:156|416:152,1,90
388,292,198936,2,0,P|358:324|314:333,1,90
204,240,199404,1,0,0:0:0:0:
80,316,199639,1,0,0:0:0:0:
80,316,199756,1,0,0:0:0:0:
80,316,199873,2,0,P|52:236|56:200,1,90
116,112,200342,6,0,B|144:176|208:144|208:144|276:200,1,180
356,276,201045,1,0,0:0:0:0:
456,184,201279,2,0,P|436:124|448:80,1,90
452,28,201631,1,0,0:0:0:0:
452,28,201748,2,0,P|384:80|288:72,1,180
156,32,202451,5,0,0:0:0:0:
56,136,202686,1,0,0:0:0:0:
72,280,202920,1,0,0:0:0:0:
204,340,203154,2,0,P|240:292|276:276,1,90
340,284,203506,1,0,0:0:0:0:
340,284,203623,2,0,P|316:216|328:108,1,180
436,12,204326,6,0,P|456:80|432:128,2,90
304,68,205029,1,0,0:0:0:0:
160,52,205264,1,0,0:0:0:0:
24,96,205498,2,0,P|52:160|48:192,1,90
92,316,205967,6,0,B|152:320|152:320|224:308|312:328,1,180
420,68,206670,1,0,0:0:0:0:
420,68,206904,2,0,B|360:64|360:64|288:76|200:56,1,180
208,60,207490,2,0,L|128:52,1,45
100,316,207842,6,0,P|116:232|104:200,1,90
244,104,208311,1,0,0:0:0:0:
244,104,208545,2,0,P|240:188|324:272,1,180
256,192,209482,12,0,211123,0:0:0:0:
192,192,211709,6,0,P|256:136|316:192,1,180
