osu file format v14

[General]
AudioFilename: Laszlo - Interstellar.mp3
AudioLeadIn: 0
PreviewTime: 166618
Countdown: 0
SampleSet: Soft
StackLeniency: 0.7
Mode: 0
LetterboxInBreaks: 1
WidescreenStoryboard: 1

[Editor]
Bookmarks: 168046,186562,213515
DistanceSpacing: 1.5
BeatDivisor: 4
GridSize: 4
TimelineZoom: 1

[Metadata]
Title:Interstellar
TitleUnicode:Interstellar
Artist:Laszlo
ArtistUnicode:Laszlo
Creator:Kay-
Version:Hard
Source:
Tags:EDM
BeatmapID:649671
BeatmapSetID:284239

[Difficulty]
HPDrainRate:6
CircleSize:3
OverallDifficulty:6
ApproachRate:7
SliderMultiplier:1.4
SliderTickRate:1

[Events]
//Background and Video events
0,0,"monstercat.jpg",0,0
//Break Periods
2,46818,60718
2,106818,120718
//Storyboard Layer 0 (Background)
//Storyboard Layer 1 (Fail)
//Storyboard Layer 2 (Pass)
//Storyboard Layer 3 (Foreground)
//Storyboard Sound Samples

[TimingPoints]
1618,468.75,4,2,0,45,1,0
1618,-100,4,2,0,15,0,0
12868,-100,4,2,0,30,0,0
27165,-100,4,2,0,50,0,0
31618,-100,4,2,0,50,0,1
42633,-100,4,2,0,15,0,0
61618,-100,4,2,0,50,0,0
74743,-70.4225352112676,4,2,0,43,0,0
76618,-100,4,2,0,60,0,0
77086,-100,4,2,0,60,0,1
100524,-100,4,2,0,60,0,0
164743,-89.2857142857143,4,2,0,43,0,0
167086,-100,4,2,0,60,0,1
209743,-100,4,2,0,5,0,0
211735,1764.70588235294,4,2,0,10,1,0

[HitObjects]
112,264,1618,6,0,P|152:232|188:232,1,70
276,228,2086,2,0,P|309:237|333:262,1,70
396,348,2555,1,0,0:0:0:0:
484,288,2789,1,0,0:0:0:0:
472,184,3024,6,0,P|428:136|424:108,1,70
448,32,3493,1,0,0:0:0:0:
448,32,3727,1,0,0:0:0:0:
352,76,3961,2,0,P|288:100|268:96,1,70
200,44,4430,5,0,0:0:0:0:
120,112,4664,1,0,0:0:0:0:
92,212,4899,1,0,0:0:0:0:
148,300,5133,1,0,0:0:0:0:
252,324,5368,2,0,P|288:272|320:264,1,70
396,292,5836,6,0,P|360:344|328:352,1,70
252,324,6305,1,0,0:0:0:0:
148,300,6539,1,0,0:0:0:0:
52,344,6774,2,0,P|44:292|56:260,1,70
16,176,7243,5,0,0:0:0:0:
48,76,7477,1,0,0:0:0:0:
144,36,7711,1,0,0:0:0:0:
228,100,7946,1,0,0:0:0:0:
200,200,8180,2,0,P|256:216|292:196,1,70
385,157,8649,6,0,P|354:141|320:144,1,70
336,248,9118,1,0,0:0:0:0:
276,332,9352,1,0,0:0:0:0:
172,340,9586,1,0,0:0:0:0:
92,272,9821,1,0,0:0:0:0:
68,168,10055,6,0,P|88:116|80:72,1,70
188,68,10524,1,0,0:0:0:0:
188,68,10758,1,0,0:0:0:0:
304,28,10993,2,0,P|284:80|292:124,1,70
304,196,11461,5,0,0:0:0:0:
304,196,11696,1,0,0:0:0:0:
388,260,11930,2,0,P|352:296|312:300,1,70
228,304,12399,2,0,P|196:317|174:344,1,70
256,192,12868,12,0,16149,0:0:0:0:
316,88,16618,5,0,0:0:0:0:
384,164,16852,1,0,0:0:0:0:
400,260,17087,2,0,P|344:340|288:336,1,140
204,328,17790,1,0,0:0:0:0:
204,328,18024,2,0,L|256:188,1,140
196,84,18727,1,0,0:0:0:0:
196,84,18962,6,0,L|148:216,1,140
244,256,19665,1,0,0:0:0:0:
244,256,19899,2,0,P|264:200|352:200,1,140
364,292,20602,5,0,0:0:0:0:
364,292,20837,2,0,P|430:286|456:225,1,140
396,140,21540,2,0,L|360:76,1,70
256,76,22008,1,0,0:0:0:0:
256,76,22243,6,0,P|276:144|196:164,1,140
128,140,22946,1,0,0:0:0:0:
104,244,23180,1,0,0:0:0:0:
172,324,23415,2,0,L|124:363,2,35
276,336,23883,2,0,P|308:308|320:256,1,70
224,188,24352,5,0,0:0:0:0:
224,188,24587,2,0,L|288:128,2,70
268,284,25290,1,0,0:0:0:0:
268,284,25524,2,0,P|184:300|128:248,1,140
184,176,26227,1,0,0:0:0:0:
80,168,26462,2,0,P|68:88|16:52,1,140
124,84,27165,5,0,0:0:0:0:
224,52,27399,1,0,0:0:0:0:
324,88,27633,1,0,0:0:0:0:
420,44,27868,2,0,P|460:96|420:184,1,140
424,268,28571,1,0,0:0:0:0:
424,268,28805,2,0,P|332:240|272:264,1,140
212,316,29508,6,0,L|180:244,1,70
80,276,29977,2,0,L|52:200,1,70
84,108,30446,1,0,0:0:0:0:
164,44,30680,1,0,0:0:0:0:
256,108,30915,2,0,L|256:160,2,35
256,4,31383,1,0,0:0:0:0:
352,44,31618,6,0,B|392:80|392:80|388:136|424:164,1,140
364,248,32321,1,0,0:0:0:0:
412,340,32555,2,0,L|324:324,1,70
244,288,33023,2,0,L|156:304,1,70
72,316,33493,5,0,0:0:0:0:
16,228,33727,1,0,0:0:0:0:
48,128,33962,2,0,P|108:132|140:152,1,70
204,188,34430,1,0,0:0:0:0:
280,264,34665,1,0,0:0:0:0:
384,244,34899,2,0,L|456:216,2,70
384,140,35602,5,0,0:0:0:0:
292,96,35837,1,0,0:0:0:0:
228,184,36071,1,0,0:0:0:0:
260,288,36305,2,0,P|216:336|132:308,1,140
60,328,37008,1,0,0:0:0:0:
60,328,37243,6,0,L|140:200,1,140
196,296,37946,1,0,0:0:0:0:
308,320,38180,1,0,0:0:0:0:
380,232,38415,1,0,0:0:0:0:
380,232,38532,1,0,0:0:0:0:
380,232,38649,2,0,L|432:168,1,70
336,120,39118,5,0,0:0:0:0:
244,168,39352,1,0,0:0:0:0:
180,80,39587,1,0,0:0:0:0:
88,144,39821,1,0,0:0:0:0:
88,144,40055,2,0,P|4:212|4:268,1,140
96,284,40758,1,0,0:0:0:0:
196,312,40993,6,0,P|280:244|280:188,1,140
284,112,41696,2,0,P|320:76|352:72,1,70
444,64,42165,2,0,P|476:51|497:23,2,70
256,192,42868,12,0,46618,0:0:0:0:
256,192,61618,12,0,68649,0:0:0:0:
160,104,69118,6,0,B|184:160|184:160|172:228|188:232,2,105
240,36,70055,1,0,0:0:0:0:
332,88,70290,1,0,0:0:0:0:
436,76,70524,2,0,P|424:140|432:164,1,70
492,224,70993,6,0,B|456:252|456:252|392:256,2,105
340,168,71930,1,0,0:0:0:0:
340,168,72047,1,0,0:0:0:0:
340,168,72165,2,0,P|268:144|224:192,1,140
172,92,72868,2,0,L|112:84,14,35
276,120,74743,6,0,B|240:48|300:-8|392:-8|456:56|484:136|288:244|308:296|360:348|472:364|516:312|504:256,1,596.399969968874
232,244,76618,6,0,L|216:160,1,70
128,56,77087,2,0,L|144:140,1,70
92,216,77555,1,0,0:0:0:0:
176,276,77790,1,0,0:0:0:0:
100,348,78024,1,0,0:0:0:0:
100,348,78258,2,0,L|184:320,1,70
272,344,78727,5,0,0:0:0:0:
348,272,78962,1,0,0:0:0:0:
448,304,79196,1,0,0:0:0:0:
448,304,79430,6,0,P|468:248|460:212,1,70
408,152,79899,2,0,P|391:182|388:217,1,70
284,216,80368,6,0,L|280:308,2,70
244,116,81071,1,0,0:0:0:0:
344,152,81305,1,0,0:0:0:0:
432,92,81540,1,0,0:0:0:0:
376,8,81774,5,0,0:0:0:0:
376,8,82008,6,0,P|292:48|168:20,1,210
76,20,82946,2,0,P|94:121|49:214,1,210
32,320,83883,1,0,0:0:0:0:
228,244,84352,6,0,L|304:280,2,70
168,160,85055,1,0,0:0:0:0:
212,64,85290,1,0,0:0:0:0:
312,36,85524,2,0,P|356:64|380:96,1,70
440,276,86227,5,0,0:0:0:0:
340,244,86462,1,0,0:0:0:0:
264,316,86696,1,0,0:0:0:0:
172,264,86930,2,0,L|76:232,1,70
60,148,87399,2,0,L|156:180,1,70
228,140,87868,5,0,0:0:0:0:
320,192,88102,1,0,0:0:0:0:
424,188,88337,1,0,0:0:0:0:
424,188,88571,2,0,P|440:276|376:296,1,140
308,328,89274,1,0,0:0:0:0:
308,328,89508,2,0,P|292:240|356:220,1,140
232,164,90211,1,0,0:0:0:0:
248,60,90446,1,0,0:0:0:0:
148,16,90680,5,0,0:0:0:0:
56,76,90914,2,0,P|72:128|64:168,1,70
40,244,91383,1,0,0:0:0:0:
40,244,91618,2,0,P|41:278|55:310,1,70
88,156,92087,5,0,0:0:0:0:
88,156,92321,2,0,P|148:120|232:136,1,140
320,136,93024,1,0,0:0:0:0:
420,108,93258,1,0,0:0:0:0:
476,200,93493,5,0,0:0:0:0:
476,200,93727,2,0,P|404:224|396:240,1,70
316,260,94196,2,0,P|272:276|232:268,1,70
144,260,94665,2,0,P|72:284|64:300,1,70
24,188,95133,1,0,0:0:0:0:
24,188,95368,6,0,L|4:96,3,70
112,112,96305,1,0,0:0:0:0:
196,176,96540,1,0,0:0:0:0:
292,140,96774,2,0,L|348:84,1,70
448,96,97243,2,0,L|398:145,1,70
372,244,97712,5,0,0:0:0:0:
372,244,97946,2,0,L|224:316,1,140
140,296,98649,1,0,0:0:0:0:
140,296,98766,1,0,0:0:0:0:
140,296,98883,2,0,L|124:220,1,70
196,148,99352,6,0,L|240:80,1,70
132,60,99821,2,0,L|108:-8,2,70
236,84,100524,1,0,0:0:0:0:
276,180,100758,1,0,0:0:0:0:
360,116,100993,6,0,P|344:176|356:208,1,70
452,188,101462,2,0,P|416:260|360:284,1,140
260,284,102165,2,0,L|240:356,1,70
264,72,102868,6,0,P|344:88|392:148,1,140
248,312,103571,2,0,P|168:296|120:236,1,140
256,192,104508,12,0,106618,0:0:0:0:
420,48,121618,6,0,P|384:100|384:136,1,70
320,188,122087,2,0,P|364:232|376:256,1,70
364,344,122555,2,0,L|400:372,4,35
264,312,123258,1,0,0:0:0:0:
160,300,123493,5,0,0:0:0:0:
64,336,123727,2,0,P|52:288|56:252,1,70
80,168,124196,2,0,L|96:132,4,35
24,80,124899,1,0,0:0:0:0:
224,144,125368,6,0,L|192:64,1,70
284,16,125837,2,0,L|316:96,1,70
404,132,126305,2,0,P|360:184|364:260,1,140
164,332,127243,6,0,P|208:279|207:211,1,140
120,152,127946,1,0,0:0:0:0:
120,48,128180,1,0,0:0:0:0:
220,20,128415,1,0,0:0:0:0:
288,100,128649,1,0,0:0:0:0:
144,244,129118,6,0,L|280:308,1,140
380,360,129821,1,0,0:0:0:0:
380,360,129938,1,0,0:0:0:0:
380,360,130055,2,0,L|432:384,4,35
384,256,130758,1,0,0:0:0:0:
456,180,130993,5,0,0:0:0:0:
400,92,131227,1,0,0:0:0:0:
296,72,131462,1,0,0:0:0:0:
244,164,131696,1,0,0:0:0:0:
244,164,131813,1,0,0:0:0:0:
244,164,131930,2,0,P|256:216|248:260,1,70
180,304,132399,2,0,P|168:252|176:208,1,70
168,132,132868,5,0,0:0:0:0:
168,132,133102,2,0,P|168:64|152:40,1,70
268,36,133571,2,0,B|264:96|264:96|304:132|292:192,1,140
252,264,134274,1,0,0:0:0:0:
252,264,134508,6,0,B|300:231|300:231|351:248|377:222,1,140
436,136,135212,1,0,0:0:0:0:
436,136,135680,1,0,0:0:0:0:
436,136,136149,1,0,0:0:0:0:
248,44,136618,6,0,L|264:116,1,70
196,196,137087,2,0,L|180:124,1,70
104,56,137555,1,0,0:0:0:0:
44,140,137790,1,0,0:0:0:0:
112,220,138024,2,0,L|40:256,1,70
36,356,138493,6,0,L|108:320,1,70
200,300,138962,1,0,0:0:0:0:
300,332,139196,1,0,0:0:0:0:
392,284,139430,2,0,B|368:228|368:228|400:172|392:120,1,140
240,8,140368,6,0,B|264:64|264:64|232:120|240:172,1,140
316,208,141071,1,0,0:0:0:0:
248,288,141305,1,0,0:0:0:0:
144,264,141540,1,0,0:0:0:0:
132,160,141774,5,0,0:0:0:0:
132,160,142008,2,0,P|220:128|224:64,1,140
320,40,142712,2,0,L|360:112,1,70
400,196,143180,2,0,P|329:257|348:318,1,140
440,288,143883,1,0,0:0:0:0:
440,288,144118,5,0,0:0:0:0:
333,294,144352,2,0,P|272:308|248:336,1,70
148,236,144821,2,0,P|209:249|233:277,1,70
328,172,145289,2,0,P|266:185|242:213,1,70
176,128,145758,1,0,0:0:0:0:
176,128,145993,6,0,P|216:88|200:8,1,140
288,72,146696,1,0,0:0:0:0:
388,104,146930,1,0,0:0:0:0:
488,72,147164,2,0,P|448:112|464:192,1,140
460,296,147868,6,0,P|384:268|328:312,1,140
240,332,148571,1,0,0:0:0:0:
144,288,148805,1,0,0:0:0:0:
172,188,149039,2,0,P|176:132|152:96,1,70
260,60,149508,2,0,P|256:116|280:152,1,70
348,188,149977,2,0,P|352:132|328:96,1,70
260,60,150446,5,0,0:0:0:0:
188,136,150680,1,0,0:0:0:0:
208,240,150914,1,0,0:0:0:0:
136,320,151149,2,0,P|88:284|84:256,1,70
192,184,151618,5,0,0:0:0:0:
192,184,151852,2,0,L|164:260,1,70
232,332,152321,1,0,0:0:0:0:
232,332,152555,2,0,P|272:276|360:264,1,140
440,284,153258,1,0,0:0:0:0:
440,284,153493,6,0,L|480:312,4,35
384,192,154196,1,0,0:0:0:0:
432,100,154430,1,0,0:0:0:0:
432,100,154665,2,0,L|368:64,1,70
276,108,155133,2,0,L|184:128,1,70
112,168,155602,5,0,0:0:0:0:
36,96,155837,1,0,0:0:0:0:
36,96,156071,2,0,P|60:160|48:256,1,140
40,336,156774,2,0,L|28:376,4,35
144,336,157477,5,0,0:0:0:0:
224,268,157712,1,0,0:0:0:0:
328,276,157946,1,0,0:0:0:0:
328,276,158180,2,0,L|404:312,2,70
172,136,159118,6,0,P|240:168|296:148,2,105
264,84,160055,1,0,0:0:0:0:
356,140,160290,1,0,0:0:0:0:
356,140,160524,2,0,L|428:104|444:96,1,70
452,208,160993,6,0,P|405:267|412:326,2,105
324,268,161930,1,0,0:0:0:0:
324,268,162165,2,0,L|252:328,2,70
220,252,162868,6,0,L|192:212,6,35
284,200,163688,2,0,L|256:164,7,35
256,76,164743,6,0,B|300:8|364:8|436:32|444:124|404:184|336:208|324:228|316:260,1,392.000004785156
320,384,166149,1,0,0:0:0:0:
104,284,166618,6,0,P|104:332|16:316,1,156.800001914063
32,216,167321,1,0,0:0:0:0:
84,124,167555,2,0,P|136:168|156:172,1,70
228,120,168024,2,0,P|258:136|280:164,1,70
244,264,168493,5,0,0:0:0:0:
324,332,168727,1,0,0:0:0:0:
404,260,168962,1,0,0:0:0:0:
320,188,169196,1,0,0:0:0:0:
244,264,169430,2,0,L|168:316,1,70
88,268,169899,2,0,L|164:216,1,70
232,168,170368,5,0,0:0:0:0:
232,168,170602,2,0,L|240:268,2,70
140,120,171305,1,0,0:0:0:0:
204,36,171540,1,0,0:0:0:0:
296,84,171774,1,0,0:0:0:0:
388,32,172008,6,0,B|396:104|396:104|436:128|448:188|400:228,1,210
316,280,172946,2,0,B|263:267|248:208|273:169|273:169|249:101,1,210
164,44,173883,1,0,0:0:0:0:
76,100,174118,5,0,0:0:0:0:
52,204,174352,2,0,L|-16:252,2,70
48,308,175055,1,0,0:0:0:0:
144,268,175290,1,0,0:0:0:0:
212,348,175524,2,0,P|268:312|296:316,1,70
364,268,175993,5,0,0:0:0:0:
364,268,176227,2,0,L|416:336,2,70
300,184,176930,2,0,L|360:136,1,70
212,200,177399,2,0,L|152:248,1,70
52,228,177868,5,0,0:0:0:0:
12,128,178102,2,0,P|40:104|96:104,1,70
52,228,178571,2,0,P|112:228|168:168,1,140
224,88,179274,1,0,0:0:0:0:
320,48,179508,6,0,P|383:73|409:136,1,140
372,236,180212,2,0,P|336:284|320:288,1,70
236,236,180680,1,0,0:0:0:0:
132,236,180915,1,0,0:0:0:0:
132,236,181032,1,0,0:0:0:0:
132,236,181149,2,0,P|84:256|64:288,1,70
244,4,182087,5,0,0:0:0:0:
328,68,182321,1,0,0:0:0:0:
428,40,182555,1,0,0:0:0:0:
500,116,182790,2,0,L|464:208,1,70
368,184,183258,2,0,L|332:276,1,70
268,324,183727,6,0,B|248:345|208:329|208:329|132:341,1,140
36,364,184430,2,0,L|-23:372,4,35
56,260,185133,1,0,0:0:0:0:
160,268,185368,1,0,0:0:0:0:
252,216,185602,1,0,0:0:0:0:
304,124,185837,2,0,P|340:92|380:80,2,70
200,104,186540,2,0,L|184:64,2,35
116,164,187008,1,0,0:0:0:0:
104,268,187243,5,0,0:0:0:0:
104,268,187477,2,0,P|156:300|192:296,1,70
264,268,187946,1,0,0:0:0:0:
264,268,188180,2,0,P|297:277|323:300,1,70
408,240,188649,1,0,0:0:0:0:
408,240,188883,2,0,B|411:164|411:164|435:128|418:104,1,140
324,60,189587,5,0,0:0:0:0:
252,136,189821,1,0,0:0:0:0:
152,104,190055,1,0,0:0:0:0:
48,120,190290,2,0,L|0:108,2,35
80,220,190758,1,0,0:0:0:0:
52,320,190993,6,0,P|104:344|136:340,1,70
216,312,191462,2,0,P|272:292|356:316,1,140
444,356,192165,1,0,0:0:0:0:
416,256,192399,2,0,P|404:204|416:176,1,70
404,84,192868,5,0,0:0:0:0:
312,36,193102,1,0,0:0:0:0:
224,92,193337,1,0,0:0:0:0:
216,196,193571,2,0,L|256:276,1,70
188,344,194040,2,0,L|148:264,1,70
100,192,194508,1,0,0:0:0:0:
100,192,194743,6,0,B|132:128|132:128|104:80|128:44,1,140
412,192,195681,2,0,B|380:256|380:256|408:304|384:340,1,140
188,276,196618,6,0,P|156:240|148:212,1,70
256,212,197087,1,0,0:0:0:0:
216,116,197321,2,0,P|144:96|84:124,1,140
32,212,198024,1,0,0:0:0:0:
56,316,198258,1,0,0:0:0:0:
156,344,198493,5,0,0:0:0:0:
244,284,198727,1,0,0:0:0:0:
256,180,198962,1,0,0:0:0:0:
340,120,199196,1,0,0:0:0:0:
444,140,199430,2,0,P|464:212|460:228,1,70
436,308,199899,2,0,P|411:332|378:345,1,70
276,316,200368,6,0,P|249:293|233:262,1,70
208,160,200837,2,0,P|209:125|223:93,1,70
300,24,201305,2,0,P|352:0|388:0,2,70
220,92,202008,1,0,0:0:0:0:
176,188,202243,5,0,0:0:0:0:
200,292,202477,2,0,P|264:320|276:312,1,70
348,372,202946,2,0,P|300:320|300:248,1,140
312,232,203532,2,0,L|344:196,1,35
412,132,203883,1,0,0:0:0:0:
360,40,204118,5,0,0:0:0:0:
264,80,204352,2,0,L|180:120,2,70
168,32,205055,1,0,0:0:0:0:
72,76,205290,1,0,0:0:0:0:
40,176,205524,2,0,P|64:236|52:320,1,140
160,304,206227,5,0,0:0:0:0:
160,304,206462,2,0,L|248:332,1,70
332,344,206930,1,0,0:0:0:0:
408,272,207165,1,0,0:0:0:0:
376,172,207399,1,0,0:0:0:0:
168,140,207868,6,0,L|248:112,2,70
140,240,208571,2,0,P|212:216|280:264,1,140
340,320,209274,2,0,L|392:384,1,70
256,192,209743,12,0,211149,0:0:0:0:
256,268,211735,6,0,B|224:192|288:192|240:104,1,140
