osu file format v13

[General]
AudioFilename: setsunatrip.mp3
AudioLeadIn: 1797
PreviewTime: 80825
Countdown: 0
SampleSet: Soft
StackLeniency: 0.7
Mode: 0
LetterboxInBreaks: 0
WidescreenStoryboard: 0

[Editor]
Bookmarks: 44877,54808,68049,74670,107773,114394,180601,193842
DistanceSpacing: 1.2
BeatDivisor: 4
GridSize: 4
TimelineZoom: 1.9

[Metadata]
Title:Setsuna Trip
TitleUnicode:セツナトリップ
Artist:Last Note.
ArtistUnicode:Last Note.
Creator:theramdans
Version:Normal
Source:
Tags:vocaloid megpoid gumi Fort
BeatmapID:419567
BeatmapSetID:99499

[Difficulty]
HPDrainRate:4
CircleSize:3
OverallDifficulty:4
ApproachRate:5.5
SliderMultiplier:0.700000005960465
SliderTickRate:1

[Events]
//Background and Video events
0,0,"GUMIST.jpg",0,0
Video,0,"PVST.avi"
//Break Periods
2,45077,53683
2,107973,113269
2,167566,171200
//Storyboard Layer 0 (Background)
//Storyboard Layer 1 (Fail)
//Storyboard Layer 2 (Pass)
//Storyboard Layer 3 (Foreground)
//Storyboard Sound Samples

[TimingPoints]
10737,206.896551724138,4,2,1,15,1,0
15084,206.896551724138,4,2,1,62,1,0
28325,-100,4,2,1,72,0,0
79635,-100,4,2,1,35,0,0
81290,-100,4,1,1,72,0,1
93704,-100,4,1,1,62,0,0
94532,-100,4,1,1,72,0,1
107773,-100,4,2,1,62,0,0
114394,-100,4,2,1,42,0,0
121015,-100,4,2,1,72,0,0
139221,-100,4,2,1,35,0,0
140877,-100,4,1,1,72,0,1
153290,-100,4,1,1,62,0,0
154118,-100,4,1,1,72,0,1
167359,-100,4,2,1,72,0,0
193842,-100,4,2,1,62,0,0
200463,-100,4,2,1,72,0,0
206566,-100,4,2,1,35,0,0
207497,-100,4,1,1,72,0,1
223428,-100,4,2,1,72,0,0
223635,-100,4,2,1,62,0,1
223739,-100,4,2,1,72,0,0

[Colours]
Combo1 : 128,255,0
Combo2 : 200,145,255
Combo3 : 255,128,0
Combo4 : 0,0,255

[HitObjects]
256,192,10737,12,0,13219,0:0:0:0:
430,171,14668,5,8,0:0:0:0:
507,320,15084,6,0,L|367:312,1,140.000001192093,6|8,0:0|0:0,0:0:0:0:
222,225,15911,2,0,L|239:151,2,70.0000005960465,2|0|8,0:0|0:0|0:0,0:0:0:0:
60,272,16739,2,0,P|37:238|34:206,1,70.0000005960465,2|0,0:0|0:0,0:0:0:0:
49,127,17152,2,0,L|81:55,1,70.0000005960465,8|0,0:0|0:0,0:0:0:0:
156,32,17566,2,0,P|224:44|293:34,1,140.000001192093,2|8,0:0|0:0,0:0:0:0:
453,88,18394,6,0,P|497:139|491:207,1,140.000001192093,2|8,0:0|0:0,0:0:0:0:
373,328,19221,2,0,L|448:349,2,70.0000005960465,2|0|8,0:0|0:0|0:0,0:0:0:0:
204,326,20049,2,0,P|157:277|161:208,1,140.000001192093,6|8,0:0|0:0,0:0:0:0:
196,131,20670,1,2,0:0:0:0:
254,70,20877,2,0,L|389:35,1,140.000001192093,2|8,0:0|0:0,0:0:0:0:
463,187,21704,6,0,L|327:221,1,140.000001192093,6|8,0:0|0:0,0:0:0:0:
176,296,22532,2,0,P|184:335|207:361,2,70.0000005960465,2|0|8,0:0|0:0|0:0,0:0:0:0:
106,143,23359,2,0,P|153:92|219:69,1,140.000001192093,2|8,0:0|0:0,0:0:0:0:
303,65,23980,1,2,0:0:0:0:
380,96,24187,2,0,B|393:162|393:162|379:236,1,140.000001192093,2|8,0:0|0:0,0:0:0:0:
231,313,25015,6,0,P|170:346|101:343,1,140.000001192093,2|8,0:0|0:0,0:0:0:0:
48,183,25842,2,0,P|38:144|44:112,2,70.0000005960465,2|0|8,0:0|0:0|0:0,0:0:0:0:
211,222,26670,2,0,L|349:198,1,140.000001192093,2|8,0:0|0:0,0:0:0:0:
462,74,27497,2,0,L|324:97,1,140.000001192093,6|8,0:0|0:0,0:0:0:0:
239,93,28118,1,8,0:0:0:0:
168,138,28325,6,0,P|151:204|168:271,1,140.000001192093,6|8,0:0|0:0,0:0:0:0:
262,356,29049,2,0,B|171:338|171:338|94:367,1,175.000001490116,2|8,0:0|0:0,0:0:0:0:
41,301,29773,2,0,P|18:235|26:166,1,140.000001192093,2|2,0:0|0:0,0:0:0:0:
75,98,30394,2,0,B|122:73|153:134|212:103,2,140.000001192093,8|2|8,0:0|0:0|0:0,0:0:0:0:
135,254,31635,6,0,P|216:316|300:254,2,210.000001788139,6|2|8,0:0|0:0|0:0,0:0:0:0:
154,171,33084,1,2,0:0:0:0:
315,124,33497,1,2,0:0:0:0:
315,124,33704,2,0,L|455:97,2,140.000001192093,8|2|8,0:0|0:0|0:0,0:0:0:0:
172,34,34946,6,0,P|104:27|59:76,1,140.000001192093,6|8,0:0|0:0,0:0:0:0:
78,158,35566,1,2,0:0:0:0:
85,241,35773,2,0,L|28:282,2,70.0000005960465,2|2|8,0:0|0:0|0:0,0:0:0:0:
169,234,36394,1,2,0:0:0:0:
247,264,36601,2,0,P|313:276|364:231,1,140.000001192093,2|8,0:0|0:0,0:0:0:0:
323,68,37428,2,0,L|181:36,1,140.000001192093,2|8,0:0|0:0,2:0:0:0:
71,161,38256,6,0,B|27:225|67:297|67:297|19:353,2,210.000001788139,6|2|8,0:0|0:0|0:0,0:0:0:0:
216,76,39911,2,0,L|350:38,2,140.000001192093,2|8|2,0:0|0:0|0:0,0:0:0:0:
214,244,41152,2,0,P|177:244|148:272,1,70.0000005960465,2|8,0:0|0:0,0:0:0:0:
96,327,41566,1,6,0:0:0:0:
256,192,41773,12,6,44877,0:0:0:0:
72,176,54808,5,6,0:0:0:0:
72,176,55015,1,0,0:0:0:0:
72,176,55221,2,0,P|120:112|180:104,2,140.000001192093,8|2|8,0:0|0:0|0:0,0:0:0:0:
97,256,56256,2,0,B|138:310|216:295|216:295|261:377,1,210.000001788139,2|8,0:0|0:0,0:0:0:0:
336,375,57084,2,0,B|397:341|397:341|426:267,1,140.000001192093,2|8,0:0|0:0,0:0:0:0:
435,192,57704,2,0,P|419:160|390:142,1,70.0000005960465,2|8,0:0|0:0,0:0:0:0:
322,92,58118,6,0,P|222:74|155:149,2,210.000001788139,6|2|8,0:0|0:0|0:0,0:0:0:0:
334,175,59566,1,8,0:0:0:0:
246,291,59980,1,2,0:0:0:0:
177,339,60187,2,0,P|153:349|100:347,1,70.0000005960465,8|0,0:0|0:0,0:0:0:0:
56,283,60601,2,0,L|42:132,1,140.000001192093,2|8,0:0|0:0,0:0:0:0:
80,68,61221,1,8,0:0:0:0:
163,50,61428,6,0,P|231:86|247:146,1,140.000001192093,6|8,0:0|0:0,0:0:0:0:
220,223,62049,1,0,0:0:0:0:
146,263,62256,2,0,L|66:255,2,70.0000005960465,2|2|8,0:0|0:0|0:0,0:0:0:0:
200,327,62877,1,0,0:0:0:0:
284,327,63084,2,0,B|358:327|358:327|410:287,2,140.000001192093,2|8|2,0:0|0:0|0:0,0:0:0:0:
296,159,64325,1,8,0:0:0:0:
162,258,64739,6,0,B|130:226|130:226|142:154|86:114|86:114|90:74,2,210.000001788139,6|2|8,0:0|0:0|0:0,0:0:0:0:
330,258,66394,2,0,B|362:226|362:226|350:154|406:114|406:114|402:77,2,210.000001788139,2|2|8,0:0|0:0|0:0,0:0:0:0:
264,310,67842,1,2,0:0:0:0:
183,330,68049,6,0,P|95:294|63:186,1,210.000001788139,6|2,0:0|0:0,0:0:0:0:
98,114,68877,2,0,B|140:90|140:90|234:90,1,140.000001192093,2|0,0:3|0:0,0:0:0:0:
301,136,69497,2,0,P|357:175|425:174,1,140.000001192093,8|8,0:3|0:3,0:0:0:0:
469,336,70325,1,8,0:3:0:0:
469,336,70532,1,10,0:3:0:0:
305,301,70946,1,0,0:0:0:0:
305,301,71152,1,2,0:3:0:0:
305,301,71359,6,0,B|275:321|275:321|247:300|247:300|176:336|114:300,1,210.000001788139,6|2,0:0|0:0,0:0:0:0:
61,234,72187,2,0,L|54:91,1,140.000001192093,2|0,0:3|0:0,0:0:0:0:
218,55,73015,2,0,L|224:194,1,140.000001192093,2|2,0:0|0:3,0:0:0:0:
233,362,73842,2,0,P|267:372|305:368,2,70.0000005960465,6|2|8,0:0|0:0|0:0,0:0:0:0:
203,283,74463,1,8,0:0:0:0:
156,213,74670,6,0,B|121:163|56:164|56:164|14:121|25:64,2,210.000001788139,6|2|8,0:0|0:0|0:0,0:0:0:0:
324,213,76325,2,0,B|358:163|423:164|423:164|465:121|456:80,2,210.000001788139,6|2|8,0:0|0:0|0:0,0:0:0:0:
183,120,77980,2,0,P|116:108|67:154,2,140.000001192093,6|8|8,0:0|0:0|0:0,0:0:0:0:
198,287,79221,2,0,L|268:313,1,70.0000005960465,8|8,0:0|0:0,0:0:0:0:
345,288,79635,1,0,0:0:0:0:
276,47,80256,5,2,0:0:0:0:
345,288,80877,1,8,0:0:0:0:
484,194,81290,6,0,L|504:54,2,140.000001192093,4|8|0,0:0|0:0|0:0,0:0:0:0:
408,233,82325,2,0,P|374:219|335:223,1,70.0000005960465
268,180,82739,2,0,P|231:117|242:48,2,140.000001192093,2|8|0,0:0|0:0|0:0,0:0:0:0:
308,253,83773,2,0,P|269:302|194:300,1,140.000001192093,0|8,0:0|0:0,0:0:0:0:
116,273,84394,1,0,0:0:0:0:
119,188,84601,6,0,L|200:74,1,140.000001192093,4|8,0:0|0:0,0:0:0:0:
275,35,85221,1,0,0:0:0:0:
358,25,85428,2,0,P|421:52|436:118,1,140.000001192093,0|8,0:0|0:0,0:0:0:0:
403,195,86049,1,0,0:0:0:0:
344,255,86256,2,0,P|275:260|220:220,1,140.000001192093,4|0,0:0|0:0,0:0:0:0:
151,116,86980,2,0,P|76:152|76:236,1,175.000001490116,2|2,0:0|0:0,0:0:0:0:
188,364,87911,6,0,B|248:332|248:332|318:346,1,140.000001192093,4|8,0:0|0:0,0:0:0:0:
401,331,88532,1,0,0:0:0:0:
453,265,88739,2,0,P|495:211|483:144,1,140.000001192093,0|8,0:0|0:0,0:0:0:0:
413,97,89359,2,0,L|273:109,1,140.000001192093,2|8,0:0|0:0,0:0:0:0:
210,165,89980,2,0,L|140:171,2,70.0000005960465,0|0|8,0:0|0:0|0:0,0:0:0:0:
365,227,90808,1,0,0:0:0:0:
365,227,91015,1,0,0:0:0:0:
365,227,91221,6,0,P|304:257|289:323,2,140.000001192093,4|8|0,0:0|0:0|0:0,0:0:0:0:
361,58,92463,1,8,0:0:0:0:
361,58,92670,1,0,0:0:0:0:
361,58,92877,2,0,B|309:82|261:58|261:58|245:70|245:70|201:34|153:70,2,210.000001788139,6|2|8,0:0|0:0|0:0,0:0:0:0:
442,79,94325,1,8,0:0:0:0:
482,153,94532,6,0,L|477:300,1,140.000001192093,4|8,0:0|0:0,0:0:0:0:
424,358,95152,1,0,0:0:0:0:
340,345,95359,2,0,P|277:318|210:334,1,140.000001192093,0|8,0:0|0:0,0:0:0:0:
130,363,95980,1,0,0:0:0:0:
63,311,96187,2,0,B|22:242|64:177|64:177|6:127,2,210.000001788139,2|0|8,0:0|0:0|0:0,0:0:0:0:
142,283,97635,1,8,0:0:0:0:
220,280,97842,6,0,P|286:265|319:206,1,140.000001192093,4|8,0:0|0:0,0:0:0:0:
292,124,98463,1,0,0:0:0:0:
227,69,98670,2,0,L|149:52,2,70.0000005960465,0|0|0,0:0|0:0|0:0,0:0:0:0:
306,41,99290,1,8,0:0:0:0:
378,83,99497,2,0,B|388:140|405:149|405:149|396:187|396:187|441:191|464:248,2,210.000001788139,6|2|8,0:0|0:0|0:0,0:0:0:0:
218,29,101152,6,0,P|149:17|86:44,1,140.000001192093,4|8,0:0|0:0,0:0:0:0:
22,99,101773,1,0,0:0:0:0:
5,181,101980,2,0,L|29:321,1,140.000001192093,0|8,0:0|0:0,0:0:0:0:
101,362,102601,2,0,P|164:385|224:353,1,140.000001192093,2|8,0:0|0:0,0:0:0:0:
295,308,103221,2,0,L|364:316,1,70.0000005960465,0|0,0:0|0:0,0:0:0:0:
443,285,103635,2,0,P|479:228|460:163,1,140.000001192093,0|8,0:0|0:0,0:0:0:0:
397,104,104256,1,8,0:0:0:0:
328,55,104463,6,0,B|294:40|294:40|192:41,1,140.000001192093,4|8,0:0|0:0,0:0:0:0:
147,113,105084,1,0,0:0:0:0:
170,191,105290,2,0,P|229:227|294:207,1,140.000001192093
358,152,105911,1,8,0:0:0:0:
430,194,106118,6,0,P|460:231|432:321,1,140.000001192093,0|8,0:0|0:0,0:0:0:0:
286,245,106946,2,0,B|194:254|161:325|161:325|135:304|107:343|107:343|80:314|55:332,1,280.000002384186,6|2,0:0|0:0,0:0:0:0:
463,100,114394,6,0,B|419:60|419:60|323:60,1,140.000001192093,6|2,0:0|0:3,0:0:0:0:
236,134,115118,2,0,B|206:185|271:242|228:302,1,175.000001490116,0|2,0:0|0:3,0:0:0:0:
166,359,115842,1,2,0:3:0:0:
59,228,116256,2,0,L|32:308,2,70.0000005960465,2|2|0,0:0|0:3|0:0,0:0:0:0:
90,149,116877,2,0,P|123:108|211:93,1,140.000001192093,2|2,0:0|0:3,0:0:0:0:
289,99,117497,1,2,0:3:0:0:
363,138,117704,6,0,B|411:173|411:173|401:220|431:247|431:247|403:320,2,210.000001788139,6|2|2,0:0|0:3|0:3,0:0:0:0:
282,115,119152,1,2,0:0:0:0:
118,78,119566,1,8,0:0:0:0:
125,161,119773,2,0,L|134:308,2,140.000001192093,8|2|2,0:0|0:0|0:0,0:0:0:0:
195,113,120808,1,2,0:0:0:0:
279,117,121015,6,0,P|347:125|388:179,1,140.000001192093,6|8,0:0|0:0,0:0:0:0:
416,257,121635,1,0,0:0:0:0:
358,317,121842,2,0,L|290:333,1,70.0000005960465,2|2,0:0|0:0,0:0:0:0:
207,312,122256,2,0,P|174:299|151:273,1,70.0000005960465,8|0,0:0|0:0,0:0:0:0:
173,191,122670,2,0,P|123:143|54:137,1,140.000001192093,2|8,0:0|0:0,0:0:0:0:
200,51,123497,2,0,L|339:30,1,140.000001192093,2|8,0:0|0:0,0:0:0:0:
455,151,124325,6,0,P|488:186|474:278,1,140.000001192093,6|8,0:0|0:0,0:0:0:0:
404,311,124946,2,0,L|334:320,1,70.0000005960465,8|2,0:0|0:0,0:0:0:0:
256,288,125359,1,8,0:0:0:0:
100,227,125773,1,8,0:0:0:0:
100,227,125980,2,0,P|81:293|101:364,2,140.000001192093,2|8|2,0:0|0:0|0:0,0:0:0:0:
178,77,127221,1,8,0:0:0:0:
178,77,127428,1,8,0:0:0:0:
178,77,127635,6,0,P|277:65|330:149,1,210.000001788139,6|2,0:0|0:0,0:0:0:0:
319,232,128463,1,2,0:3:0:0:
163,166,128877,2,0,B|121:219|62:201|62:201|13:209|-1:274,1,210.000001788139,8|8,0:3|0:3,0:0:0:0:
138,363,129911,1,2,0:3:0:0:
138,363,130118,1,0,0:0:0:0:
295,304,130532,1,8,0:3:0:0:
295,304,130739,1,2,0:3:0:0:
295,304,130946,6,0,L|300:161,2,140.000001192093,6|0|2,0:0|0:0|0:3,0:0:0:0:
457,347,132187,1,2,0:0:0:0:
469,179,132601,2,0,P|476:110|437:54,1,140.000001192093,8|2,0:3|0:3,0:0:0:0:
358,202,133428,2,0,L|377:276,2,70.0000005960465,6|2|8,0:0|0:0|0:0,0:0:0:0:
321,126,134049,1,8,0:0:0:0:
243,93,134256,6,0,P|143:102|105:194,2,210.000001788139,6|2|8,0:0|0:0|0:0,0:0:0:0:
271,258,135911,2,0,B|326:295|326:295|391:262|471:291,2,210.000001788139,6|2|8,0:0|0:0|0:0,0:0:0:0:
104,233,137566,6,0,L|45:374,1,140.000001192093,6|8,0:0|0:0,0:0:0:0:
196,279,138394,2,0,L|250:149,1,140.000001192093,8|8,0:0|0:0,0:0:0:0:
392,58,139221,2,0,P|292:27|192:55,2,210.000001788139,0|0|0,0:0|0:0|0:0,0:0:0:0:
385,226,140877,6,0,B|322:253|322:253|251:242,1,140.000001192093,4|8,0:0|0:0,0:0:0:0:
189,185,141497,1,0,0:0:0:0:
156,107,141704,2,0,P|98:70|32:87,1,140.000001192093
20,170,142325,2,0,L|24:326,1,140.000001192093,2|0,0:0|0:0,0:0:0:0:
105,328,142946,2,0,P|143:324|179:337,1,70.0000005960465,0|8,0:0|0:0,0:0:0:0:
253,357,143359,2,0,P|302:347|344:271,1,140.000001192093,0|8,0:0|0:0,0:0:0:0:
336,189,143980,1,0,0:0:0:0:
272,133,144187,6,0,B|218:105|190:151|134:131,2,140.000001192093,0|8|0,0:0|0:0|0:0,0:0:0:0:
354,146,145221,1,8,0:0:0:0:
428,184,145428,2,0,P|430:218|416:250,1,70.0000005960465,0|8,0:0|0:0,0:0:0:0:
360,314,145842,2,0,L|220:288,1,140.000001192093,0|8,0:0|0:0,0:0:0:0:
104,333,146566,2,0,P|25:305|13:223,1,175.000001490116,2|2,0:0|0:0,0:0:0:0:
155,134,147497,6,0,L|43:46,2,140.000001192093,4|8|0,0:0|0:0|0:0,0:0:0:0:
235,158,148532,2,0,P|267:146|302:150,1,70.0000005960465
382,176,148946,2,0,P|428:226|429:294,2,140.000001192093,2|8|0,0:0|0:0|0:0,0:0:0:0:
315,226,149980,1,0,0:0:0:0:
148,200,150394,1,0,0:3:0:0:
148,200,150601,1,0,0:3:0:0:
148,200,150808,6,0,B|152:250|204:267|204:267|215:322|215:322|293:292|337:348,2,280.000002384186,4|0|0,0:0|0:0|0:0,0:3:0:0:
82,45,152877,1,8,0:0:0:0:
248,48,153290,2,0,L|394:61,1,140.000001192093,0|8,0:0|0:0,0:0:0:0:
447,120,153911,1,8,0:0:0:0:
484,195,154118,6,0,P|509:257|495:337,1,140.000001192093,4|8,0:0|0:0,0:0:0:0:
420,358,154739,1,0,0:0:0:0:
339,333,154946,2,0,L|199:343,1,140.000001192093,0|8,0:0|0:0,0:0:0:0:
119,316,155566,2,0,P|73:267|86:201,1,140.000001192093,2|8,0:0|0:0,0:0:0:0:
143,138,156187,2,0,L|218:158,2,70.0000005960465,0|8|0,0:0|0:0|0:0,0:0:0:0:
282,43,157015,1,8,0:0:0:0:
282,43,157221,1,0,0:0:0:0:
282,43,157428,6,0,P|347:61|373:124,1,140.000001192093,0|8,0:0|0:0,0:0:0:0:
357,206,158049,1,0,0:0:0:0:
285,249,158256,2,0,L|134:261,1,140.000001192093,0|8,0:0|0:0,0:0:0:0:
70,220,158877,1,0,0:0:0:0:
70,220,159084,2,0,B|71:158|31:137|31:137|55:105|55:105|42:90|55:33,2,210.000001788139,6|2|8,0:0|0:0|0:0,0:0:0:0:
205,319,160739,6,0,P|265:288|327:315,2,140.000001192093,4|8|0,0:0|0:0|0:0,0:0:0:0:
121,325,161773,2,0,P|94:297|90:268,1,70.0000005960465,0|8,0:0|0:0,0:0:0:0:
127,192,162187,2,0,B|193:173|193:173|265:191,1,140.000001192093,2|8,0:0|0:0,0:0:0:0:
332,237,162808,2,0,L|412:220,1,70.0000005960465,0|8,0:0|0:0,0:0:0:0:
471,178,163221,2,0,B|483:109|483:109|460:43,1,140.000001192093,0|8,0:0|0:0,0:0:0:0:
378,22,163842,1,8,0:0:0:0:
294,30,164049,6,0,P|231:45|200:123,1,140.000001192093,4|8,0:0|0:0,0:0:0:0:
245,178,164670,1,0,0:0:0:0:
322,210,164877,2,0,L|459:182,1,140.000001192093,0|8,0:0|0:0,0:0:0:0:
459,182,165497,1,0,0:0:0:0:
256,192,165704,12,6,167359,0:0:0:0:
408,296,172325,5,6,0:0:0:0:
482,145,172739,1,8,0:0:0:0:
345,47,173152,2,0,L|421:15,2,70.0000005960465,2|2|8,0:0|0:0|0:0,0:0:0:0:
271,89,173773,1,2,0:0:0:0:
186,87,173980,6,0,B|154:55|154:55|111:74|54:55,2,140.000001192093,6|8|2,0:0|0:0|0:0,0:0:0:0:
311,198,175221,1,8,0:0:0:0:
311,198,175428,1,8,0:0:0:0:
311,198,175635,6,0,P|291:282|247:314,1,140.000001192093,6|8,0:0|0:0,0:0:0:0:
168,329,176256,2,0,B|110:262|110:262|87:281|50:277,1,140.000001192093,2|8,0:0|0:0,0:0:0:0:
58,193,176877,2,0,P|74:162|101:129,1,70.0000005960465,2|8,0:0|0:0,0:0:0:0:
167,90,177290,6,0,P|234:79|292:116,1,140.000001192093,6|8,0:0|0:0,0:0:0:0:
311,198,177911,1,0,0:0:0:0:
282,278,178118,2,0,L|146:315,1,140.000001192093,6|8,0:0|0:0,0:0:0:0:
62,316,178739,1,8,0:0:0:0:
50,232,178946,6,0,P|71:159|47:93,1,140.000001192093,2|8,0:0|0:0,0:0:0:0:
209,40,179773,1,8,0:0:0:0:
209,40,179980,2,0,B|252:18|281:78|356:42,1,140.000001192093,6|8,0:0|0:0,0:0:0:0:
398,111,180601,6,4,B|424:171|424:171|405:252,1,140.000001192093,6|10,0:0|0:0,0:0:0:0:
251,306,181428,2,0,P|224:288|116:310,1,140.000001192093,2|8,0:0|0:0,0:0:0:0:
58,247,182049,2,0,P|59:179|107:130,1,140.000001192093,2|8,0:0|0:0,0:0:0:0:
182,92,182670,2,0,L|258:87,1,70.0000005960465,2|8,0:0|0:0,0:0:0:0:
290,162,183084,2,0,L|359:157,2,70.0000005960465,2|8|2,0:0|0:0|0:0,0:0:0:0:
238,228,183704,1,8,0:0:0:0:
234,310,183911,6,0,P|279:361|347:357,1,140.000001192093,6|8,0:0|0:0,0:0:0:0:
460,232,184739,2,0,B|430:208|430:208|387:229|330:209,1,140.000001192093,2|8,0:0|0:0,0:0:0:0:
276,146,185359,1,8,0:0:0:0:
247,67,185566,2,0,L|102:28,1,140.000001192093,6|8,0:0|0:0,0:0:0:0:
32,128,186290,2,0,P|43:188|205:208,1,245.000002086163,6|8,0:0|0:0,0:0:0:0:
225,133,187221,6,0,P|247:117|300:113,1,70.0000005960465,6|8,0:0|0:0,0:0:0:0:
296,194,187635,2,0,P|323:195|366:226,1,70.0000005960465,2|8,0:0|0:0,0:0:0:0:
400,291,188049,2,0,L|476:279,2,70.0000005960465,2|8|2,0:0|0:0|0:0,0:0:0:0:
321,322,188670,1,8,0:0:0:0:
238,306,188877,6,0,P|203:305|173:288,1,70.0000005960465,2|8,0:0|0:0,0:0:0:0:
125,219,189290,2,0,L|127:146,1,70.0000005960465,2|8,0:0|0:0,0:0:0:0:
174,79,189704,2,0,P|207:56|236:59,1,70.0000005960465,2|8,0:0|0:0,0:0:0:0:
318,73,190118,2,0,P|344:82|389:78,1,70.0000005960465,2|8,0:0|0:0,0:0:0:0:
452,27,190532,6,0,P|467:57|470:92,1,70.0000005960465,6|8,0:0|0:0,0:0:0:0:
441,171,190946,2,0,P|408:183|373:183,1,70.0000005960465,2|8,0:0|0:0,0:0:0:0:
292,159,191359,2,0,P|261:145|223:142,1,70.0000005960465,6|8,0:0|0:0,0:0:0:0:
165,202,191773,2,0,L|143:278,1,70.0000005960465,6|8,0:0|0:0,0:0:0:0:
256,192,192187,12,6,193842,0:0:0:0:
348,236,194670,5,0,0:0:0:0:
21,158,195497,1,0,0:0:0:0:
128,28,195911,1,0,0:0:0:0:
294,42,196325,2,0,P|350:91|360:157,1,140.000001192093
348,236,196946,1,0,0:0:0:0:
289,302,197152,6,0,P|225:314|161:274,2,140.000001192093,2|0|0,0:0|0:0|0:0,0:0:0:0:
411,186,198394,1,2,0:0:0:0:
282,77,198808,2,0,B|245:52|202:69|202:69|174:108|114:95|114:95|88:139|28:124,1,280.000002384186,2|0,0:0|0:0,0:0:0:0:
155,342,200256,1,0,0:0:0:0:
155,342,200463,5,2,0:0:0:0:
484,275,201290,1,2,0:3:0:0:
225,57,202118,2,0,L|85:65,2,140.000001192093,2|0|2,0:0|0:0|0:3,0:0:0:0:
390,87,203359,1,2,0:0:0:0:
390,87,203566,1,2,0:3:0:0:
390,87,203773,6,0,L|378:236,1,140.000001192093,2|2,0:0|0:3,0:0:0:0:
233,311,204601,2,2,L|244:171,1,140.000001192093,2|2,0:0|0:3,0:0:0:0:
94,94,205428,2,0,L|81:25,2,70.0000005960465,2|2|8,0:0|0:0|0:0,0:0:0:0:
117,175,206049,1,2,0:0:0:0:
185,223,206256,1,8,0:0:0:0:
343,332,207497,6,0,L|492:346,2,140.000001192093,12|0|8,0:0|0:0|0:0,0:0:0:0:
266,295,208532,2,0,B|226:255|226:255|130:255,1,140.000001192093,2|8,0:0|0:0,0:0:0:0:
91,188,209152,2,0,P|80:146|87:109,1,70.0000005960465,0|8,0:0|0:0,0:0:0:0:
138,55,209566,2,0,P|204:34|269:57,1,140.000001192093,0|8,0:0|0:0,0:0:0:0:
326,119,210187,1,0,0:0:0:0:
390,173,210394,6,0,P|456:187|512:148,2,140.000001192093,0|8|0,0:0|0:0|0:0,0:0:0:0:
257,276,211635,1,8,0:0:0:0:
118,180,212049,2,0,B|78:237|163:329|103:391,2,210.000001788139,6|2|8,0:0|0:0|0:0,0:0:0:0:
196,31,213704,6,0,B|215:110|301:99|301:99|317:183|410:181,1,280.000002384186,4|0,0:0|0:0,0:0:0:0:
422,347,214946,1,8,0:0:0:0:
264,286,215359,2,0,P|195:278|136:313,1,140.000001192093,2|8,0:0|0:0,0:0:0:0:
29,182,216187,2,0,L|20:252,2,70.0000005960465,0|0|8,0:0|0:0|0:0,0:0:0:0:
70,108,216808,1,0,0:0:0:0:
151,85,217015,6,0,P|218:73|280:104,2,140.000001192093,4|8|0,0:0|0:0|0:0,0:0:0:0:
81,238,218256,1,8,0:0:0:0:
194,362,218670,2,0,B|254:330|254:330|283:265,1,140.000001192093,2|8,0:0|0:0,0:0:0:0:
273,180,219290,1,0,0:0:0:0:
194,150,219497,2,0,B|133:182|133:182|104:247,1,140.000001192093,0|8,0:0|0:0,0:0:0:0:
156,312,220118,1,8,0:0:0:0:
238,329,220325,6,0,P|304:323|337:265,1,140.000001192093,0|8,0:0|0:0,0:0:0:0:
320,182,220946,1,0,0:0:0:0:
301,100,221152,2,0,L|306:22,1,70.0000005960465,0|0,0:0|0:0,0:0:0:0:
221,40,221566,2,0,L|216:109,1,70.0000005960465,8|0,0:0|0:0,0:0:0:0:
213,194,221980,1,6,0:2:0:0:
256,192,222187,12,6,223635,0:0:0:0:
