osu file format v13

[General]
AudioFilename: setsunatrip.mp3
AudioLeadIn: 1797
PreviewTime: 80825
Countdown: 0
SampleSet: Soft
StackLeniency: 0.7
Mode: 0
LetterboxInBreaks: 0
WidescreenStoryboard: 0

[Editor]
Bookmarks: 44877,54808,68049,74670,107773,114394,180601,193842
DistanceSpacing: 0.9
BeatDivisor: 4
GridSize: 4
TimelineZoom: 2.5

[Metadata]
Title:Setsuna Trip
TitleUnicode:セツナトリップ
Artist:Last Note.
ArtistUnicode:Last Note.
Creator:theramdans
Version:Easy
Source:
Tags:vocaloid megpoid gumi Fort
BeatmapID:419565
BeatmapSetID:99499

[Difficulty]
HPDrainRate:2
CircleSize:3
OverallDifficulty:2
ApproachRate:3.5
SliderMultiplier:0.550000005960465
SliderTickRate:1

[Events]
//Background and Video events
0,0,"GUMIST.jpg",0,0
Video,0,"PVST.avi"
//Break Periods
2,45077,53428
2,107973,113014
2,167559,172600
//Storyboard Layer 0 (Background)
//Storyboard Layer 1 (Fail)
//Storyboard Layer 2 (Pass)
//Storyboard Layer 3 (Foreground)
//Storyboard Sound Samples

[TimingPoints]
10737,206.896551724138,4,2,1,15,1,0
15084,206.896551724138,4,2,1,62,1,0
28325,-100,4,2,1,72,0,0
79635,-100,4,2,1,35,0,0
81290,-100,4,1,1,72,0,1
93704,-100,4,1,1,62,0,0
94532,-100,4,1,1,72,0,1
107773,-100,4,2,1,62,0,0
114394,-100,4,2,1,42,0,0
121015,-100,4,2,1,72,0,0
139221,-100,4,2,1,35,0,0
140877,-100,4,1,1,72,0,1
153290,-100,4,1,1,62,0,0
154118,-100,4,1,1,72,0,1
167359,-100,4,2,1,72,0,0
193842,-100,4,2,1,62,0,0
200463,-100,4,2,1,72,0,0
206566,-100,4,2,1,35,0,0
207497,-100,4,1,1,72,0,1
223428,-100,4,2,1,72,0,0
223635,-100,4,2,1,62,0,1
223739,-100,4,2,1,72,0,0

[Colours]
Combo1 : 128,255,0
Combo2 : 200,145,255
Combo3 : 255,128,0
Combo4 : 0,0,255

[HitObjects]
256,192,10737,12,0,13219,0:0:0:0:
384,124,14668,5,8,0:0:0:0:
300,72,15084,6,0,P|264:48|192:40,2,110.000001192093,6|8|2,0:0|0:0|0:0,0:0:0:0:
224,136,16325,1,8,0:0:0:0:
132,100,16739,2,0,B|104:176|160:204|128:264,2,165.00000178814,2|2|8,0:0|0:0|0:0,0:0:0:0:
220,52,18394,6,0,L|336:44,1,110.000001192093,2|8,0:0|0:0,0:0:0:0:
416,92,19221,2,0,P|464:132|468:192,1,110.000001192093,2|8,0:0|0:0,0:0:0:0:
424,264,20049,2,0,B|368:304|312:248|264:277,2,165.00000178814,2|2|8,0:0|0:0|0:0,0:0:0:0:
372,180,21704,5,6,0:0:0:0:
280,148,22118,2,0,L|184:201,1,110.000001192093,8|2,0:0|0:0,0:0:0:0:
96,244,22946,1,8,0:0:0:0:
60,151,23359,2,0,P|89:106|144:72,1,110.000001192093,2|8,0:0|0:0,0:0:0:0:
232,48,24187,2,0,L|352:52,1,110.000001192093,2|8,0:0|0:0,0:0:0:0:
416,116,25015,6,0,P|429:167|418:223,2,110.000001192093,2|8|2,0:0|0:0|0:0,0:0:0:0:
332,172,26256,1,8,0:0:0:0:
248,212,26670,2,0,P|146:193|127:91,1,220.000002384186,6|2,0:0|0:0,0:0:0:0:
212,44,27911,1,8,0:0:0:0:
308,28,28325,6,0,L|420:24,2,110.000001192093,6|8|2,0:0|0:0|0:0,0:0:0:0:
276,120,29566,2,0,B|324:204|232:248|288:340,1,220.000002384186,8|8,0:0|0:0,0:0:0:0:
380,356,30808,2,0,P|444:352|476:312,1,110.000001192093,2|8,0:0|0:0,0:0:0:0:
496,224,31635,6,0,B|522:171|479:115|479:115|518:69,2,165.00000178814,6|2|8,0:0|0:0|0:0,0:0:0:0:
405,183,33290,1,2,0:0:0:0:
351,99,33704,2,0,B|311:67|311:67|235:107|147:70,1,220.000002384186,8|8,0:0|0:0,0:0:0:0:
92,152,34946,6,0,P|109:210|152:233,1,110.000001192093,6|8,0:0|0:0,0:0:0:0:
244,260,35773,2,0,P|313:280|350:316,1,110.000001192093,2|8,0:0|0:0,0:0:0:0:
396,220,36601,2,0,L|428:108,1,110.000001192093,2|8,0:0|0:0,0:0:0:0:
364,40,37428,2,0,L|333:145,1,110.000001192093,2|8,0:0|0:0,0:0:0:0:
288,216,38256,5,6,0:0:0:0:
204,268,38670,2,0,P|102:281|61:186,1,220.000002384186,8|8,0:0|0:0,0:0:0:0:
108,100,39911,2,0,L|204:153,1,110.000001192093,2|8,0:0|0:0,0:0:0:0:
288,96,40739,2,0,L|384:149,1,110.000001192093,2|8,0:0|0:0,0:0:0:0:
256,192,41566,12,6,44877,0:0:0:0:
164,88,54808,5,6,0:0:0:0:
116,176,55221,2,0,L|60:272,2,110.000001192093,8|2|8,0:0|0:0|0:0,0:0:0:0:
216,164,56463,1,2,0:0:0:0:
272,80,56877,2,0,P|360:139|372:245,1,220.000002384186,8|8,0:0|0:0,0:0:0:0:
412,336,58118,6,0,B|332:348|292:296|292:296|212:296|212:296|188:204|84:204,1,385.000004172326,6|8,0:0|0:0,0:0:0:0:
10,76,60187,2,0,P|59:52|113:61,1,110.000001192093,8|2,0:0|0:0,0:0:0:0:
211,66,61015,1,8,0:0:0:0:
308,48,61428,6,0,L|416:68,1,110.000001192093,6|8,0:0|0:0,0:0:0:0:
420,168,62256,2,0,L|312:148,1,110.000001192093,2|8,0:0|0:0,0:0:0:0:
244,220,63084,2,0,B|196:265|146:267,1,110.000001192093,2|8,0:0|0:0,0:0:0:0:
96,184,63911,2,0,B|143:138|193:136,1,110.000001192093,2|8,0:0|0:0,0:0:0:0:
284,96,64739,6,0,B|300:32|348:24|348:24|380:40|432:32,2,165.00000178814,6|2|8,0:0|0:0|0:0,0:0:0:0:
316,192,66394,2,0,P|363:231|416:242,2,110.000001192093,2|8|8,0:0|0:0|0:0,0:0:0:0:
220,212,67635,1,8,0:0:0:0:
148,280,68049,6,0,B|150:283|106:215|106:215|162:159|130:83,1,220.000002384186,6|2,0:0|0:3,0:0:0:0:
48,136,69290,1,2,0:0:0:0:
16,228,69704,2,0,B|92:344|92:344|176:368,1,220.000002384186,6|2,0:0|0:3,0:0:0:0:
244,300,70946,1,2,0:0:0:0:
296,216,71359,6,0,B|348:180|348:180|420:220|508:192,2,220.000002384186,6|2|2,0:0|0:3|0:0,0:0:0:0:
232,140,73428,1,8,0:0:0:0:
147,192,73842,2,0,P|136:237|166:300,1,110.000001192093,2|8,0:0|0:0,0:0:0:0:
244,346,74670,6,0,P|320:374|392:318,2,165.00000178814,6|2|8,0:0|0:0|0:0,0:0:0:0:
239,247,76325,2,0,L|267:75,2,165.00000178814,2|2|8,0:0|0:0|0:0,0:0:0:0:
336,236,77980,2,0,P|381:206|435:203,2,110.000001192093,6|8|2,0:0|0:0|0:0,0:0:0:0:
264,304,79221,1,8,0:0:0:0:
167,275,79635,2,0,P|149:197|195:132,1,165.00000178814
336,88,80877,1,8,0:0:0:0:
248,44,81290,6,0,L|121:15,2,110.000001192093,4|8|0,0:0|0:0|0:0,0:0:0:0:
336,88,82532,1,8,0:0:0:0:
412,148,82946,2,0,P|432:101|422:44,2,110.000001192093,2|8|0,0:0|0:0|0:0,0:0:0:0:
328,200,84187,1,8,0:0:0:0:
244,148,84601,6,0,P|144:107|46:149,1,220.000002384186,4|0,0:0|0:0,0:0:0:0:
76,244,85842,1,8,0:0:0:0:
136,324,86256,2,0,B|164:296|220:300|220:300|256:336|315:321,1,192.500002086163,2|2,0:0|0:0,0:0:0:0:
436,136,87911,6,0,L|376:40,1,110.000001192093,4|8,0:0|0:0,0:0:0:0:
300,104,88739,2,0,L|358:197,1,110.000001192093,0|8,0:0|0:0,0:0:0:0:
292,272,89566,2,0,B|220:328|144:232|80:280,1,220.000002384186,2|0,0:0|0:0,0:0:0:0:
16,204,90808,1,8,0:0:0:0:
56,116,91221,6,0,P|96:124|152:84,1,110.000001192093,0|8,0:0|0:0,0:0:0:0:
236,36,92049,2,0,L|351:39,1,110.000001192093,0|8,0:0|0:0,0:0:0:0:
442,60,92877,2,0,P|512:135|467:228,1,220.000002384186,6|2,0:0|0:0,0:0:0:0:
284,304,94532,6,0,L|404:304,1,110.000001192093,4|8,0:0|0:0,0:0:0:0:
360,212,95359,2,0,L|248:212,1,110.000001192093,2|8,0:0|0:0,0:0:0:0:
284,120,96187,2,0,L|394:120,2,110.000001192093,0|8|0,0:0|0:0|0:0,0:0:0:0:
232,36,97428,1,8,0:0:0:0:
152,92,97842,6,0,P|108:60|52:60,1,110.000001192093,4|8,0:0|0:0,0:0:0:0:
76,156,98670,2,0,L|51:269,1,110.000001192093,0|8,0:0|0:0,0:0:0:0:
26,359,99497,2,0,B|87:364|121:325|121:325|177:320|196:357,1,192.500002086163,2|2,0:0|0:0,0:0:0:0:
375,224,101152,6,0,L|435:128,1,110.000001192093,4|8,0:0|0:0,0:0:0:0:
388,44,101980,2,0,L|329:137,1,110.000001192093,0|8,0:0|0:0,0:0:0:0:
232,120,102808,2,0,P|130:103|83:194,1,220.000002384186,2|0,0:0|0:0,0:0:0:0:
112,288,104049,1,8,0:0:0:0:
208,308,104463,6,0,P|258:311|316:288,1,110.000001192093,0|8,0:0|0:0,0:0:0:0:
388,225,105290,2,0,P|404:176|390:109,1,110.000001192093,0|8,0:0|0:0,0:0:0:0:
256,192,106118,12,6,107773,0:0:0:0:
32,40,114394,6,0,B|56:164|168:144|168:144|244:48|336:112,1,385.000004172326,6|2,0:0|0:0,0:0:0:0:
384,296,117704,6,0,P|324:360|196:348,2,220.000002384186,6|2|2,0:0|0:0|0:0,0:0:0:0:
56,76,121015,5,6,0:0:0:0:
156,88,121428,2,0,L|268:80,2,110.000001192093,8|2|8,0:0|0:0|0:0,0:0:0:0:
92,164,122670,2,0,P|76:228|92:272,1,110.000001192093,2|8,0:0|0:0,0:0:0:0:
136,356,123497,2,0,L|248:364,2,110.000001192093,2|8|6,0:0|0:0|0:0,0:0:0:0:
172,264,124739,6,0,P|224:232|248:124,1,165.00000178814,8|8,0:0|0:0,0:0:0:0:
127,53,125980,2,0,L|13:67,2,110.000001192093,2|8|2,0:0|0:0|0:0,0:0:0:0:
225,46,127221,1,8,0:0:0:0:
322,29,127635,6,0,B|369:64|427:47|427:47|476:93|447:147,1,220.000002384186,6|2,0:0|0:3,0:0:0:0:
423,241,128877,1,2,0:0:0:0:
353,310,129290,2,0,B|317:338|317:338|249:338,1,110.000001192093,6|2,0:0|0:0,0:0:0:0:
158,306,130118,2,0,L|113:205,1,110.000001192093,2|2,0:3|0:0,0:0:0:0:
174,127,130946,6,0,P|252:137|303:77,2,165.00000178814,6|2|2,0:0|0:3|0:3,0:0:0:0:
74,127,132601,2,0,L|16:229,1,110.000001192093,6|8,0:0|0:0,0:0:0:0:
8,320,133428,2,0,P|61:337|114:327,1,110.000001192093,2|8,0:0|0:0,0:0:0:0:
141,231,134256,6,0,P|181:167|274:158,2,165.00000178814,6|2|8,0:0|0:0|0:0,0:0:0:0:
238,249,135911,2,0,P|258:293|374:317,2,165.00000178814,6|2|8,0:0|0:0|0:0,0:0:0:0:
334,230,137566,6,0,L|387:123,1,110.000001192093
325,51,138394,2,0,L|275:149,1,110.000001192093,0|0,0:0|0:0,0:0:0:0:
218,229,139221,2,0,P|157:278|83:251,1,165.00000178814,2|2,0:0|0:0,0:0:0:0:
16,118,140463,1,8,0:0:0:0:
97,61,140877,6,0,P|128:39|208:43,2,110.000001192093,4|8|0,0:0|0:0|0:0,0:0:0:0:
166,131,142118,1,8,0:0:0:0:
264,139,142532,2,0,B|334:176|363:118|429:143,2,165.00000178814,2|0|8,0:0|0:0|0:0,0:0:0:0:
196,209,144187,6,0,L|184:318,2,110.000001192093,4|8|0,0:0|0:0|0:0,0:0:0:0:
117,148,145428,1,8,0:0:0:0:
155,56,145842,2,0,B|198:59|231:36|231:36|297:35|341:80,1,192.500002086163,2|2,0:0|0:0,0:0:0:0:
497,224,147497,6,0,L|441:328,1,110.000001192093,4|8,0:0|0:0,0:0:0:0:
345,327,148325,2,0,P|300:296|246:301,1,110.000001192093,0|8,0:0|0:0,0:0:0:0:
158,346,149152,2,0,B|142:280|174:241|174:241|136:200|158:138,1,220.000002384186,2|2,0:0|0:0,0:0:0:0:
249,176,150394,1,8,0:0:0:0:
330,120,150808,6,0,P|402:96|486:128,2,165.00000178814,4|0|8,0:0|0:0|0:0,0:0:0:0:
327,219,152463,2,0,P|402:248|479:224,2,165.00000178814,4|0|8,0:0|0:0|0:0,0:0:0:0:
300,308,154118,6,0,L|184:328,1,110.000001192093,4|8,0:0|0:0,0:0:0:0:
112,268,154946,1,0,0:0:0:0:
60,184,155359,1,8,0:0:0:0:
144,132,155773,2,0,P|88:88|48:88,2,110.000001192093,2|8|0,0:0|0:0|0:0,0:0:0:0:
239,159,157015,1,8,0:0:0:0:
296,78,157428,6,0,L|404:62,1,110.000001192093,4|8,0:0|0:0,0:0:0:0:
387,159,158256,2,0,L|495:143,1,110.000001192093,0|8,0:0|0:0,0:0:0:0:
504,241,159084,2,0,P|441:309|347:308,1,192.500002086163,2|2,0:0|0:0,0:0:0:0:
172,171,160739,6,0,L|104:75,1,110.000001192093,4|8,0:0|0:0,0:0:0:0:
198,40,161566,2,0,L|261:129,1,110.000001192093,0|8,0:0|0:0,0:0:0:0:
344,188,162394,2,0,L|452:212,2,110.000001192093,2|8|0,0:0|0:0|0:0,0:0:0:0:
256,232,163635,1,8,0:0:0:0:
204,316,164049,6,0,B|143:338|99:314|99:314|63:358,2,165.00000178814,4|0|8,0:0|0:0|0:0,0:0:0:0:
303,316,165704,2,0,B|363:338|407:314|407:314|443:358,2,165.00000178814,4|0|8,0:0|0:0|0:0,0:0:0:0:
358,233,167359,1,6,0:0:0:0:
152,328,173980,6,0,L|264:312,2,110.000001192093,6|8|2,0:0|0:0|0:0,0:0:0:0:
80,260,175221,1,8,0:0:0:0:
116,168,175635,2,0,L|60:60,2,110.000001192093,6|8|2,0:0|0:0|0:0,0:0:0:0:
212,192,176877,1,8,0:0:0:0:
280,120,177290,6,0,P|319:82|373:82,1,110.000001192093,6|8,0:0|0:0,0:0:0:0:
453,140,178118,2,0,P|417:176|357:176,1,110.000001192093,6|8,0:0|0:0,0:0:0:0:
276,232,178946,2,0,L|219:326,1,110.000001192093,2|8,0:0|0:0,0:0:0:0:
120,326,179773,2,0,L|63:231,1,110.000001192093,8|8,0:0|0:0,0:0:0:0:
104,141,180601,6,0,B|198:187|250:111|318:139,1,220.000002384186,6|2,0:0|0:0,0:0:0:0:
408,180,181842,1,8,0:0:0:0:
368,272,182256,2,0,B|336:256|336:256|256:256,1,110.000001192093,2|8,0:0|0:0,0:0:0:0:
172,216,183084,2,0,P|129:182|116:130,1,110.000001192093,2|8,0:0|0:0,0:0:0:0:
207,91,183911,6,0,L|378:85,2,165.00000178814,2|2|8,0:0|0:0|0:0,0:0:0:0:
117,130,185566,2,0,P|97:180|114:231,1,110.000001192093,6|8,0:0|0:0,0:0:0:0:
181,302,186394,2,0,P|234:315|280:288,1,110.000001192093,6|8,0:0|0:0,0:0:0:0:
376,258,187221,6,0,B|408:278|408:278|480:278,2,110.000001192093,6|8|2,0:0|0:0|0:0,0:0:0:0:
303,189,188463,1,8,0:0:0:0:
333,94,188877,2,0,L|439:63,1,110.000001192093,2|8,0:0|0:0,0:0:0:0:
504,137,189704,2,0,L|399:169,1,110.000001192093,2|8,0:0|0:0,0:0:0:0:
303,189,190532,6,0,P|257:160|203:166,2,110.000001192093,6|8|6,0:0|0:0|0:0,0:0:0:0:
327,285,191773,1,8,0:0:0:0:
256,192,192187,12,6,193842,0:0:0:0:
316,288,194670,5,2,0:3:0:0:
128,172,195497,2,0,P|180:96|248:84,2,165.00000178814,0|0|2,0:0|0:0|0:3,0:0:0:0:
68,251,197152,6,0,P|80:309|130:343,1,110.000001192093,2|2,0:0|0:0,0:0:0:0:
216,352,197980,2,0,L|332:344,2,110.000001192093,0|2|0,0:0|0:3|0:0,0:0:0:0:
200,254,199221,2,0,B|235:195|235:195|252:198|281:189,1,110.000001192093,2|2,0:0|0:0,0:0:0:0:
365,147,200048,1,2,0:0:0:0:
325,57,200463,6,0,B|288:113|241:113|241:113|185:81|121:117,1,220.000002384186,0|2,0:0|0:0,0:0:0:0:
176,196,201704,1,2,0:3:0:0:
210,287,202118,2,0,P|282:364|383:337,1,220.000002384186,2|2,0:0|0:0,0:0:0:0:
453,266,203359,1,2,0:3:0:0:
355,244,203773,6,0,L|304:146,1,110.000001192093
204,146,204601,2,0,L|153:243,1,110.000001192093
198,331,205428,2,0,L|319:332,2,110.000001192093,6|2|2,0:0|0:0|0:3,0:0:0:0:
52,68,207497,5,12,0:0:0:0:
148,92,207911,2,0,B|188:64|188:64|256:64,1,110.000001192093,0|8,0:0|0:0,0:0:0:0:
228,160,208739,2,0,B|289:160|289:160|329:132,2,110.000001192093,2|8|0,0:0|0:0|0:0,0:0:0:0:
132,188,209980,1,8,0:0:0:0:
212,244,210394,6,0,L|384:244,2,165.00000178814,4|0|8,0:0|0:0|0:0,0:0:0:0:
114,226,212049,2,0,L|57:130,1,110.000001192093,0|8,0:0|0:0,0:0:0:0:
144,83,212877,2,0,P|188:55|248:63,1,110.000001192093,0|8,0:0|0:0,0:0:0:0:
316,128,213704,5,4,0:0:0:0:
380,204,214118,2,0,L|396:312,2,110.000001192093,8|0|8,0:0|0:0|0:0,0:0:0:0:
429,118,215359,1,2,0:0:0:0:
357,49,215773,2,0,P|307:26|252:28,1,110.000001192093,8|0,0:0|0:0,0:0:0:0:
285,121,216601,1,8,0:0:0:0:
212,188,217015,6,0,B|180:132|180:132|96:156|32:92,1,220.000002384186,4|0,0:0|0:0,0:0:0:0:
4,188,218256,1,8,0:0:0:0:
37,280,218670,2,0,B|96:220|180:244|180:244|212:188,1,220.000002384186,4|0,0:0|0:0,0:0:0:0:
375,303,220325,6,0,P|394:252|373:203,1,110.000001192093,0|8,0:0|0:0,0:0:0:0:
300,136,221152,2,0,L|186:118,1,110.000001192093,0|8,0:0|0:0,0:0:0:0:
256,192,221980,12,6,223635,0:0:0:0:
