osu file format v10

[General]
AudioFilename: RS.mp3
AudioLeadIn: 0
PreviewTime: 71781
Countdown: 0
SampleSet: Soft
StackLeniency: 0.7
Mode: 0
LetterboxInBreaks: 1

[Editor]
Bookmarks: 143635
DistanceSpacing: 1
BeatDivisor: 4
GridSize: 8

[Metadata]
Title:Route Sphere
TitleUnicode:ルートスフィア
Artist:Last Note.
ArtistUnicode:Last Note.
Creator:raririn
Version:Normal
Source:Vocaloid
Tags:Megpoid Gumi Vocaloid3 power non x847606653
BeatmapID:189353
BeatmapSetID:61449

[Difficulty]
HPDrainRate:3
CircleSize:3
OverallDifficulty:3
ApproachRate:5
SliderMultiplier:1.6
SliderTickRate:1

[Events]
//Background and Video events
0,0,"30635144.png"
//Break Periods
2,105368,117516
2,201174,213806
//Storyboard Layer 0 (Background)
//Storyboard Layer 1 (Fail)
//Storyboard Layer 2 (Pass)
//Storyboard Layer 3 (Foreground)
//Storyboard Sound Samples
//Background Colour Transformations
3,100,163,162,255

[TimingPoints]
8374,483.870967741935,4,2,0,100,1,0
72244,-100,4,2,0,100,0,1
103212,-100,4,2,0,100,0,0
151599,-100,4,2,0,100,0,1
182567,-100,4,2,0,100,0,0
230954,-100,4,2,0,100,0,1
250309,-100,4,2,0,100,0,0

[Colours]
Combo1 : 255,128,0
Combo2 : 0,255,255
Combo3 : 0,255,128

[HitObjects]
144,80,8394,2,0,B|224:96|304:72,1,160
176,168,9361,2,0,B|224:208|200:280,2,120
128,232,10329,2,0,B|320:192,1,160
360,184,11055,1,0,0:0:0
152,72,11781,1,0,0:0:0
72,216,12265,6,0,B|152:184|224:232,1,160
288,280,12990,2,0,B|360:280|408:152|336:88,1,240
184,48,14200,6,0,B|88:48,1,80
176,192,14926,1,0,0:0:0
176,192,15168,2,0,B|176:272|240:272|240:344,1,160
312,192,16135,2,0,B|312:112|248:112|248:40,1,160
176,192,17103,1,0,0:0:0
272,264,17466,1,0,0:0:0
368,192,17829,1,0,0:0:0
344,112,18071,6,0,B|248:128|248:128|192:72|112:88|64:144|88:216,2,320
64,264,20974,2,0,B|168:352,1,120
264,296,21700,1,0,0:0:0
256,192,21942,12,0,23877,0:0:0
256,80,24119,5,0,0:0:0
176,88,24361,2,0,B|128:80|80:168|112:216,1,160
160,272,25087,1,0,0:0:0
216,328,25329,2,0,B|296:312,1,80
376,296,25813,5,0,0:0:0
352,176,26176,1,0,0:0:0
472,192,26539,2,0,B|480:136|440:64|376:64,1,160
312,56,27265,2,0,B|232:48,1,80
184,112,27748,5,0,0:0:0
248,344,28474,1,0,0:0:0
160,40,29442,1,0,0:0:0
120,112,29684,6,0,B|80:192,1,80
168,192,30168,2,0,B|208:264,1,80
352,192,30894,1,0,0:0:0
352,192,31135,2,0,B|313:122,2,80
232,88,32103,6,0,B|176:56|104:104|112:176,1,160
192,160,32829,1,0,0:0:0
192,240,33071,2,0,B|240:232|264:192,2,80
344,192,34039,6,0,B|488:96,1,160
416,48,34765,1,0,0:0:0
336,56,35006,2,0,B|264:104,2,80
184,120,35974,6,0,B|128:104|64:144|48:200,1,160
128,224,36700,1,0,0:0:0
184,280,36942,2,0,B|232:264|288:264,1,80
336,224,37426,5,0,0:0:0
440,104,37910,1,0,0:0:0
440,104,38152,2,0,B|376:176,2,80
384,48,38877,1,0,0:0:0
232,88,39361,5,0,0:0:0
152,104,39603,2,0,B|160:152|224:176,1,80
264,208,40087,1,0,0:0:0
344,216,40329,6,0,B|336:264|280:296,2,80
312,144,41055,1,0,0:0:0
248,96,41297,2,0,B|280:48|352:56|368:88,2,120
144,216,42506,5,0,0:0:0
200,280,42748,2,0,B|224:312|272:312,1,80
272,232,43232,2,0,B|328:240|352:280|352:320|352:320|432:240,1,240
288,48,44684,5,0,0:0:0
208,56,44926,1,0,0:0:0
144,104,45168,2,0,B|112:128|112:176,1,80
192,168,45652,2,0,B|224:200|224:248,1,80
360,160,46377,5,0,0:0:0
360,160,46619,2,0,B|360:72,2,80
256,280,47587,6,0,B|224:312|184:312,2,80
192,232,48313,1,0,0:0:0
112,216,48555,2,0,B|128:152|208:128|264:184,1,160
376,80,49523,6,0,B|288:56,2,80
392,160,50248,1,0,0:0:0
312,144,50490,2,0,B|152:96,1,160
120,168,51216,5,0,0:0:0
152,240,51458,2,0,B|184:208|248:224,1,80
208,296,51942,2,0,B|250:307|282:275,2,80
128,320,52668,1,0,0:0:0
72,264,52910,5,0,0:0:0
128,112,53394,1,0,0:0:0
280,64,53877,2,0,B|336:40|392:48|432:88,1,160
336,216,54845,1,0,0:0:0
144,72,55571,5,0,0:0:0
144,72,55813,2,0,B|232:136,1,80
208,200,56297,2,0,B|152:200|104:248|104:304,1,160
256,344,57265,1,0,0:0:0
320,296,57506,1,0,0:0:0
320,296,57748,2,0,B|376:240,1,80
320,184,58232,2,0,B|384:128|384:32,1,160
248,136,59200,5,0,0:0:0
168,112,59442,2,0,B|120:128|112:192,2,80
224,56,60168,2,0,B|288:40|344:88|328:168,1,160
184,216,61135,1,0,0:0:0
344,192,61619,1,0,0:0:0
128,88,62345,5,0,0:0:0
104,168,62587,2,0,B|72:216|96:296|160:304,1,160
224,320,63313,1,0,0:0:0
280,264,63555,2,0,B|312:224|384:216|424:256,1,160
472,192,64281,2,0,B|400:144,1,80
184,64,65248,6,0,B|250:108,1,80
224,184,65732,1,0,0:0:0
240,264,65974,2,0,B|304:240|304:184|304:184|384:184,1,160
136,288,67184,5,0,0:0:0
136,208,67426,2,0,B|136:128,2,80
208,240,68152,1,0,0:0:0
280,200,68394,2,0,B|320:168|432:168|432:16,1,240
352,32,69361,1,0,0:0:0
256,336,70329,6,0,B|256:232,3,80
256,16,71781,2,0,B|256:112,1,80
200,152,72265,6,0,B|200:224|104:224|104:144,1,160
152,88,72990,1,0,0:0:0
232,80,73232,2,0,B|288:96|304:176|248:224,1,160
216,280,73958,1,0,0:0:0
288,320,74200,6,0,B|344:352|400:344|432:296,1,160
400,224,74926,1,0,0:0:0
432,152,75168,2,0,B|400:56,1,80
328,104,75652,2,0,B|256:56,1,80
192,96,76135,1,0,0:0:0
120,240,76619,6,0,B|144:192|200:192,1,80
200,272,77103,2,0,B|320:296,2,120
136,320,78071,1,0,0:0:0
40,256,78434,1,0,0:0:0
112,160,78797,2,0,B|160:88|256:88,1,160
248,168,79523,2,0,B|352:176,2,80
368,280,80490,6,0,B|448:240,1,80
408,168,80974,2,0,B|296:224,2,120
352,104,81942,2,0,B|192:184,1,160
144,224,82668,1,0,0:0:0
112,152,82910,2,0,B|80:72,2,80
176,104,83635,2,0,B|208:24,1,80
360,80,84361,5,0,0:0:0
424,128,84603,1,0,0:0:0
352,160,84845,2,0,B|288:200|320:288,2,120
392,232,85813,2,0,B|232:176,1,160
168,152,86539,2,0,B|88:120,1,80
248,88,87265,5,0,0:0:0
328,104,87506,1,0,0:0:0
368,176,87748,2,0,B|320:216|328:272|296:320,1,160
240,256,88474,1,0,0:0:0
168,224,88716,2,0,B|88:192|88:96,1,160
168,72,89442,2,0,B|248:32,1,80
392,88,90168,5,0,0:0:0
448,144,90410,2,0,B|368:192,1,80
312,232,90894,1,0,0:0:0
232,232,91135,2,0,B|224:280|288:312,2,80
256,72,92103,5,0,0:0:0
336,48,92345,2,0,B|424:80,1,80
384,152,92829,2,0,B|440:312,1,160
360,312,93555,2,0,B|304:264|248:312,2,120
312,160,94765,5,0,0:0:0
232,160,95006,2,0,B|192:136|136:168,2,80
192,312,95974,1,0,0:0:0
272,328,96216,1,0,0:0:0
304,256,96458,2,0,B|352:304|432:288,2,120
352,192,97426,6,0,B|304:152|256:144|200:168,1,160
152,232,98152,1,0,0:0:0
120,160,98394,2,0,B|96:80,2,80
152,232,99119,2,0,B|176:312,1,80
296,192,99845,5,0,0:0:0
360,144,100087,1,0,0:0:0
440,128,100329,2,0,B|474:152|488:192,1,80
416,336,101055,1,0,0:0:0
336,352,101297,6,0,B|248:328|224:224,1,160
224,160,102023,1,0,0:0:0
208,80,102265,2,0,B|80:48,2,120
288,104,103232,1,0,0:0:0
256,192,103353,12,0,105168,0:0:0
128,104,118716,5,0,0:0:0
200,64,118958,1,0,0:0:0
200,144,119200,2,0,B|176:168|176:224,1,80
256,200,119684,2,0,B|336:160|416:168,1,160
472,224,120410,1,0,0:0:0
416,280,120652,6,0,B|368:304|288:304,1,120
184,328,121377,1,0,0:0:0
136,176,121861,2,0,B|112:96,2,80
208,208,122587,6,0,B|232:128|328:88,1,160
344,168,123313,2,0,B|384:240,2,80
240,48,124281,1,0,0:0:0
168,80,124523,6,0,B|120:88|96:144,1,80
80,200,125006,1,0,0:0:0
96,280,125248,2,0,B|144:288|216:240|256:280,1,160
328,288,125974,2,0,B|376:224,1,80
360,64,126700,5,0,0:0:0
280,72,126942,2,0,B|192:80,1,80
192,160,127426,2,0,B|136:152|120:88,1,80
72,56,127910,2,0,B|16:72|16:128,1,80
104,240,128635,5,0,0:0:0
176,264,128877,2,0,B|264:280,1,80
336,264,129361,2,0,B|352:216|408:200,1,80
448,152,129845,2,0,B|440:112|400:88,1,80
256,160,130571,6,0,B|256:64,2,80
256,240,131297,2,0,B|256:336,1,80
176,336,131781,1,0,0:0:0
128,272,132023,1,0,0:0:0
48,288,132265,5,0,0:0:0
96,136,132748,1,0,0:0:0
232,56,133232,1,0,0:0:0
384,96,133716,2,0,B|392:152|432:176|432:176|432:240,1,160
368,280,134442,5,0,0:0:0
224,200,134926,1,0,0:0:0
224,120,135168,2,0,B|200:72|232:32,2,80
296,80,135894,1,0,0:0:0
376,80,136135,6,0,B|424:96|440:136,2,80
360,160,136861,1,0,0:0:0
328,232,137103,2,0,B|304:296|264:320|184:320,1,160
200,240,137829,1,0,0:0:0
200,160,138071,2,0,B|160:144|112:168,1,80
272,104,138797,5,0,0:0:0
352,88,139039,2,0,B|400:80|448:112,1,80
480,168,139523,1,0,0:0:0
488,248,139765,1,0,0:0:0
432,304,140006,2,0,B|376:280|320:312|264:272,1,160
192,144,140974,6,0,B|152:200|208:280,2,120
256,88,141942,1,0,0:0:0
416,80,142426,1,0,0:0:0
456,152,142668,2,0,B|488:192|456:248,1,80
408,288,143152,2,0,B|368:264|320:296,1,80
328,208,143635,2,0,B|281:207|255:258,1,80
256,88,144361,5,0,0:0:0
176,88,144603,1,0,0:0:0
120,152,144845,2,0,B|56:216,1,80
136,248,145329,2,0,B|120:336,2,80
288,296,146297,5,0,0:0:0
256,224,146539,1,0,0:0:0
216,152,146781,2,0,B|120:152,1,80
152,72,147265,2,0,B|232:72,1,80
312,72,147748,2,0,B|408:72|408:72|480:120|440:208,1,240
360,200,148716,1,0,0:0:0
40,192,149684,6,0,B|128:192,3,80
360,192,151135,2,0,B|456:192,1,80
432,112,151619,5,0,0:0:0
368,64,151861,1,0,0:0:0
288,64,152103,2,0,B|200:64|144:128,1,160
216,168,152829,1,0,0:0:0
272,224,153071,2,0,B|304:192|368:192,2,80
136,312,154039,5,0,0:0:0
216,312,154281,2,0,B|256:336|296:312,2,80
208,232,155006,2,0,B|168:208|128:232,1,80
64,272,155490,1,0,0:0:0
112,120,155974,5,0,0:0:0
184,80,156216,2,0,B|272:64,2,80
208,160,156942,2,0,B|296:144,1,80
368,128,157426,2,0,B|424:128|456:160|456:232,2,120
208,160,158635,1,0,0:0:0
128,176,158877,2,0,B|49:190,2,80
256,272,159845,5,0,0:0:0
256,192,160087,2,0,B|256:112,1,80
320,64,160571,2,0,B|368:40|416:40,2,80
248,32,161297,1,0,0:0:0
176,176,161781,5,0,0:0:0
112,224,162023,2,0,B|64:240|56:288,1,80
136,304,162506,1,0,0:0:0
216,280,162748,2,0,B|232:328|280:336,2,80
352,192,163716,5,0,0:0:0
272,192,163958,2,0,B|176:192,2,80
272,112,164684,2,0,B|360:112,1,80
432,112,165168,5,0,0:0:0
416,192,165410,1,0,0:0:0
400,272,165652,2,0,B|360:288|312:272,2,80
264,192,166619,6,0,B|168:192,1,80
184,112,167103,2,0,B|272:120|336:72,1,160
400,120,167829,1,0,0:0:0
376,200,168071,2,0,B|288:192|224:240,1,160
160,288,168797,1,0,0:0:0
96,240,169039,2,0,B|48:208|24:160|40:88,1,160
120,88,169765,2,0,B|208:72,1,80
392,88,170490,6,0,B|304:72,2,80
392,248,171458,1,0,0:0:0
320,288,171700,2,0,B|288:312|224:312,1,80
232,232,172184,2,0,B|136:216|64:264,1,160
56,176,172910,5,0,0:0:0
128,80,173273,1,0,0:0:0
248,104,173635,2,0,B|320:152|424:112,1,160
448,184,174361,2,0,B|384:240|408:336,1,160
256,280,175329,5,0,0:0:0
256,200,175571,2,0,B|256:152|208:112,1,80
176,240,176176,2,0,B|176:184|120:128,1,120
64,80,176781,1,0,0:0:0
224,48,177265,5,0,0:0:0
304,72,177506,1,0,0:0:0
296,152,177748,2,0,B|256:184|256:240,2,80
336,224,178474,2,0,B|336:264|288:296,1,80
184,176,179200,5,0,0:0:0
168,96,179442,1,0,0:0:0
88,112,179684,2,0,B|128:280,1,160
192,312,180410,1,0,0:0:0
272,312,180652,2,0,B|352:312,2,80
272,232,181377,1,0,0:0:0
272,152,181619,2,0,B|152:152,2,120
352,152,182587,5,0,0:0:0
120,88,183313,2,0,B|56:144,1,80
256,288,184281,2,0,B|316:235,1,80
256,128,184885,5,0,0:0:0
160,200,185248,1,0,0:0:0
72,64,185732,2,0,B|24:80|16:144,2,80
104,136,186458,2,0,B|160:104|152:56|240:56,1,160
320,56,187184,1,0,0:0:0
392,88,187426,1,0,0:0:0
272,192,187910,5,0,0:0:0
352,192,188152,2,0,B|416:192,2,40
192,192,188877,1,0,0:0:0
48,112,189361,2,0,B|8:184|48:272,2,160
192,192,190813,5,0,0:0:0
216,112,191055,2,0,B|232:72|288:64,1,80
376,192,191781,1,0,0:0:0
336,264,192023,2,0,B|320:304|264:312,1,80
152,312,192627,2,0,B|88:312|56:240,1,120
112,96,193474,5,0,0:0:0
192,72,193716,2,0,B|232:48|280:48,1,80
344,80,194200,2,0,B|416:104|464:192|416:288,1,240
352,328,195168,1,0,0:0:0
200,280,195652,1,0,0:0:0
128,240,195894,2,0,B|96:224|48:224,1,80
152,104,196619,6,0,B|192:72|240:72,1,80
304,72,197103,1,0,0:0:0
376,168,197466,1,0,0:0:0
312,272,197829,1,0,0:0:0
256,192,198071,12,0,200974,0:0:0
152,80,215006,5,0,0:0:0
32,192,215490,2,0,B|128:192|160:272,1,160
312,328,216458,2,0,B|400:312|416:216,1,160
424,144,217184,1,0,0:0:0
400,64,217426,2,0,B|328:32|288:80|288:80|224:56|168:120,1,240
120,160,218394,1,0,0:0:0
72,312,218877,6,0,B|64:272|72:224,2,80
232,336,219845,1,0,0:0:0
224,256,220087,1,0,0:0:0
256,184,220329,2,0,B|272:112|360:120,2,120
336,200,221297,6,0,B|352:272|440:264,2,120
208,104,222506,1,0,0:0:0
128,80,222748,2,0,B|91:63|48:56,2,80
56,224,223716,1,0,0:0:0
104,288,223958,2,0,B|136:320|200:320,1,80
256,336,224442,2,0,B|288:304|336:304,1,80
408,288,224926,1,0,0:0:0
448,216,225168,1,0,0:0:0
352,88,225652,6,0,B|264:64,2,80
328,168,226377,2,0,B|224:136,1,80
224,224,226861,2,0,B|300:247,1,80
144,200,227587,1,0,0:0:0
88,144,227829,1,0,0:0:0
120,72,228071,2,0,B|168:24|240:40,2,120
176,128,229039,5,0,0:0:0
256,192,229160,12,0,230490,0:0:0
216,72,230974,6,0,B|256:48|296:72,1,80
368,96,231458,1,0,0:0:0
432,144,231700,1,0,0:0:0
472,216,231942,2,0,B|480:304|376:352,1,160
312,344,232668,2,0,B|224:328,1,80
168,184,233394,6,0,B|96:128,2,80
248,192,234119,2,0,B|311:241,2,80,0|0|0,0:0|0:0|0:0,0:0:0
248,112,234845,1,0,0:0:0
392,40,235329,5,0,0:0:0
464,72,235571,1,0,0:0:0
408,128,235813,2,0,B|376:184|408:248,1,120
328,336,236539,1,0,0:0:0
256,304,236781,2,0,B|216:264|144:264,2,120
256,144,237990,6,0,B|256:48,3,80
96,48,239200,5,0,0:0:0
24,80,239442,1,0,0:0:0
80,136,239684,2,0,B|112:192|80:256,1,120
176,328,240410,1,0,0:0:0
240,280,240652,2,0,B|280:224|352:248|352:248|432:224|432:160,1,240
432,96,241619,2,0,B|376:40,1,80
320,96,242103,2,0,B|240:72,1,80
168,104,242587,1,0,0:0:0
96,248,243071,6,0,B|172:270,1,80
248,296,243555,2,0,B|304:264|368:296,2,120
232,216,244523,1,0,0:0:0
272,64,245006,1,0,0:0:0
320,216,245490,1,0,0:0:0
360,64,245974,2,0,B|448:96|456:184,1,160
432,336,246942,6,0,B|352:320,1,80
272,312,247426,2,0,B|216:264|144:288|144:288|88:264|88:192,1,240
88,128,248394,2,0,B|112:32|224:40,1,160
280,56,249119,1,0,0:0:0
352,96,249361,1,0,0:0:0
432,184,249724,1,0,0:0:0
400,304,250087,1,0,0:0:0
256,192,250329,12,0,253232,0:0:0
