osu file format v11

[General]
AudioFilename: Route Sphere.mp3
AudioLeadIn: 1500
PreviewTime: 71649
Countdown: 0
SampleSet: Soft
StackLeniency: 0.4
Mode: 0
LetterboxInBreaks: 0

[Editor]
DistanceSpacing: 0.7
BeatDivisor: 1
GridSize: 4

[Metadata]
Title:Route Sphere
TitleUnicode:ルートスフィア
Artist:Last Note.
ArtistUnicode:Last Note.
Creator:Pokie
Version:Own Way
Source:VOCALOID
Tags:hs714 Garven alacat Sorda S_o_r_d_a Vocaloid2 Megpoid GUMI Power Non Help no Hito cao. Osamuraisan mao
BeatmapID:191111
BeatmapSetID:64321

[Difficulty]
HPDrainRate:6
CircleSize:4
OverallDifficulty:7
ApproachRate:8
SliderMultiplier:1.6
SliderTickRate:2

[Events]
//Background and Video events
Video,0,"Route sphere.avi"
0,0,"BG.png"
//Break Periods
2,107292,116987
2,202131,212794
//Storyboard Layer 0 (Background)
//Storyboard Layer 1 (Fail)
//Storyboard Layer 2 (Pass)
//Storyboard Layer 3 (Foreground)
//Storyboard Sound Samples
//Background Colour Transformations
3,100,40,40,40

[TimingPoints]
641,483.870967741935,4,2,2,38,1,0
641,-181.818181818181,4,2,2,38,0,0
7415,-133.333333333333,4,1,1,42,0,0
8382,-100,4,2,1,50,0,0
10318,-100,4,2,1,40,0,0
10439,-100,4,2,1,50,0,0
18060,-100,4,2,1,40,0,0
18181,-100,4,2,1,50,0,0
23866,-100,4,2,2,45,0,0
24350,-100,4,1,1,55,0,0
26165,-100,4,1,1,50,0,0
26286,-100,4,1,1,55,0,0
27737,-100,4,1,1,45,0,0
27858,-100,4,1,1,55,0,0
31608,-100,4,1,1,50,0,0
31729,-100,4,1,1,55,0,0
33544,-100,4,1,1,50,0,0
33665,-100,4,1,1,55,0,0
37415,-100,4,1,1,50,0,0
37536,-100,4,1,1,55,0,0
39350,-100,4,1,1,45,0,0
39471,-100,4,1,1,55,0,0
43221,-100,4,1,1,45,0,0
43342,-100,4,1,1,55,0,0
47092,-100,4,1,1,45,0,0
47213,-100,4,1,1,55,0,0
49028,-100,4,1,1,45,0,0
49149,-100,4,1,1,55,0,0
54834,-80,4,1,1,55,0,0
55318,-133.333333333333,4,2,1,45,0,0
56286,-100,4,2,1,45,0,0
56770,-100,4,1,1,45,0,0
56890,-80,4,1,1,55,0,0
57495,-100,4,1,1,55,0,0
58705,-80,4,1,1,55,0,0
59189,-133.333333333333,4,2,1,45,0,0
60157,-100,4,2,1,45,0,0
60640,-100,4,1,1,45,0,0
60761,-100,4,1,1,55,0,0
61366,-100,4,1,1,55,0,0
69350,-100,4,1,1,45,0,0
69471,-100,4,1,1,55,0,0
69834,-100,4,1,1,45,0,0
70076,-100,4,1,1,40,0,0
70318,-133.333333333333,4,2,1,45,0,0
71044,-133.333333333333,4,2,1,35,0,0
71528,-100,4,1,1,36,0,0
72011,-100,4,1,1,45,0,0
72253,-100,4,1,2,50,0,1
72374,-100,4,1,2,60,0,1
87616,-100,4,1,2,60,0,0
87737,-100,4,1,2,60,0,1
103221,-100,4,1,1,60,0,1
103342,-100,4,1,1,60,0,0
105157,-100,4,1,1,55,0,0
134189,-80,4,1,1,55,0,0
134915,-133.333333333333,4,2,1,45,0,0
135640,-100,4,1,1,45,0,0
136124,-100,4,1,1,55,0,0
138060,-80,4,1,1,55,0,0
138786,-133.333333333333,4,1,1,45,0,0
139390,-100,4,1,1,45,0,0
139995,-100,4,1,1,55,0,0
149189,-100,4,1,1,45,0,0
149673,-181.818181818182,4,2,1,50,0,0
150399,-181.818181818182,4,2,1,35,0,0
150640,-100,4,1,1,40,0,0
150882,-100,4,1,1,45,0,0
151124,-100,4,1,1,50,0,0
151366,-100,4,1,1,55,0,0
151608,-100,4,1,1,50,0,1
151850,-100,4,1,2,60,0,1
166971,-100,4,1,2,60,0,0
167092,-100,4,1,2,60,0,1
182455,-100,4,1,2,60,0,0
182576,-100,4,1,2,60,0,1
187173,-100,4,1,2,50,0,1
187294,-100,4,1,2,60,0,1
198060,-100,4,1,1,50,0,0
199995,-100,4,1,1,45,0,0
200963,-100,4,1,1,40,0,0
213544,-100,4,2,1,40,0,0
214995,-100,4,2,1,35,0,0
215479,-133.333333333333,4,2,3,30,0,0
229874,-100,4,1,1,30,0,0
229995,-100,4,1,1,35,0,0
230237,-100,4,1,1,40,0,0
230479,-100,4,1,1,50,0,0
230842,-100,4,1,1,45,0,0
230963,-80,4,1,2,65,0,1
248382,-100,4,2,1,50,0,0
249108,-100,4,2,1,29,0,0
249350,-100,4,2,1,40,0,0
249592,-100,4,2,1,50,0,0
249834,-100,4,2,1,60,0,0
250076,-100,4,2,1,50,0,0
250318,-100,4,2,1,55,0,0
250560,-100,4,2,1,60,0,0
265802,-100,4,2,1,45,0,0
266770,-100,4,2,1,35,0,0
267737,-100,4,2,1,25,0,0
268705,-100,4,2,1,20,0,0
269673,-100,4,2,1,15,0,0
270157,-100,4,2,1,10,0,0
270640,-100,4,2,1,5,0,0

[Colours]
Combo1 : 228,82,133
Combo2 : 18,149,226
Combo3 : 41,205,205
Combo4 : 143,192,52
Combo5 : 236,243,95
Combo6 : 227,130,64

[HitObjects]
317,122,641,2,0,B|349:162|336:214,1,88.000002685547,2|0,0:0|0:0,0:0:0
195,238,1608,2,0,B|163:198|176:146,1,88.000002685547,2|0,0:0|0:0,0:0:0
236,97,2334,1,2,0:0:0
276,263,2576,6,0,B|257:320,1,44.0000013427735,2|0,0:0|0:0,0:0:0
236,97,3060,2,0,B|255:40,1,44.0000013427735,0|2,0:0|0:0,0:0:0
324,182,3544,2,0,B|181:176,1,132.00000402832,2|2,0:0|0:0,0:0:0
115,170,4511,6,0,B|107:224|140:256,1,88.000002685547,2|0,0:0|0:0,0:0:0
403,185,5479,2,0,B|411:131|378:99,1,88.000002685547,2|0,0:0|0:0,0:0:0
300,83,6205,1,2,0:0:0
232,283,6447,6,0,B|180:277,1,44.0000013427735,2|0,0:0|0:0,0:0:0
300,83,6931,2,0,B|352:89,1,44.0000013427735,0|2,0:0|0:0,0:0:0
380,73,7294,5,0,0:0:0
380,73,7415,1,8,0:0:0
224,124,7657,1,0,0:0:0
357,172,7899,2,0,B|411:183|446:153,1,90.0000034332277,8|0,0:0|2:0,0:0:0
466,88,8382,6,0,B|510:103|526:140|514:187,1,120,4|0,1:0|0:0,0:0:0
468,240,8866,2,0,B|433:270|392:265|358:232,1,120,0|0,1:0|0:0,0:0:0
332,166,9350,2,0,B|322:96|394:72,2,120,0|2|0,0:0|0:0|0:0,0:0:0
332,166,10318,6,8,B|162:158,1,160,4|0,0:0|1:0,0:0:0
129,245,11044,1,8,0:0:0
129,245,11165,1,0,0:0:0
129,245,11286,2,0,B|158:269|213:260,1,80,8|8,0:0|0:0,0:0:0
242,245,11649,1,0,0:0:0
262,211,11770,2,2,B|269:119,1,80,0|0,1:0|0:0,0:0:0
262,211,12253,6,0,B|251:350,1,120,4|0,1:0|0:0,0:0:0
193,365,12737,2,0,B|149:375|114:354,1,80,0|2,1:0|0:0,0:0:0
10,258,13221,2,0,B|130:244,1,120,0|2,0:0|0:0,0:0:0
135,175,13705,2,0,B|179:165|214:186,1,80,0|2,1:0|0:0,0:0:0
150,315,14189,1,0,0:0:0
101,139,14431,6,0,B|187:113|262:168,1,160,0|8,1:0|0:0,0:0:0
286,360,15157,1,8,0:0:0
372,318,15399,1,8,0:0:0
372,318,15520,1,0,0:0:0
372,318,15641,2,0,B|384:230,1,80,0|0,1:0|1:0,0:0:0
190,69,16124,6,0,B|173:191,1,120,4|0,1:0|0:0,0:0:0
143,251,16608,2,0,B|175:279|221:259,1,80,0|0,1:0|0:0,0:0:0
179,148,17092,2,0,B|123:113|63:135,2,120,0|2|0,0:0|0:0|0:0,0:0:0
179,148,18060,6,0,B|345:145,1,160,4|0,0:0|1:0,0:0:0
409,210,18786,1,8,0:0:0
409,210,18907,1,0,0:0:0
409,210,19028,2,0,B|376:240|331:232,1,80,8|8,0:0|0:0,0:0:0
304,207,19391,1,0,0:0:0
286,171,19511,2,0,B|300:38,1,120,0|0,1:0|1:0,0:0:0
355,13,19995,6,0,B|423:-4|466:61,1,120,4|0,1:0|0:0,0:0:0
469,120,20479,2,0,B|449:187|371:192,1,120,0|0,1:0|0:0,0:0:0
324,153,20963,1,0,0:0:0
215,247,21326,1,2,0:0:0
402,324,21689,1,2,0:2:0
380,313,21810,1,0,0:0:0
358,302,21931,6,0,B|326:249|358:181,1,120,4|0,1:0|0:0,0:0:0
401,136,22415,2,0,B|361:159|312:152,1,80,0|8,1:0|0:0,0:0:0
122,68,22899,2,0,B|162:45|211:52,1,80,8|8,0:0|0:0,0:0:0
247,149,23382,1,0,1:0:0
250,168,23503,1,0,1:0:0
254,187,23624,1,0,1:0:0
258,206,23745,1,0,1:0:0
262,224,23866,5,4,1:0:0
94,355,24350,1,8,0:0:0
17,310,24592,1,0,2:0:0
17,310,24713,2,0,B|-6:252|28:188,1,120,0|0,0:0|2:0,0:0:0
98,145,25318,2,0,B|188:148,1,80,8|0,0:0|2:0,0:0:0
40,80,25802,5,0,2:0:0
156,216,26165,1,0,1:0:0
212,44,26528,1,0,0:0:0
140,120,26770,5,0,2:0:0
112,236,27011,1,0,2:0:0
224,268,27253,1,8,0:0:0
260,152,27495,1,0,2:0:0
288,344,27737,6,0,B|352:368|408:332,1,120,4|0,0:0|2:0,0:0:0
472,344,28221,1,8,0:0:0
504,216,28463,2,0,B|442:208|371:202,2,120,0|0|8,2:0|0:0|0:0,0:0:0
510,224,29431,5,0,0:0:0
510,224,29552,1,0,2:0:0
510,224,29673,2,0,B|501:184|499:144,1,80,0|0,0:0|2:0,0:0:0
271,24,30157,2,0,B|281:63|281:103,1,80,8|0,0:0|2:0,0:0:0
348,127,30520,2,0,B|483:114,1,120
129,200,31124,2,0,B|42:207,1,80,8|0,0:0|2:0,0:0:0
49,206,31608,6,0,B|16:260|35:326,1,120,4|0,0:0|2:0,0:0:0
97,357,32092,1,8,0:0:0
310,292,32334,1,0,2:0:0
310,292,32455,2,0,B|250:285|188:284,1,120,0|0,0:0|2:0,0:0:0
310,292,33060,2,0,B|321:208,1,80,8|0,0:0|2:0,0:0:0
259,138,33544,6,0,B|247:99|268:60,1,80,4|0,0:0|2:0,0:0:0
433,225,34028,2,0,B|444:263|423:302,1,80,8|0,0:0|2:0,0:0:0
362,331,34391,2,0,B|302:324|240:323,1,120,0|0,0:0|2:0,0:0:0
168,154,34995,2,0,B|206:158|254:159,1,80,8|0,0:0|2:0,0:0:0
272,137,35358,1,0,0:0:0
292,114,35479,6,0,B|287:29,1,80,4|0,0:0|2:0,0:0:0
334,223,35963,2,0,B|338:312,1,80,8|0,0:0|2:0,0:0:0
392,350,36326,2,0,B|460:370|503:309,1,120,0|0,0:0|2:0,0:0:0
469,173,36931,2,0,B|381:162,1,80,8|0,0:0|2:0,0:0:0
294,357,37415,6,0,B|364:408|452:370,1,160,4|8,0:0|0:0,0:0:0
506,298,38141,1,0,2:0:0
482,204,38382,5,8,0:0:0
342,176,38624,1,2,2:0:0
437,70,38866,1,8,0:0:0
421,149,39108,5,0,0:0:0
421,149,39229,1,0,0:0:0
421,149,39350,2,0,B|362:114|299:142,1,120,4|0,0:0|2:0,0:0:0
262,197,39834,1,8,0:0:0
316,25,40076,1,2,2:0:0
363,77,40197,2,0,B|362:128|358:197,1,120,0|0,0:0|0:0,0:0:0
176,204,40802,2,0,B|179:158|182:112,1,80,8|0,0:0|2:0,0:0:0
200,286,41286,5,0,0:0:0
289,174,41528,1,2,2:0:0
289,174,41649,1,0,2:0:0
289,174,41770,1,8,0:0:0
146,152,42011,1,0,2:0:0
367,210,42253,5,0,2:0:0
272,74,42495,1,2,2:0:0
264,318,42737,2,0,B|167:308,1,80,8|0,0:0|2:0,0:0:0
44,353,43221,6,0,B|6:301|37:239,1,120,4|0,0:0|0:0,0:0:0
103,212,43705,1,8,0:0:0
103,212,43947,1,0,2:0:0
146,269,44068,2,0,B|208:272|270:279,1,120,0|2,0:0|2:0,0:0:0
395,214,44673,2,0,B|417:179|402:131,1,80,8|0,0:0|2:0,0:0:0
386,114,45036,1,0,0:2:0
364,95,45157,6,0,B|329:73|281:88,1,80,0|2,2:0|2:0,0:0:0
263,282,45641,2,0,B|298:304|346:289,1,80,8|0,0:0|2:0,0:0:0
384,233,46003,2,0,B|445:226|508:223,1,120,0|2,0:0|2:0,0:0:0
209,152,46608,2,0,B|253:151|291:148,1,80,8|0,0:0|2:0,0:0:0
288,148,47092,6,0,B|308:228,1,80,4|0,0:0|0:0,0:0:0
213,351,47576,2,0,B|193:273,1,80,8|2,0:0|2:0,0:0:0
140,223,47939,2,0,B|74:201|15:245,1,120,0|0,0:0|2:0,0:0:0
178,380,48544,2,0,B|219:385|260:367,1,80,8|0,0:0|2:0,0:0:0
318,275,49028,6,0,B|332:192,1,80,4|2,0:0|2:2,0:0:0
424,133,49511,1,8,0:0:0
256,80,49753,1,2,2:0:0
221,83,49874,2,0,B|192:110|181:150|195:194,1,120,0|0,0:0|2:0,0:0:0
262,283,50479,2,0,B|345:273,1,80,8|2,0:0|2:0,0:0:0
369,268,50842,1,0,0:0:0
396,264,50963,6,0,B|419:292|408:346,1,80,4|2,0:0|2:0,0:0:0
254,204,51447,2,0,B|231:176|242:122,1,80,8|0,0:0|2:0,0:0:0
293,76,51810,2,0,B|230:66|168:69,1,120,0|2,0:0|2:0,0:0:0
40,247,52415,2,0,B|80:253|120:250,1,80,8|0,0:0|2:0,0:0:0
119,250,52899,6,0,B|108:170,1,80,4|0,0:0|2:0,0:0:0
185,321,53382,2,0,B|121:371,1,80,8|2,0:0|2:0,0:0:0
214,232,53866,2,0,B|289:261,1,80,0|2,2:0|2:0,0:0:0
119,250,54350,1,8,0:0:0
116,222,54471,1,0,2:0:0
112,194,54592,1,0,2:0:0
108,166,54713,1,0,2:0:0
104,137,54834,6,0,B|44:125|8:173,1,100
106,307,55318,6,0,B|140:309|166:280,1,60.0000022888184,2|2,1:2|0:0,0:0:0
176,264,55681,1,0,0:0:0
186,238,55802,2,0,B|252:245,1,60.0000022888184,0|2,0:0|0:0,0:0:0
282,373,56286,2,0,B|406:385,1,120,4|0,1:0|0:0,0:0:0
461,344,56770,6,0,B|482:306|466:264,2,80,4|0|0,0:0|0:0|0:0,0:0:0
261,146,57495,1,2,2:0:0
261,146,57616,1,0,2:0:0
261,146,57737,2,0,B|240:184|256:226,1,80,0|0,2:0|2:0,0:0:0
310,270,58100,2,0,B|353:269|381:234,1,80,0|0,0:0|2:0,0:0:0
412,171,58463,1,0,0:0:0
414,147,58584,1,0,0:0:0
416,122,58705,6,0,B|376:80|314:92,1,100
186,293,59189,6,0,B|154:304|126:283,1,60.0000022888184,2|2,1:2|0:0,0:0:0
118,259,59552,1,0,0:0:0
113,232,59673,2,0,B|104:166,1,60.0000022888184,0|2,0:0|0:0,0:0:0
249,104,60157,2,0,B|267:234,1,120,0|0,1:0|0:0,0:0:0
279,294,60641,6,0,B|332:336|402:305,1,120,4|0,0:0|2:0,0:0:0
440,255,61124,1,0,0:0:0
369,70,61366,1,2,2:0:0
350,91,61487,1,0,0:0:0
329,110,61608,2,0,B|285:110|241:102,1,80,0|2,2:0|2:0,0:0:0
59,62,62092,2,0,B|103:62|147:70,1,80,0|0,0:0|0:0,0:0:0
162,53,62455,1,0,0:0:0
186,38,62576,6,0,B|224:95|189:162,1,120,4|0,0:0|0:0,0:0:0
54,178,63060,2,0,B|91:205|130:193,1,80,8|2,0:0|2:0,0:0:0
156,208,63423,1,0,2:0:0
188,216,63544,2,0,B|315:209,2,120,0|8|0,0:0|0:0|2:0,0:0:0
152,248,64391,5,0,0:0:0
152,248,64511,2,0,B|136:286|153:327,1,80,4|0,0:0|1:0,0:0:0
291,362,64995,2,0,B|307:324|290:283,1,80,8|2,0:0|2:0,0:0:0
256,272,65358,1,0,0:0:0
221,261,65479,2,0,B|93:254,2,120,0|8|0,0:0|0:0|0:0,0:0:0
208,340,66326,5,0,0:0:0
208,340,66447,2,0,B|287:342,1,80,4|0,0:0|1:0,0:0:0
304,152,66931,2,0,B|225:150,1,80,8|2,0:0|2:0,0:0:0
203,130,67294,1,0,0:0:0
183,110,67415,6,0,B|178:69|208:36,1,80
284,29,67778,2,0,B|321:45|334:87,1,80,8|2,0:0|2:0,0:0:0
304,152,68141,5,0,0:0:0
292,177,68261,1,0,0:0:0
281,202,68382,2,0,B|195:221,1,80,4|0,0:0|0:0,0:0:0
146,307,68866,1,8,0:0:0
311,364,69108,5,2,2:0:0
346,356,69229,1,0,0:0:0
381,348,69350,2,0,B|408:316|392:271,1,80,4|0,0:0|2:0,0:0:0
375,255,69713,1,0,0:0:0
356,239,69834,2,0,B|366:198,3,40,8|0|0|0,0:0|0:0|0:0|0:0,0:0:0
311,257,70318,6,0,B|284:274|249:264,1,60.0000022888184,0|0,0:0|0:0,0:0:0
181,110,70802,6,0,B|208:93|243:102,1,60.0000022888184,0|4,0:0|0:0,0:0:0
239,101,71608,2,0,P|249:67,2,26.6666666666667
209,208,72011,5,0,0:0:0
209,208,72132,1,0,0:0:0
209,208,72253,2,0,B|168:191|129:202,1,80,4|2,0:0|0:0,0:0:0
0,315,72737,2,0,B|41:332|80:321,1,80,8|0,0:0|0:0,0:0:0
108,248,73100,2,0,B|97:124,1,120,0|10,0:0|0:0,0:0:0
265,46,73705,2,0,B|292:80|283:133,1,80,8|0,0:0|0:0,0:0:0
220,248,74189,6,0,B|261:297|333:277,1,120,0|2,0:0|0:0,0:0:0
387,222,74673,2,0,B|352:191|298:207,1,80,8|0,0:0|0:0,0:0:0
317,357,75157,1,0,0:0:0
317,357,75278,2,0,B|355:373|393:344,1,80,2|2,0:0|0:0,0:0:0
457,298,75641,2,0,B|467:177,1,120,8|0,0:0|0:0,0:0:0
427,108,76124,6,0,B|392:77|338:93,1,80,4|2,0:0|0:0,0:0:0
123,57,76608,2,0,B|158:88|212:72,1,80,8|0,0:0|0:0,0:0:0
266,33,76971,1,0,0:0:0
266,33,77092,2,0,B|302:88|268:152,1,120,0|2,0:0|0:0,0:0:0
204,194,77576,2,0,B|116:182,1,80,8|0,0:0|0:0,0:0:0
24,233,78060,5,0,0:0:0
162,328,78423,1,10,0:0:0
244,181,78786,1,0,0:0:0
135,152,79028,5,0,0:0:0
223,221,79270,1,2,0:0:0
241,111,79511,1,8,0:0:0
325,184,79753,1,2,0:0:0
325,184,79874,2,0,B|465:192,1,120,0|2,0:0|0:0,0:0:0
449,336,80479,6,0,B|421:371|364:366,1,80,8|0,0:0|0:0,0:0:0
352,346,80842,1,0,0:0:0
330,322,80963,2,0,B|338:238,1,80,0|2,0:0|0:0,0:0:0
304,167,81326,2,0,B|232:134|178:194,1,120,8|0,0:0|0:0,0:0:0
245,337,81931,6,0,B|253:253,1,80,0|2,0:0|0:0,0:0:0
275,69,82415,1,8,0:0:0
304,167,82657,1,0,0:0:0
304,167,82778,1,0,0:0:0
304,167,82899,2,0,B|258:174|220:150,1,80,0|2,0:0|0:0,0:0:0
0,311,83382,2,0,B|58:284|118:323,1,120,8|0,0:0|0:0,0:0:0
163,256,83866,6,0,B|149:133,2,120,0|0|2,0:0|0:0|0:0,0:0:0
190,279,84713,1,0,0:0:0
218,301,84834,2,0,B|273:333|341:307,1,120,0|0,0:0|0:0,0:0:0
383,240,85318,2,0,B|345:218|300:234,1,80,8|0,0:0|0:0,0:0:0
475,312,85802,5,4,0:0:0
398,160,86044,1,2,0:0:0
382,332,86286,1,8,0:0:0
484,211,86528,1,0,0:0:0
484,211,86649,2,0,B|489:90,1,120,2|10,0:0|0:0,0:0:0
409,247,87253,5,10,0:0:0
385,253,87374,1,0,0:0:0
362,259,87495,1,0,0:0:0
339,266,87616,1,0,0:0:0
315,270,87737,2,0,B|280:250|233:256,1,80,4|2,0:0|0:0,0:0:0
143,317,88221,2,8,B|24:301,2,120,8|10|0,0:0|0:0|0:0,0:0:0
172,295,89068,1,0,0:0:0
201,274,89189,2,0,B|216:235|208:189,1,80,8|2,0:0|0:0,0:0:0
80,28,89673,6,0,B|48:84|71:149,1,120,0|2,0:0|0:0,0:0:0
146,167,90157,2,0,B|266:154,2,120,8|2|8,0:0|0:0|0:0,0:0:0
6,309,91124,1,0,0:0:0
68,359,91245,2,0,B|109:370|147:347,1,80,2|0,0:0|0:0,0:0:0
162,269,91608,6,0,B|169:144,1,120,4|2,0:0|0:0,0:0:0
235,104,92092,2,0,B|276:93|314:116,1,80,8|0,0:0|0:0,0:0:0
370,170,92455,1,0,0:0:0
370,170,92576,2,0,B|396:229|361:293,1,120,0|2,0:0|0:0,0:0:0
297,330,93060,2,0,B|256:341|218:318,1,80,8|0,0:0|0:0,0:0:0
381,232,93544,6,0,B|442:212|504:248,2,120,0|10|0,0:0|0:0|0:0,0:0:0
314,138,94511,1,0,0:0:0
224,205,94753,1,2,0:0:0
161,111,94995,1,8,0:0:0
257,54,95237,1,0,0:0:0
257,54,95358,2,0,B|250:178,1,120,0|2,0:0|0:0,0:0:0
178,312,95963,6,0,B|137:333|94:321,1,80,8|0,0:0|0:0,0:0:0
76,300,96326,1,0,0:0:0
52,278,96447,2,0,B|62:148,2,120,0|10|8,0:0|0:0|0:0,0:0:0
52,278,97415,6,0,B|92:284|140:270,1,80,0|2,0:0|0:0,0:0:0
199,46,97899,2,0,B|159:40|111:54,1,80,8|0,0:0|0:0,0:0:0
92,126,98261,2,0,B|118:255,1,120,10|2,0:0|0:0,0:0:0
353,263,98866,2,0,B|367:220|345:185,1,80,8|0,0:0|0:0,0:0:0
314,167,99229,1,0,0:0:0
280,153,99350,6,0,B|235:162|216:198,1,80,4|2,0:0|0:0,0:0:0
331,373,99834,2,0,B|375:363|394:327,1,80,8|0,0:0|0:0,0:0:0
374,295,100197,1,0,0:0:0
353,263,100318,2,0,B|352:208|356:135,2,120,8|2|8,0:0|0:0|0:0,0:0:0
255,345,101286,5,4,0:0:0
221,161,101770,1,8,0:0:0
290,226,102011,1,2,0:0:0
292,44,102253,1,0,0:0:0
292,44,102374,6,0,B|257:19|207:22|171:57,1,120,8|10,0:0|0:0,0:0:0
214,233,102979,2,0,B|256:250|294:223,1,80,2|4,0:0|0:2,0:0:0
256,192,103342,12,4,107092,0:0:0
388,280,117737,5,8,0:0:0
256,332,117979,1,8,0:0:0
276,200,118221,1,0,0:0:0
276,200,118342,1,0,0:0:0
276,200,118463,2,0,P|284:156,2,40,0|0|4,0:0|0:0|0:0,0:0:0
336,88,118947,5,2,2:0:0
260,40,119189,2,0,B|192:16|144:64,1,120,8|0,0:0|0:0,0:0:0
97,256,119794,1,0,2:0:0
97,256,119915,2,0,B|49:256|6:256,2,80,0|8|2,0:0|0:0|2:0,0:0:0
177,204,120641,6,0,B|209:232|193:288,1,80
177,304,121003,1,0,2:0:0
149,320,121124,2,0,B|108:333|68:291,1,80,8|2,0:0|2:0,0:0:0
49,212,121487,2,0,B|57:170|113:156,1,80,8|0,0:0|2:0,0:0:0
195,181,121850,2,0,B|227:209|210:264,2,80,0|8|2,0:0|0:0|2:0,0:0:0
195,181,122576,6,0,B|205:60,1,120,4|0,0:0|0:0,0:0:0
266,23,123060,1,8,0:0:0
310,116,123302,1,0,2:0:0
310,116,123423,2,0,B|355:134|393:110,1,80,0|0,0:0|2:0,0:0:0
425,51,123786,2,0,B|505:53,1,80,2|8,2:0|0:0,0:0:0
448,264,124270,1,0,2:0:0
425,285,124391,1,0,2:0:0
401,306,124511,6,0,B|321:304,1,80,0|0,0:0|2:0,0:0:0
244,205,124995,2,0,B|248:114,1,80,8|2,0:0|2:0,0:0:0
302,77,125358,2,0,B|346:82|370:125|358:175,1,120,0|8,0:0|0:0,0:0:0
223,346,125963,2,0,B|188:318|190:276,1,80,8|2,0:0|2:0,0:0:0
190,276,126447,6,0,B|60:267,1,120,4|0,0:0|2:0,0:0:0
17,317,126931,1,8,0:0:0
189,276,127173,1,2,2:0:0
189,276,127294,2,0,B|176:234|194:193,1,80
230,136,127657,2,0,B|266:109|310:113,1,80,0|8,0:0|0:0,0:0:0
302,234,128141,5,2,2:0:0
196,107,128382,2,0,B|250:66|314:76,1,120,4|0,0:0|0:0,0:0:0
372,108,128866,1,8,0:0:0
258,299,129108,1,2,2:0:0
314,343,129229,2,0,B|372:352|426:311,1,120,0|8,0:0|0:0,0:0:0
474,148,129834,2,0,B|436:127|376:145,1,80,8|2,0:0|2:0,0:0:0
368,157,130197,1,0,0:0:0
344,178,130318,6,0,B|321:214|335:275,1,80,4|0,0:0|0:0,0:0:0
177,369,130802,2,0,B|199:332|185:271,1,80,8|2,0:0|2:0,0:0:0
143,219,131165,2,0,B|185:263|256:246,1,120,0|0,0:0|2:0,0:0:0
276,217,131649,1,0,2:0:0
296,187,131770,2,0,B|285:99,1,80,8|2,0:0|2:0,0:0:0
224,32,132253,5,4,0:0:0
224,32,132495,1,0,2:0:0
340,192,132737,1,8,0:0:0
340,192,132979,1,2,2:0:0
208,293,133221,1,2,0:0:0
208,293,133463,1,2,2:0:0
314,320,133705,1,8,0:0:0
321,288,133826,1,0,0:0:0
328,256,133947,1,0,2:0:0
333,224,134068,1,0,2:0:0
340,192,134189,6,0,B|228:205,1,100,4|0,0:0|0:0,0:0:0
240,203,134915,5,0,1:0:0
215,193,135036,1,0,0:0:0
190,181,135157,2,0,B|178:146|194:114,1,60.0000022888184,2|0,0:0|1:0,0:0:0
146,316,135640,2,0,B|280:332,1,120,4|0,0:0|2:0,0:0:0
337,339,136124,6,0,B|419:346,2,80,4|0|0,0:0|0:0|0:0,0:0:0
327,237,136850,1,0,0:0:0
327,237,136971,1,0,0:0:0
327,237,137092,2,0,B|413:223,1,80
464,181,137455,2,0,B|432:146|390:155,1,80,0|0,0:0|0:0,0:0:0
404,297,137818,2,0,B|450:286,1,40
506,255,138060,6,0,B|523:198|490:156,1,100,4|0,0:0|0:0,0:0:0
344,56,138786,5,2,2:0:0
314,60,138907,1,0,0:0:0
284,67,139028,2,0,B|271:99|279:133,1,60.0000022888184,0|0,2:0|0:0,0:0:0
251,156,139390,1,0,2:0:0
225,186,139511,2,0,B|265:234|235:307,1,120,4|0,0:0|2:0,0:0:0
181,348,139995,6,0,B|124:382|60:357,1,120,4|0,0:0|0:0,0:0:0
27,294,140479,1,0,0:0:0
84,145,140721,1,2,2:0:0
109,156,140842,1,0,0:0:0
131,172,140963,2,0,B|154:207|138:261,1,80,0|2,0:0|2:0,0:0:0
315,352,141447,2,0,B|292:317|308:263,1,80,0|2,0:0|2:0,0:0:0
331,256,141810,1,0,0:0:0
358,239,141931,6,0,B|480:244,1,120,4|0,0:0|0:0,0:0:0
396,168,142415,2,0,B|354:155|312:169,1,80,8|2,0:0|2:0,0:0:0
394,323,142899,1,0,1:0:0
484,122,143140,1,0,2:0:0
413,94,143261,2,0,B|348:70|280:103,1,120,8|0,0:0|0:0,0:0:0
254,160,143745,5,0,0:0:0
254,160,143866,2,0,B|267:250,2,80,0|2|8,0:0|2:0|0:0,0:0:0
187,297,144592,1,0,2:0:0
152,306,144713,1,0,0:0:0
117,315,144834,2,0,B|75:331|32:307,1,80,0|0,0:0|2:0,0:0:0
24,195,145197,2,0,B|89:171|157:204,1,120,8|0,0:0|2:0,0:0:0
208,159,145681,5,0,0:0:0
208,159,145802,2,0,B|221:69,2,80,0|2|8,0:0|2:0|0:0,0:0:0
306,338,146528,1,0,0:0:0
310,306,146649,1,0,0:0:0
314,274,146770,2,0,B|266:266|235:288,1,80,0|0,0:0|2:0,0:0:0
181,232,147132,2,0,B|211:194|208:156,1,80,8|2,0:0|2:0,0:0:0
283,144,147495,5,0,0:0:0
304,173,147616,1,0,0:0:0
336,189,147737,2,0,B|423:187,1,80,4|2,0:0|2:0,0:0:0
477,93,148221,1,8,0:0:0
189,104,148463,5,0,0:0:0
189,104,148584,1,0,0:0:0
189,104,148705,2,0,B|102:102,1,80,4|2,0:0|2:0,0:0:0
93,230,149189,1,8,0:0:0
93,230,149310,1,0,0:0:0
93,230,149431,1,0,0:0:0
93,230,149552,1,0,0:0:0
93,230,149673,6,0,B|153:239,1,44.0000013427735,0|2,0:0|0:0,0:0:0
419,154,150157,6,0,B|359:145,1,44.0000013427735,0|2,0:0|0:0,0:0:0
352,144,150520,1,0,0:0:0
332,140,150640,1,0,0:0:0
294,277,150882,5,0,0:0:0
419,154,151124,1,8,0:0:0
464,328,151366,1,0,0:0:0
464,328,151487,1,0,0:0:0
464,328,151608,6,0,B|383:327,1,80,4|2,0:0|0:0,0:0:0
276,180,152092,2,0,B|260:140|284:96,1,80,8|0,0:0|0:0,0:0:0
344,53,152455,2,0,B|412:48|444:114,1,120,0|2,0:0|0:0,0:0:0
267,273,153060,2,0,B|221:269|200:225,1,80,8|0,0:0|0:0,0:0:0
238,70,153544,6,0,B|104:62,1,120,0|2,0:0|0:0,0:0:0
55,113,154028,2,0,B|78:149|132:146,1,80,8|0,0:0|0:0,0:0:0
343,58,154511,1,2,0:0:0
343,58,154632,2,0,B|320:22|266:25,1,80,8|0,0:0|0:0,0:0:0
219,84,154995,2,0,B|231:170,1,80,8|2,0:0|0:0,0:0:0
191,234,155358,5,0,0:0:0
191,234,155479,2,0,B|110:227,1,80,4|2,0:0|0:0,0:0:0
418,324,155963,2,0,B|337:317,1,80,8|0,0:0|0:0,0:0:0
259,336,156326,1,0,0:0:0
259,336,156447,2,0,B|271:212,1,120,0|2,0:0|0:0,0:0:0
250,138,156931,2,0,B|286:120|334:130,1,80,8|0,0:0|0:0,0:0:0
468,279,157415,6,0,B|416:308|351:293,1,120,0|0,0:0|0:0,0:0:0
284,247,157899,2,0,B|292:157,1,80,10|0,0:0|0:0,0:0:0
239,67,158382,5,0,0:0:0
150,180,158624,1,10,0:0:0
261,271,158866,1,8,0:0:0
354,161,159108,1,0,0:0:0
354,161,159229,2,0,B|220:150,1,120,0|2,0:0|0:0,0:0:0
94,114,159834,6,0,B|60:144|69:198,1,80,8|0,0:0|0:0,0:0:0
105,257,160197,1,0,0:0:0
182,237,160318,2,0,B|216:207|207:153,1,80,0|2,0:0|0:0,0:0:0
182,88,160681,2,0,B|301:97,1,120,8|0,0:0|0:0,0:0:0
277,333,161286,6,0,B|191:325,1,80,0|2,0:0|0:0,0:0:0
85,316,161770,1,8,0:0:0
354,284,162011,1,0,0:0:0
354,284,162132,1,0,0:0:0
354,284,162253,2,0,B|377:320|364:372,1,80,0|2,0:0|0:0,0:0:0
247,199,162737,2,0,B|224:163|237:111,1,80,8|0,0:0|0:0,0:0:0
303,80,163100,1,0,0:0:0
303,80,163221,6,0,B|422:89,1,120,4|2,0:0|0:0,0:0:0
495,123,163705,2,0,B|518:159|505:211,1,80,8|0,0:0|0:0,0:0:0
452,259,164068,1,0,0:0:0
373,242,164189,2,0,B|333:190|363:116,1,120,0|2,0:0|0:0,0:0:0
405,46,164673,2,0,B|325:40,1,80,8|0,0:0|0:0,0:0:0
448,127,165157,5,4,0:0:0
269,212,165399,1,2,0:0:0
452,260,165640,1,8,0:0:0
337,106,165882,1,0,0:0:0
337,106,166003,2,0,B|357:238,1,120,0|10,0:0|0:0,0:0:0
331,342,166608,5,10,0:0:0
362,336,166729,1,0,0:0:0
393,329,166850,1,0,0:0:0
424,322,166971,1,8,0:0:0
455,315,167092,1,4,0:0:0
475,116,167334,1,2,0:0:0
363,107,167576,2,0,B|345:229,2,120,8|8|2,0:0|0:0|0:0,0:0:0
357,31,168423,1,0,0:0:0
357,31,168544,2,0,B|272:40,1,80,8|0,0:0|0:0,0:0:0
168,287,169028,6,0,B|289:274,1,120,0|2,0:0|0:0,0:0:0
362,301,169511,2,0,B|379:182,2,120,8|0|0,0:0|0:0|0:0,0:0:0
211,358,170479,1,10,0:0:0
168,287,170600,2,0,B|184:202,1,80,0|0,0:0|0:0,0:0:0
133,144,170963,6,0,B|62:140|36:210,1,120,4|2,0:0|0:0,0:0:0
44,283,171447,2,0,B|55:326|103:335,1,80,8|0,0:0|0:0,0:0:0
168,287,171810,1,0,0:0:0
168,287,171931,2,0,B|295:285,2,120,0|10|0,0:0|0:0|0:0,0:0:0
110,190,172899,5,0,0:0:0
246,361,173261,1,10,0:0:0
354,174,173624,1,0,0:0:0
168,287,173866,5,0,0:0:0
286,238,174108,1,10,0:0:0
185,158,174350,1,8,0:0:0
302,108,174592,1,0,0:0:0
302,108,174713,2,0,B|311:26,1,80,4|0,0:0|0:0,0:0:0
388,7,175076,6,0,B|435:4|467:38,1,80,2|8,0:0|0:0,0:0:0
475,192,175560,1,0,0:0:0
475,192,175681,1,0,0:0:0
475,192,175802,2,0,B|355:202,1,120,0|2,0:0|0:0,0:0:0
299,268,176286,2,0,B|325:296|372:293,1,80,8|0,0:0|0:0,0:0:0
359,118,176770,6,0,B|309:74|235:92,1,120,0|2,0:0|0:0,0:0:0
193,149,177253,2,0,B|210:233,1,80,8|0,0:0|0:0,0:0:0
160,291,177616,1,0,0:0:0
160,291,177737,2,0,B|76:285,1,80,0|2,0:0|0:0,0:0:0
232,350,178221,5,8,0:0:0
186,199,178463,1,8,0:0:0
186,199,178584,1,0,0:0:0
186,199,178705,2,0,B|44:191,1,120,4|2,0:0|0:0,0:0:0
10,134,179189,6,0,B|-3:88|28:49,1,80,8|0,0:0|0:0,0:0:0
98,32,179552,1,0,0:0:0
98,32,179673,2,8,B|217:38,2,120,0|10|8,0:0|0:0|0:0,0:0:0
21,57,180520,5,0,0:0:0
10,135,180640,2,0,B|42:158|95:148,1,80,4|2,0:0|0:0,0:0:0
294,53,181124,2,0,B|262:30|209:40,1,80,8|0,0:0|0:0,0:0:0
176,107,181487,5,0,0:0:0
176,107,181608,1,0,0:0:0
206,247,181850,1,8,0:0:0
347,222,182092,1,8,0:0:0
323,79,182334,1,0,0:0:0
323,79,182455,1,0,0:0:0
323,79,182576,2,0,B|234:72,2,80,4|0|8,0:0|0:0|0:0,0:0:0
448,248,183302,5,0,0:0:0
448,248,183423,1,0,0:0:0
448,248,183544,2,0,B|498:174,2,80,0|0|8,0:0|0:0|0:0,0:0:0
253,273,184270,5,0,0:0:0
253,273,184391,1,0,0:0:0
253,273,184512,2,0,B|291:353,2,80,0|0|8,0:0|0:0|0:0,0:0:0
211,168,185237,1,0,0:0:0
211,168,185358,2,0,B|178:91,1,80,8|0,0:0|0:0,0:0:0
152,27,185721,5,0,0:0:0
153,242,185963,1,8,0:0:0
330,140,186205,1,0,0:0:0
290,138,186326,1,0,0:0:0
249,137,186447,2,0,B|154:134,2,80,4|0|8,0:0|0:0|0:0,0:0:0
226,339,187173,5,8,0:0:0
266,337,187294,1,0,0:0:0
307,336,187415,2,0,B|402:333,2,80,0|0|8,0:0|0:0|0:0,0:0:0
92,288,188140,5,0,0:0:0
92,288,188261,1,0,0:0:0
92,288,188382,2,0,B|74:246|97:201,1,80,0|0,0:0|0:0,0:0:0
420,96,188866,2,0,B|438:138|415:183,1,80,8|0,0:0|0:0,0:0:0
350,216,189229,2,0,B|270:209,1,80,8|0,0:0|0:0,0:0:0
190,200,189592,5,0,0:0:0
392,344,189834,1,8,0:0:0
420,96,190076,1,0,0:0:0
420,96,190197,1,0,0:0:0
420,96,190318,2,0,B|374:176,2,80,4|0|8,0:0|0:0|0:0,0:0:0
125,104,191044,5,0,0:0:0
125,104,191165,1,0,0:0:0
125,104,191286,2,0,B|217:103,2,80,0|0|8,0:0|0:0|0:0,0:0:0
267,349,192011,5,0,0:0:0
267,349,192132,1,0,0:0:0
267,349,192253,2,0,B|220:269,2,80,0|0|8,0:0|0:0|0:0,0:0:0
270,172,192979,1,0,0:0:0
307,101,193100,2,0,B|260:21,1,80,8|0,0:0|0:0,0:0:0
181,26,193463,6,0,B|136:24|114:65,1,80,0|8,0:0|0:0,0:0:0
331,358,193947,1,8,0:0:0
331,358,194068,1,0,0:0:0
331,358,194189,2,0,B|376:360|398:319,2,80,4|0|8,0:0|0:0|0:0,0:0:0
253,222,194915,5,8,0:0:0
253,222,195036,1,0,0:0:0
253,222,195157,2,0,B|263:132,2,80,0|0|8,0:0|0:0|0:0,0:0:0
242,333,195882,6,0,B|238:374,2,40,0|0|4,0:0|0:0|0:0,0:0:0
144,215,196366,1,8,0:0:0
258,115,196608,1,0,0:0:0
357,230,196850,1,8,0:0:0
252,222,197092,5,0,0:0:0
252,222,197213,2,0,B|216:197|158:213,1,80,8|8,0:0|0:0,0:0:0
120,283,197576,2,0,B|156:308|214:292,1,80,8|8,0:0|0:0,0:0:0
281,267,197939,1,8,0:0:0
281,267,198060,1,4,0:0:0
256,192,198181,12,4,201931,0:0:0
256,192,213544,85,4,0:0:0
256,192,213665,12,2,215479,0:0:0
59,256,215963,6,0,B|88:251|127:264,1,60.0000022888184,0|2,0:0|0:0,0:0:0
160,244,216326,2,0,B|131:205|151:153,1,90.0000034332277,0|2,0:0|0:0,0:0:0
196,81,216931,2,0,B|221:44|271:47,1,60.0000022888184,0|2,0:0|0:0,0:0:0
196,81,217415,6,0,B|94:76,2,90.0000034332277,0|0|2,0:0|0:0|0:0,0:0:0
320,136,218382,1,0,0:0:0
320,136,218866,2,0,B|265:177,1,60.0000022888184,0|2,0:0|0:0,0:0:0
226,178,219229,2,0,B|260:215|242:276,1,90.0000034332277,0|2,0:0|0:0,0:0:0
304,362,219834,2,0,B|320:324|360:308,1,60.0000022888184,0|2,0:0|0:0,0:0:0
397,269,220197,5,0,0:0:0
397,269,220318,2,0,B|459:313,1,60.0000022888184
304,235,220802,2,0,B|311:159,1,60.0000022888184,0|2,0:0|0:0,0:0:0
316,334,221286,2,0,B|219:350,2,90.0000034332277,0|0|2,0:0|0:0|0:0,0:0:0
396,268,222253,5,0,0:0:0
372,180,222495,1,2,0:0:0
284,176,222737,1,0,0:0:0
252,260,222979,1,0,0:0:0
252,260,223100,2,0,P|200:264|168:244,1,90.0000034332277,0|2,0:0|0:0,0:0:0
328,236,223705,6,0,P|316:156,1,60.0000022888184,0|0,0:0|0:0,0:0:0
344,140,224068,1,0,0:0:0
332,96,224189,2,0,P|304:80|268:92,1,60.0000022888184,0|0,0:0|0:0,0:0:0
248,120,224552,2,0,P|202:130|158:108,1,90.0000034332277,0|0,0:0|0:0,0:0:0
116,260,225157,6,0,P|156:284|208:288,1,90.0000034332277,0|2,0:0|0:0,0:0:0
236,268,225640,2,0,P|240:196,1,60.0000022888184,0|0,0:0|0:0,0:0:0
324,180,226124,5,0,0:0:0
280,336,226366,1,2,0:0:0
327,185,226608,1,0,0:0:0
283,341,226850,1,0,0:0:0
352,280,227092,6,0,P|392:260|440:268,1,90.0000034332277,0|2,0:0|0:0,0:0:0
472,236,227576,2,0,P|464:176,1,60.0000022888184
436,140,227939,1,0,0:0:0
436,140,228060,2,0,P|400:140|372:140,1,60.0000022888184,0|0,0:0|0:0,0:0:0
284,248,228544,2,0,P|320:248|348:248,1,60.0000022888184,0|0,0:0|0:0,0:0:0
288,48,229028,5,8,0:0:0
224,336,229511,1,8,0:0:0
256,192,229753,5,8,0:0:0
256,192,229874,1,0,0:0:0
256,192,229995,2,0,P|212:184|172:192,1,80,0|2,0:0|0:0,0:0:0
152,164,230358,1,0,0:0:0
124,140,230479,2,0,P|68:156|52:224,1,120,8|2,0:0|0:0,0:0:0
24,284,230963,6,0,P|72:292|112:260,1,100,4|2,0:0|0:0,0:0:0
144,104,231447,2,0,P|248:112,1,100,8|0,0:0|0:0,0:0:0
320,100,231810,6,0,P|302:54|255:35,1,100,0|2,0:0|0:0,0:0:0
184,28,232173,2,0,P|84:20,2,100,0|8|0,0:0|0:0|0:0,0:0:0
192,208,232899,2,0,P|252:240|336:216,1,150,0|2,0:0|0:0,0:0:0
384,172,233382,2,0,P|400:124|380:72,1,100,8|0,0:0|0:0,0:0:0
384,172,233866,5,0,0:0:0
240,304,234108,1,2,0:0:0
204,116,234350,1,8,0:0:0
272,204,234592,1,0,0:0:0
272,204,234713,2,0,P|164:200,1,100,0|0,0:0|0:0,0:0:0
116,148,235076,6,0,P|104:100|144:56,1,100,2|8,0:0|0:0,0:0:0
241,247,235560,1,0,0:0:0
241,247,235681,1,0,0:0:0
241,247,235802,2,0,P|253:295|213:339,1,100,2|0,0:0|0:0,0:0:0
150,343,236165,1,0,0:0:0
150,343,236286,2,0,P|36:336,1,100,8|0,0:0|0:0,0:0:0
160,252,236770,5,0,0:0:0
373,107,237132,1,10,0:0:0
398,361,237495,1,8,0:0:0
308,239,237737,5,8,0:0:0
225,167,237979,1,2,0:0:0
238,326,238221,1,8,0:0:0
160,252,238463,1,0,0:0:0
160,252,238584,2,0,P|268:244,1,100,0|0,0:0|0:0,0:0:0
329,274,238947,6,0,P|356:233|344:175,1,100,2|8,0:0|0:0,0:0:0
252,69,239431,1,0,0:0:0
252,69,239552,1,0,0:0:0
252,69,239673,2,0,P|202:66|158:105,1,100,0|2,0:0|0:0,0:0:0
189,302,240157,2,0,P|144:283|122:240,1,100,8|0,0:0|0:0,0:0:0
171,176,240520,5,0,0:0:0
171,176,240640,2,0,P|326:194,1,150,0|2,0:0|0:0,0:0:0
373,254,241124,2,0,P|400:213|388:155,1,100,8|2,0:0|0:0,0:0:0
368,132,241487,1,0,0:0:0
331,114,241608,2,0,P|281:111|237:150,1,100,0|2,0:0|0:0,0:0:0
312,351,242092,2,0,P|361:353|405:314,1,100,8|10,0:0|0:0,0:0:0
406,247,242455,5,0,0:0:0
406,247,242576,2,0,P|408:134,1,100,4|2,0:0|0:0,0:0:0
144,49,243060,2,0,P|142:162,1,100,8|2,0:0|0:0,0:0:0
101,234,243423,1,0,0:0:0
100,233,243544,2,0,P|62:209|51:156,1,100,0|2,0:0|0:0,0:0:0
261,23,244028,2,0,P|299:47|310:100,1,100,8|0,0:0|0:0,0:0:0
245,152,244390,5,0,0:0:0
245,152,244511,2,0,P|233:266,1,100,12|2,0:0|0:0,0:0:0
366,360,244995,2,0,P|470:313,1,100,8|2,0:0|0:0,0:0:0
479,150,245479,2,0,P|386:82,1,100,8|10,0:0|0:0,0:0:0
381,279,245963,5,8,0:0:0
352,259,246084,1,0,0:0:0
323,238,246205,1,2,0:0:0
295,216,246326,1,8,0:0:0
266,195,246447,6,0,P|248:241|258:297,1,100,12|2,0:0|0:0,0:0:0
474,354,246931,2,0,P|492:308|482:252,1,100,8|2,0:0|0:0,0:0:0
149,287,247415,6,0,P|163:334|205:372,1,100,12|2,0:0|0:0,0:0:0
378,198,247899,1,8,0:0:0
369,159,248020,1,2,0:0:0
345,126,248140,1,2,0:0:0
310,106,248261,1,0,0:0:0
268,101,248382,6,0,P|262:228,1,120,4|8,1:0|2:0,0:0:0
233,254,248866,2,0,P|190:254|155:237,1,80,2|2,2:0|0:0,0:0:0
148,150,249350,1,0,0:0:0
167,333,249592,2,0,P|173:374,2,40,0|0|0,0:0|0:0|1:0,0:0:0
64,209,250076,1,0,0:0:0
233,180,250318,6,0,P|250:215|252:265,1,80,4|2,0:0|0:0,0:0:0
300,330,250802,2,0,P|389:334,1,80,0|0,1:0|0:0,0:0:0
176,256,251286,2,0,P|52:250,2,120,0|2|0,0:0|0:0|0:0,0:0:0
251,210,252253,6,4,P|258:83,1,120,4|0,0:0|0:0,0:0:0
305,29,252737,2,0,P|340:56|343:105,1,80,0|8,1:0|0:0,0:0:0
262,310,253221,2,0,P|227:283|224:234,1,80,8|8,0:0|0:0,0:0:0
251,210,253584,1,0,0:0:0
290,182,253705,2,0,P|377:188,1,80,0|0,1:0|0:0,0:0:0
429,235,254068,5,0,0:0:0
429,235,254189,2,0,P|445:180|424:114,1,120,4|0,0:0|0:0,0:0:0
378,67,254673,2,0,P|338:47|300:52,1,80,0|2,1:0|0:0,0:0:0
112,324,255157,2,0,P|164:345|232:331,1,120,0|0,0:0|0:0,0:0:0
292,300,255641,2,0,P|315:262|314:224,1,80,0|2,1:0|0:0,0:0:0
143,204,256124,5,0,1:0:0
352,356,256366,2,0,P|398:294|395:211,1,160,0|8,1:0|0:0,0:0:0
201,112,257092,1,8,0:0:0
256,176,257334,1,8,0:0:0
256,176,257455,1,0,0:0:0
256,176,257576,2,0,P|247:260,1,80,8|0,1:2|0:0,0:0:0
173,349,258060,6,0,P|134:354|90:337,1,80,4|2,0:0|0:0,0:0:0
340,244,258544,2,0,P|379:239|423:256,1,80,0|0,1:0|0:0,0:0:0
256,176,259028,2,0,P|238:50,2,120,0|2|0,0:0|0:0|0:0,0:0:0
256,176,259995,6,0,P|274:296,1,120,4|0,0:0|0:0,0:0:0
222,368,260479,2,0,P|191:342|183:305,1,80,0|8,1:0|0:0,0:0:0
368,57,260963,2,0,P|399:83|407:120,1,80,8|8,0:0|0:0,0:0:0
393,166,261326,1,0,0:0:0
358,198,261447,2,0,P|319:211|283:200,1,80,8|0,1:2|0:0,0:0:0
238,143,261810,5,0,1:0:0
238,143,261931,2,0,P|115:148,1,120,4|0,0:0|0:0,0:0:0
62,221,262415,2,0,P|94:242|143:241,1,80,0|2,1:0|0:0,0:0:0
216,65,262899,5,0,0:0:0
359,271,263261,1,2,0:0:0
130,297,263624,1,2,0:0:0
130,297,263745,1,0,0:0:0
130,297,263866,2,0,P|197:249,1,80,4|0,1:0|0:0,0:0:0
228,30,264350,2,0,P|236:112,1,80,0|2,1:0|0:1,0:0:0
409,248,264834,2,0,P|334:214,1,80,2|2,0:1|0:1,0:0:0
256,192,265318,5,0,1:0:0
256,192,265439,1,0,0:0:0
256,192,265560,1,8,0:0:0
256,192,265681,1,0,0:0:0
256,192,265802,1,4,0:0:0
256,192,265923,12,0,270640,0:0:0
