osu file format v12

[General]
AudioFilename: wa.mp3
AudioLeadIn: 0
PreviewTime: 73886
Countdown: 0
SampleSet: Normal
StackLeniency: 0.7
Mode: 0
LetterboxInBreaks: 1

[Editor]
Bookmarks: 3150,108781,174939,185044,205255,215360,225465,230518
DistanceSpacing: 1
BeatDivisor: 4
GridSize: 4

[Metadata]
Title:Renai Yuusha
TitleUnicode:恋愛勇者
Artist:Last Note.
ArtistUnicode:Last Note.
Creator:Amamiya Yuko
Version:Normal
Source:
Tags:Megpoid GUMI alacat Skystar Twice Vocaloid Vocaloid2 Romantic Hero
BeatmapID:191991
BeatmapSetID:64834

[Difficulty]
HPDrainRate:3
CircleSize:3
OverallDifficulty:3
ApproachRate:4
SliderMultiplier:0.799999999999999
SliderTickRate:1

[Events]
//Background and Video events
0,0,"BG2.jpg",0,0
Video,0,"PV.flv"
//Break Periods
2,99350,107935
2,165034,173619
//Storyboard Layer 0 (Background)
//Storyboard Layer 1 (Fail)
//Storyboard Layer 2 (Pass)
//Storyboard Layer 3 (Foreground)
//Storyboard Sound Samples
//Background Colour Transformations
3,100,163,162,255

[TimingPoints]
3150,315.789473684211,4,1,1,60,1,0
3465,-100,4,2,0,20,0,0
3544,-100,4,1,1,60,0,0
3781,-100,4,2,0,20,0,0
3860,-100,4,1,1,60,0,0
4413,-100,4,2,0,20,0,0
4492,-100,4,1,1,60,0,0
5992,-100,4,2,0,20,0,0
6071,-100,4,1,1,60,0,0
6308,-100,4,2,0,20,0,0
6387,-100,4,1,1,60,0,0
6940,-100,4,2,0,20,0,0
7019,-100,4,1,1,60,0,0
8518,-100,4,2,0,20,0,0
8597,-100,4,1,1,60,0,0
9465,-100,4,2,0,20,0,0
9544,-100,4,1,1,60,0,0
11044,-100,4,2,0,20,0,0
11123,-100,4,1,1,60,0,0
11360,-100,4,2,0,20,0,0
11439,-100,4,1,1,60,0,0
11992,-100,4,2,0,20,0,0
12071,-100,4,1,1,60,0,0
13255,-100,4,1,2,70,0,0
14202,-100,4,3,1,60,0,0
14281,-100,4,1,2,70,0,0
15465,-100,4,3,1,60,0,0
15544,-100,4,1,2,70,0,0
16728,-100,4,3,1,60,0,0
16807,-100,4,1,2,70,0,0
19255,-100,4,3,1,60,0,0
19334,-100,4,1,2,70,0,0
20518,-100,4,3,1,60,0,0
20597,-100,4,1,2,70,0,0
21781,-100,4,3,1,60,0,0
21860,-100,4,1,2,70,0,0
22728,-100,4,1,2,80,0,0
22965,-100,4,1,2,60,0,0
23202,-100,4,1,2,65,0,0
23360,-100,4,1,2,70,0,0
24307,-100,4,3,1,60,0,0
24386,-100,4,1,2,70,0,0
25570,-100,4,3,1,60,0,0
25649,-100,4,1,2,70,0,0
26833,-100,4,3,1,60,0,0
26912,-100,4,1,2,70,0,0
29360,-100,4,3,1,60,0,0
29439,-100,4,1,2,70,0,0
30623,-100,4,3,1,60,0,0
30702,-100,4,1,2,70,0,0
31886,-100,4,3,1,60,0,0
31965,-100,4,1,2,70,0,0
33465,-100,4,2,2,70,0,0
33544,-100,4,2,1,50,0,0
35992,-100,4,2,2,60,0,0
36150,-100,4,2,1,50,0,0
38518,-100,4,2,2,60,0,0
38676,-100,4,2,1,50,0,0
41044,-100,4,2,2,70,0,0
41202,-100,4,2,1,50,0,0
43571,-100,4,1,2,70,0,0
43728,-100,4,1,2,60,0,0
53676,-125,4,1,2,80,0,0
54307,-125,4,1,1,60,0,0
54939,-125,4,1,2,80,0,0
55571,-125,4,1,1,60,0,0
56202,-125,4,1,2,80,0,0
56834,-125,4,1,1,60,0,0
57465,-125,4,1,2,80,0,0
58097,-125,4,1,1,60,0,0
58728,-125,4,1,2,80,0,0
59360,-125,4,1,1,60,0,0
59991,-125,4,1,2,80,0,0
60623,-125,4,1,1,60,0,0
61254,-125,4,1,2,80,0,0
61886,-125,4,1,1,60,0,0
62517,-125,4,1,2,80,0,0
63149,-125,4,1,1,60,0,0
63465,-100,4,1,1,50,0,0
63781,-100,4,1,2,60,0,0
64097,-100,4,1,1,50,0,0
64728,-100,4,1,1,50,0,0
72623,-100,4,1,2,80,0,0
72939,-100,4,1,2,90,0,0
73255,-100,4,1,2,100,0,0
73571,-200,4,1,1,60,0,0
73886,-100,4,1,1,60,0,1
81465,-100,4,1,2,70,0,1
81623,-100,4,2,0,20,0,1
81939,-100,4,1,2,70,0,1
82097,-100,4,2,0,20,0,1
82413,-100,4,1,2,70,0,1
83913,-100,4,1,2,60,0,0
83992,-100,4,1,1,60,0,1
91571,-100,4,1,1,70,0,1
91728,-100,4,2,0,20,0,1
92044,-100,4,1,1,70,0,1
92202,-100,4,2,0,20,0,1
92518,-100,4,1,1,70,0,1
93150,-100,4,1,1,60,0,1
93307,-100,4,1,2,60,0,1
94097,-100,4,1,2,60,0,0
94728,-100,4,2,1,60,0,0
94807,-100,4,1,2,60,0,0
95360,-100,4,2,1,60,0,0
95439,-100,4,1,2,60,0,0
97571,-100,4,3,1,60,0,0
97728,-100,4,1,2,70,0,0
99150,-100,4,1,2,70,0,0
109255,-100,4,1,2,60,0,0
110834,-100,4,3,1,60,0,0
110913,-100,4,1,2,60,0,0
113360,-100,4,3,1,60,0,0
113439,-100,4,1,2,60,0,0
114623,-100,4,3,1,60,0,0
114702,-100,4,1,2,60,0,0
115886,-100,4,3,1,60,0,0
115965,-100,4,1,2,60,0,0
119360,-125,4,1,2,80,0,0
119991,-125,4,1,1,60,0,0
120623,-125,4,1,2,80,0,0
121255,-125,4,1,1,60,0,0
121886,-125,4,1,2,80,0,0
122518,-125,4,1,1,60,0,0
122834,-125,4,1,2,80,0,0
123781,-125,4,1,1,60,0,0
124412,-125,4,1,2,80,0,0
125044,-125,4,1,1,60,0,0
125675,-125,4,1,2,80,0,0
126307,-125,4,1,1,60,0,0
126938,-125,4,1,2,80,0,0
127570,-125,4,1,1,60,0,0
128201,-125,4,1,2,80,0,0
128833,-125,4,1,1,60,0,0
129465,-100,4,1,2,60,0,0
129781,-100,4,1,1,50,0,0
130097,-100,4,1,2,60,0,0
130412,-100,4,1,1,50,0,0
130728,-100,4,1,2,60,0,0
131044,-100,4,1,1,50,0,0
131360,-100,4,1,2,60,0,0
131676,-100,4,1,1,50,0,0
131991,-100,4,1,2,60,0,0
132307,-100,4,1,1,50,0,0
132623,-100,4,1,2,60,0,0
132939,-100,4,1,1,50,0,0
133255,-100,4,1,2,60,0,0
133570,-100,4,1,1,50,0,0
133886,-100,4,1,2,60,0,0
134202,-100,4,1,1,50,0,0
134518,-100,4,1,2,70,0,0
134834,-100,4,1,1,50,0,0
135149,-100,4,1,2,60,0,0
135465,-100,4,1,1,50,0,0
135781,-100,4,1,2,60,0,0
136097,-100,4,1,1,50,0,0
136412,-100,4,1,2,60,0,0
136728,-100,4,1,1,50,0,0
137044,-100,4,1,2,60,0,0
137360,-100,4,1,1,50,0,0
137676,-100,4,1,2,60,0,0
137991,-100,4,1,1,50,0,0
138307,-100,4,1,2,80,0,0
138623,-100,4,1,2,90,0,0
138939,-200,4,1,2,100,0,0
139571,-100,4,1,1,60,0,1
147149,-100,4,1,2,70,0,1
148255,-100,4,1,2,60,0,1
148728,-100,4,1,1,60,0,1
148886,-100,4,1,2,60,0,1
149597,-100,4,1,2,55,0,0
149676,-100,4,1,1,60,0,1
157255,-100,4,1,2,70,0,1
157412,-100,4,2,0,20,0,1
157728,-100,4,1,2,70,0,1
157886,-100,4,2,0,20,0,1
158202,-100,4,1,2,70,0,1
158834,-100,4,1,1,60,0,1
158991,-100,4,1,2,60,0,1
159781,-100,4,1,2,60,0,0
164834,-100,4,1,2,70,0,0
174939,-100,4,1,2,50,0,0
175255,-100,4,1,1,60,0,0
177150,-100,4,1,2,50,0,0
177781,-100,4,1,1,60,0,0
178413,-100,4,1,2,60,0,0
179044,-100,4,1,1,60,0,0
179676,-100,4,1,2,50,0,0
179992,-100,4,1,2,60,0,0
180307,-100,4,1,1,60,0,0
180939,-100,4,1,2,60,0,0
181571,-100,4,1,1,60,0,0
182202,-100,4,1,2,60,0,0
182834,-100,4,1,1,60,0,0
183465,-100,4,1,2,60,0,0
185676,-100,4,2,1,60,0,0
185755,-100,4,1,2,60,0,0
186307,-100,4,2,1,60,0,0
186386,-100,4,1,2,60,0,0
187571,-100,4,1,2,70,0,0
187886,-100,4,3,1,60,0,0
187965,-100,4,1,2,60,0,0
189150,-100,4,3,1,60,0,0
189228,-100,4,1,2,60,0,0
189781,-100,4,3,1,60,0,0
189860,-100,4,1,2,60,0,0
190097,-100,4,1,2,70,0,0
190255,-100,4,1,2,60,0,0
192623,-100,4,1,2,70,0,0
192939,-100,4,3,1,60,0,0
193018,-100,4,1,2,60,0,0
193571,-100,4,3,1,60,0,0
193650,-100,4,1,2,60,0,0
195150,-100,4,1,2,70,0,0
195307,-100,4,3,1,60,0,0
195544,-100,4,1,2,60,0,0
197676,-100,4,1,2,70,0,0
197992,-100,4,3,1,60,0,0
198071,-100,4,1,2,60,0,0
200202,-100,4,1,2,70,0,0
200518,-100,4,3,1,60,0,0
200597,-100,4,1,2,60,0,0
201150,-100,4,3,1,60,0,0
201228,-100,4,1,2,60,0,0
202728,-100,4,1,2,70,0,0
203044,-100,4,3,1,60,0,0
203123,-100,4,1,2,60,0,0
203992,-100,4,1,2,70,0,0
204939,-200,4,1,1,60,0,0
205255,-100,4,1,2,70,0,0
207465,-100,4,1,1,55,0,0
207781,-100,4,1,2,70,0,0
210307,-100,4,1,1,60,0,1
212834,-100,4,1,2,70,0,1
213150,-100,4,2,0,20,0,1
213307,-100,4,1,2,70,0,1
213465,-100,4,2,0,20,0,1
213781,-100,4,1,2,70,0,1
214413,-100,4,1,1,60,0,1
214728,-100,4,1,2,60,0,1
215281,-100,4,1,2,60,0,0
215360,-100,4,1,1,60,0,1
222939,-100,4,1,2,70,0,1
223097,-100,4,2,0,20,0,1
223413,-100,4,1,2,70,0,1
223571,-100,4,2,0,20,0,1
223886,-100,4,1,2,70,0,1
224518,-100,4,1,1,60,0,1
224834,-100,4,1,2,60,0,1
225465,-100,4,1,2,60,0,0
226097,-100,4,2,1,60,0,0
226176,-100,4,1,2,60,0,0
228939,-100,4,3,1,60,0,0
229018,-100,4,1,2,60,0,0
229571,-100,4,1,2,65,0,0
229886,-100,4,1,2,70,0,0
230202,-100,4,1,2,75,0,0
230518,-100,4,1,2,80,0,1
230597,-100,4,1,2,60,0,0
230834,-100,4,3,1,60,0,0
230913,-100,4,1,2,60,0,0
232097,-100,4,3,1,60,0,0
232176,-100,4,1,2,60,0,0
233360,-100,4,3,1,60,0,0
233439,-100,4,1,2,60,0,0
233676,-100,4,1,2,80,0,1
233992,-100,4,1,2,60,0,0
235571,-100,4,1,2,100,0,1
235650,-100,4,1,2,100,0,0

[Colours]
Combo1 : 255,255,255
Combo2 : 128,255,0
Combo3 : 128,255,255
Combo4 : 128,128,255
Combo5 : 168,37,218
Combo6 : 0,128,255

[HitObjects]
56,148,3150,2,0,P|112:160|172:136,3,120,0|0|0|0,0:0|0:0|0:0|0:0,0:0:0:0:
268,72,5044,2,0,L|312:140,1,79.9999999999999
388,156,5676,6,0,P|352:208|288:216,3,120
180,244,7571,2,0,L|96:244,1,79.9999999999999
76,168,8202,6,0,L|200:168,1,120
288,92,9150,2,0,L|168:92,1,120
76,168,10097,2,0,L|128:236,1,79.9999999999999
100,308,10728,6,0,P|160:304|200:260,3,120
188,144,12623,2,0,P|224:164|264:168,1,79.9999999999999
252,88,13255,6,0,L|340:88,1,79.9999999999999,2|8,0:0|0:0,0:0:0:0:
384,24,13886,2,0,B|416:56|412:100|412:100|448:132,1,120,2|6,0:0|0:0,0:0:0:0:
340,192,14834,1,8,0:0:0:0:
288,256,15150,2,0,B|256:224|260:180|260:180|224:148,1,120,2|2,0:0|0:0,0:0:0:0:
332,88,16098,5,8,0:0:0:0:
404,52,16413,2,0,P|408:112|368:160,1,120,2|4,0:0|0:0,0:0:0:0:
256,188,17360,2,0,L|176:200,2,79.9999999999999,8|2|8,0:0|0:0|0:0,0:0:0:0:
276,264,18307,6,0,L|196:276,1,79.9999999999999,2|8,0:0|0:0,0:0:0:0:
148,340,18939,2,0,B|112:312|116:264|116:264|104:252|84:248,2,120,2|6|8,0:0|0:0|0:0,0:0:0:0:
196,276,20202,2,0,B|232:304|228:352|228:352|240:364|260:368,2,120,2|6|8,0:0|0:0|0:0,0:0:0:0:
152,208,21465,2,0,P|212:196|264:232,2,120,2|6|8,0:0|0:0|0:0,0:0:0:0:
104,144,22728,6,0,L|104:80,2,59.9999999999999,2|8|10,0:0|0:0|0:0,0:0:0:0:
56,256,23676,5,8,0:0:0:0:
132,228,23992,2,0,B|152:216|176:212|176:212|192:244|240:252,2,120,2|6|8,0:0|0:0|0:0,0:0:0:0:
92,160,25255,2,0,P|152:136|212:132,2,120,2|2|8,0:0|0:0|0:0,0:0:0:0:
40,96,26518,2,0,P|92:68|152:52,1,120,2|6,0:0|0:0,0:0:0:0:
272,64,27465,2,0,L|348:88,2,79.9999999999999,8|2|8,0:0|0:0|0:0,0:0:0:0:
192,52,28413,6,0,P|196:96|216:124,1,79.9999999999999,2|8,0:0|0:0,0:0:0:0:
288,160,29044,2,0,P|244:200|176:196,2,120,2|6|8,0:0|0:0|0:0,0:0:0:0:
336,96,30307,2,0,P|368:144|352:208,1,120,2|2,0:0|0:0,0:0:0:0:
256,272,31255,5,8,0:0:0:0:
256,272,31571,2,0,L|384:288,2,120,2|6|8,0:0|0:0|0:0,0:0:0:0:
184,312,32834,2,0,P|144:312|106:285,2,79.9999999999999,10|10|6,0:0|0:0|0:0,0:0:0:0:
168,232,33781,6,0,L|232:80,2,160,8|8|8,0:0|0:0|0:0,0:0:0:0:
107,287,35360,2,0,P|136:308|180:312,1,79.9999999999999,2|8,0:0|0:0,0:0:0:0:
244,264,35992,1,6,0:0:0:0:
300,208,36307,6,0,P|372:176|448:204,2,160,8|8|8,0:0|0:0|0:0,0:0:0:0:
240,156,37886,2,0,P|272:128|304:108,1,79.9999999999999,2|8,0:0|0:0,0:0:0:0:
364,56,38518,1,6,0:0:0:0:
288,28,38834,6,0,P|216:72|160:124,2,160,8|8|8,0:0|0:0|0:0,0:0:0:0:
368,40,40413,2,0,P|408:44|448:40,2,79.9999999999999,2|8|6,0:0|0:0|0:0,0:0:0:0:
288,28,41360,2,0,P|304:96|384:124,2,160,8|8|8,0:0|0:0|0:0,0:0:0:0:
208,36,42939,1,2,0:0:0:0:
144,80,43255,1,8,0:0:0:0:
96,144,43571,6,0,L|80:224,1,79.9999999999999,4|8,0:0|0:0,0:0:0:0:
52,296,44202,2,0,L|104:356,1,79.9999999999999,2|8,0:0|0:0,0:0:0:0:
184,356,44834,2,0,P|224:340|264:344,3,79.9999999999999,2|8|2|8,0:0|0:0|0:0|0:0,0:0:0:0:
340,348,46097,1,4,0:0:0:0:
420,344,46413,6,0,P|456:272|468:192,2,160,8|8|8,0:0|0:0|0:0,0:0:0:0:
368,280,47992,2,0,P|384:240|392:200,1,79.9999999999999,2|8,0:0|0:0,0:0:0:0:
400,124,48623,1,4,0:0:0:0:
368,52,48939,6,0,P|288:64|204:64,2,160,8|8|8,0:0|0:0|0:0,0:0:0:0:
432,0,50518,2,0,P|448:40|448:76,1,79.9999999999999,2|8,0:0|0:0,0:0:0:0:
388,132,51150,2,0,L|324:192,1,79.9999999999999,4|8,0:0|0:0,0:0:0:0:
264,232,51781,2,0,P|224:228|180:236,2,79.9999999999999,2|8|2,0:0|0:0|0:0,0:0:0:0:
400,316,53044,2,0,L|320:316,1,79.9999999999999,8|8,0:0|0:0,0:0:0:0:
256,316,53676,6,0,L|128:336,1,128,2|4,0:0|0:0,0:0:0:0:
56,232,54939,2,0,P|116:216|144:160,1,128,2|4,0:0|0:0,0:0:0:0:
216,56,56202,2,0,P|264:100|268:164,1,128,2|4,0:0|0:0,0:0:0:0:
260,288,57465,2,0,P|327:280|372:244,1,128,2|4,0:0|0:0,0:0:0:0:
420,124,58728,6,0,P|364:96|300:108,1,128,2|4,0:0|0:0,0:0:0:0:
184,160,59992,2,0,P|212:104|196:44,1,128,2|4,0:0|0:0,0:0:0:0:
96,124,61255,2,0,L|176:224,1,128,2|4,0:0|0:0,0:0:0:0:
304,224,62518,2,0,L|224:324,1,128,2|4,0:0|0:0,0:0:0:0:
144,336,63465,1,8,0:0:0:0:
64,320,63781,6,0,P|56:280|40:240,1,79.9999999999999,4|8,0:0|0:0,0:0:0:0:
100,96,64728,1,8,0:0:0:0:
220,200,65360,2,0,L|264:204,1,40,8|0,0:0|0:0,0:0:0:0:
356,132,65992,2,0,L|400:136,1,40,8|0,0:0|0:0,0:0:0:0:
472,228,66623,6,0,L|476:184,1,40,8|0,0:0|0:0,0:0:0:0:
396,280,67255,1,8,0:0:0:0:
260,368,67886,2,0,L|292:344,1,40,8|0,0:0|0:0,0:0:0:0:
288,224,68518,2,0,L|268:180,1,40,8|0,0:0|0:0,0:0:0:0:
244,72,69150,6,0,L|196:72,1,40,8|0,0:0|0:0,0:0:0:0:
92,112,69781,1,8,0:0:0:0:
60,268,70413,2,0,L|56:224,1,40,8|0,0:0|0:0,0:0:0:0:
168,272,71044,2,0,L|171:311,1,40,8|0,0:0|0:0,0:0:0:0:
272,244,71676,6,0,L|268:200,1,40,8|0,0:0|0:0,0:0:0:0:
332,100,72307,1,8,0:0:0:0:
408,128,72623,2,0,P|448:148|488:156,2,79.9999999999999,2|2|0,0:0|0:0|0:0,0:0:0:0:
332,100,73571,1,0,0:0:0:0:
252,96,73886,6,0,P|208:100|168:96,1,79.9999999999999,4|0,0:0|0:0,0:0:0:0:
100,60,74518,2,0,P|92:100|104:144,1,79.9999999999999
168,180,75150,2,0,P|100:216|32:180,2,160,0|0|4,0:0|0:0|0:0,0:0:0:0:
236,136,76728,2,0,P|248:180|236:220,2,79.9999999999999
192,68,77676,2,0,B|240:44|284:72|284:72|332:72|356:52,1,160
400,120,78623,1,0,0:0:0:0:
424,196,78939,6,0,P|432:236|436:280,3,79.9999999999999,4|0|0|0,0:0|0:0|0:0|0:0,0:0:0:0:
500,328,80202,2,0,P|427:355|364:312,1,160
324,240,81150,1,0,0:0:0:0:
304,164,81465,6,0,B|300:116|300:116|332:100|348:60,2,120,14|14|14,0:0|0:0|0:0,0:0:0:0:
144,172,83044,1,8,0:0:0:0:
208,220,83360,2,0,P|236:248|276:260,1,79.9999999999999,2|10,0:0|0:0,0:0:0:0:
356,260,83992,6,0,L|440:236,1,79.9999999999999,4|0,0:0|0:0,0:0:0:0:
468,312,84623,2,0,L|391:333,1,79.9999999999999
312,332,85255,2,0,P|272:256|312:188,2,160,0|0|4,0:0|0:0|0:0,0:0:0:0:
392,328,86834,2,0,L|432:256,1,79.9999999999999
472,188,87465,5,0,0:0:0:0:
476,108,87781,2,0,B|432:100|432:100|384:140|324:128,1,160
248,104,88728,1,0,0:0:0:0:
180,64,89044,6,0,P|152:89|112:108,3,79.9999999999999,4|0|0|0,0:0|0:0|0:0|0:0,0:0:0:0:
48,152,90307,2,0,L|32:320,1,160
104,348,91255,1,0,0:0:0:0:
184,332,91571,2,0,P|240:324|304:344,2,120,14|14|14,0:0|0:0|0:0,0:0:0:0:
184,332,93150,2,0,L|216:256,2,79.9999999999999,8|2|10,0:0|0:0|0:0,0:0:0:0:
104,344,94097,5,2,0:0:0:0:
124,268,94413,2,0,P|136:188|68:136,2,160,8|8|8,0:0|0:0|0:0,0:0:0:0:
200,296,95992,2,0,L|280:268,1,79.9999999999999,2|8,0:0|0:0,0:0:0:0:
352,292,96623,2,0,L|432:264,1,79.9999999999999,2|8,0:0|0:0,0:0:0:0:
416,184,97255,2,0,L|496:156,1,79.9999999999999,2|8,0:0|0:0,0:0:0:0:
256,192,97728,12,4,99150,0:0:0:0:
360,144,109255,6,0,L|360:64,2,79.9999999999999,2|8|2,0:0|0:0|0:0,0:0:0:0:
360,224,110202,1,8,0:0:0:0:
360,304,110518,2,0,P|288:344|216:328,1,160,2|2,0:0|0:0,0:0:0:0:
88,232,111781,6,0,L|88:152,2,79.9999999999999,6|8|2,0:0|0:0|0:0,0:0:0:0:
160,272,112728,1,8,0:0:0:0:
232,240,113044,2,0,P|288:216|344:232,2,120,2|2|8,0:0|0:0|0:0,0:0:0:0:
160,272,114307,6,0,L|112:120,1,160,6|2,0:0|0:0,0:0:0:0:
168,64,115255,1,8,0:0:0:0:
168,64,115571,2,0,P|248:96|320:64,1,160,2|2,0:0|0:0,0:0:0:0:
392,64,116518,1,8,0:0:0:0:
464,104,116834,2,0,L|496:136,2,40,6|0|8,0:0|0:0|0:0,0:0:0:0:
392,144,117465,2,0,L|392:224,1,79.9999999999999,2|8,0:0|0:0,0:0:0:0:
392,304,118097,6,0,L|352:328,1,40,2|8,0:0|0:0,0:0:0:0:
280,328,118571,2,0,L|240:304,1,40,2|8,0:0|0:0,0:0:0:0:
176,264,119044,1,8,0:0:0:0:
176,264,119360,6,0,B|144:240|136:200|136:200|88:176,1,128,2|4,0:0|0:0,0:0:0:0:
216,144,120623,2,0,B|248:120|256:80|256:80|304:56,1,128,2|4,0:0|0:0,0:0:0:0:
328,184,121886,2,0,B|360:208|368:248|368:248|416:272,2,128,2|4|2,0:0|0:0|0:0,0:0:0:0:
280,136,123465,2,0,L|224:88,2,63.9999999999999,0|4|0,0:0|0:0|0:0,0:0:0:0:
288,200,124413,6,0,B|256:256|208:272|208:272|192:296,1,128,2|4,0:0|0:0,0:0:0:0:
184,160,125676,2,0,B|174:145|174:145|126:129|94:73,1,128,2|4,0:0|0:0,0:0:0:0:
40,192,126939,2,0,B|49:206|49:206|97:222|129:278,1,128,2|4,0:0|0:0,0:0:0:0:
240,336,128202,2,0,P|280:288|352:288,1,128,2|4,0:0|0:0,0:0:0:0:
424,296,129150,1,8,0:0:0:0:
472,232,129465,6,0,P|416:176|432:104,1,160
368,56,130413,1,0,0:0:0:0:
288,56,130728,2,0,L|224:112,1,79.9999999999999
144,104,131360,2,0,L|83:51,1,79.9999999999999
40,120,131992,6,0,L|56:288,1,160
112,336,132939,1,0,0:0:0:0:
184,296,133255,2,0,L|208:216,1,79.9999999999999
128,200,133886,2,0,L|152:120,1,79.9999999999999
224,88,134518,6,0,P|296:128|376:112,2,160
144,96,136097,1,0,0:0:0:0:
80,144,136413,1,0,0:0:0:0:
48,216,136728,1,0,0:0:0:0:
56,296,137044,6,0,P|120:344|200:328,1,160
256,280,137992,1,0,0:0:0:0:
320,328,138307,2,0,L|400:328,2,79.9999999999999
304,168,139571,6,0,P|256:112|304:56,1,160,4|0,0:0|0:0,0:0:0:0:
384,48,140518,1,0,0:0:0:0:
464,56,140834,2,0,L|488:144,1,79.9999999999999
424,184,141465,2,0,L|448:272,1,79.9999999999999
408,336,142097,6,0,B|352:336|352:336|328:328|328:328|304:336|304:336|248:336,1,160,4|0,0:0|0:0,0:0:0:0:
168,336,143044,1,0,0:0:0:0:
88,336,143360,2,0,L|32:280,1,79.9999999999999
24,200,143992,2,0,L|80:144,1,79.9999999999999
160,128,144623,6,0,P|256:216|344:176,1,240,4|0,0:0|0:0,0:0:0:0:
360,96,145886,2,0,P|320:216|400:232,1,240
424,152,147150,5,14,0:0:0:0:
480,256,147623,1,14,0:0:0:0:
392,336,148097,2,0,L|344:336,1,40,14|0,0:0|0:0,0:0:0:0:
296,280,148571,2,0,L|248:280,1,40,2|8,0:0|0:0,0:0:0:0:
200,216,149044,2,0,L|112:216,1,79.9999999999999,10|8,0:0|0:0,0:0:0:0:
40,216,149676,6,0,P|40:136|88:72,1,160,4|0,0:0|0:0,0:0:0:0:
160,48,150623,1,0,0:0:0:0:
240,64,150939,2,0,P|285:126|285:206,1,160
264,280,151886,1,0,0:0:0:0:
336,320,152202,6,0,B|376:328|376:328|416:320,2,79.9999999999999,4|0|0,0:0|0:0|0:0,0:0:0:0:
264,280,153150,1,0,0:0:0:0:
192,320,153465,2,0,L|104:336,1,79.9999999999999
56,280,154097,2,0,L|16:200,1,79.9999999999999
48,136,154728,6,0,B|128:160|160:144|160:144|208:168,1,160,4|0,0:0|0:0,0:0:0:0:
256,224,155676,1,0,0:0:0:0:
311,164,155992,2,0,B|352:144|352:144|384:160|464:136,1,160
448,56,156939,1,0,0:0:0:0:
368,72,157255,6,0,L|344:192,2,120,14|14|14,0:0|0:0|0:0,0:0:0:0:
336,232,158834,2,0,B|336:272|336:272|312:312,1,79.9999999999999,8|10,0:0|0:0,0:0:0:0:
240,328,159465,1,8,0:0:0:0:
176,280,159781,6,0,P|112:232|32:232,1,160,6|2,0:0|0:0,0:0:0:0:
184,176,161044,2,0,P|248:128|328:128,1,160,2|0,0:0|0:0,0:0:0:0:
408,264,162307,2,0,P|344:312|264:312,1,160,2|0,0:0|0:0,0:0:0:0:
256,192,163413,12,4,164834,0:0:0:0:
96,136,174939,6,0,P|136:128|176:136,3,79.9999999999999,0|12|12|12,0:0|0:0|0:0|0:0,0:0:0:0:
312,216,176518,2,0,P|272:224|232:216,2,79.9999999999999,12|12|8,0:0|0:0|0:0,0:0:0:0:
440,120,177781,6,0,L|440:208,2,79.9999999999999,12|12|8,0:0|0:0|0:0,0:0:0:0:
336,240,179044,2,0,L|336:160,2,79.9999999999999,12|12|8,0:0|0:0|0:0,0:0:0:0:
312,320,179992,5,0,0:0:0:0:
232,336,180307,2,0,P|192:344|152:336,2,79.9999999999999,12|12|8,0:0|0:0|0:0,0:0:0:0:
192,184,181571,2,0,L|192:264,2,79.9999999999999,12|12|8,0:0|0:0|0:0,0:0:0:0:
304,72,182834,6,0,P|344:64|384:72,2,79.9999999999999,12|12|8,0:0|0:0|0:0,0:0:0:0:
176,168,184097,2,0,L|136:240,1,79.9999999999999,8|0,0:0|0:0,0:0:0:0:
128,320,184728,1,8,0:0:0:0:
256,224,185360,6,0,P|320:272|392:248,2,160,8|8|8,0:0|0:0|0:0,0:0:0:0:
256,144,186939,2,0,L|288:64,1,79.9999999999999,2|8,0:0|0:0,0:0:0:0:
368,72,187571,6,0,P|416:136|384:208,1,160,6|2,0:0|0:0,0:0:0:0:
312,208,188518,1,8,0:0:0:0:
232,208,188834,2,0,P|160:256|160:328,2,160,2|2|6,0:0|0:0|0:0,0:0:0:0:
232,128,190413,5,8,0:0:0:0:
312,128,190728,2,0,L|392:128,1,79.9999999999999,2|8,0:0|0:0,0:0:0:0:
456,176,191360,2,0,L|456:256,1,79.9999999999999,2|8,0:0|0:0,0:0:0:0:
392,312,191992,2,0,L|304:312,1,79.9999999999999,2|8,0:0|0:0,0:0:0:0:
232,312,192623,6,0,P|176:240|104:224,2,160,6|2|2,0:0|0:0|0:0,0:0:0:0:
312,312,194202,2,0,L|392:312,2,79.9999999999999,8|2|8,0:0|0:0|0:0,0:0:0:0:
232,312,195150,6,0,L|232:152,1,160,6|2,0:0|0:0,0:0:0:0:
200,80,196097,1,8,0:0:0:0:
152,144,196413,2,0,L|72:144,1,79.9999999999999,2|8,0:0|0:0,0:0:0:0:
72,224,197044,2,0,L|152:224,1,79.9999999999999,2|8,0:0|0:0,0:0:0:0:
232,224,197676,6,0,P|240:304|304:344,1,160,6|2,0:0|0:0,0:0:0:0:
384,344,198623,1,8,0:0:0:0:
456,304,198939,2,0,L|456:224,1,79.9999999999999,2|8,0:0|0:0,0:0:0:0:
384,192,199571,2,0,L|384:104,1,79.9999999999999,2|8,0:0|0:0,0:0:0:0:
304,112,200202,6,0,L|304:272,2,160,6|2|2,0:0|0:0|0:0,0:0:0:0:
384,112,201781,2,0,L|464:112,2,79.9999999999999,8|2|8,0:0|0:0|0:0,0:0:0:0:
304,112,202728,6,0,L|136:112,1,160,6|2,0:0|0:0,0:0:0:0:
64,112,203676,1,8,0:0:0:0:
64,192,203992,2,0,B|72:232|72:232|64:272,2,79.9999999999999,8|8|8,0:0|0:0|0:0,0:0:0:0:
64,112,204939,1,4,0:0:0:0:
136,136,205255,6,0,L|176:112,1,40
360,48,206202,1,0,0:0:0:0:
360,48,206360,2,0,L|392:128,1,79.9999999999999
200,192,207465,5,4,0:0:0:0:
136,248,207781,6,0,L|176:272,1,40
360,336,208728,1,0,0:0:0:0:
360,336,208886,2,0,L|392:256,1,79.9999999999999
200,192,209992,5,8,0:0:0:0:
120,200,210307,6,0,P|152:256|240:264,2,160,4|0|0,0:0|0:0|0:0,0:0:0:0:
160,128,211886,1,0,0:0:0:0:
232,96,212202,2,0,L|320:96,1,79.9999999999999
344,24,212834,6,0,P|384:64|384:128,2,120,14|14|14,0:0|0:0|0:0,0:0:0:0:
240,144,214413,6,0,L|312:96,2,79.9999999999999,8|10|0,0:0|0:0|0:0,0:0:0:0:
192,80,215360,6,0,P|152:152|80:160,2,160,4|0|0,0:0|0:0|0:0,0:0:0:0:
256,128,216939,2,0,L|256:208,1,79.9999999999999
256,288,217571,1,0,0:0:0:0:
256,288,217886,6,0,P|320:336|400:328,2,160,4|0|0,0:0|0:0|0:0,0:0:0:0:
256,208,219465,1,0,0:0:0:0:
256,208,219781,2,0,L|296:136,1,79.9999999999999
328,64,220413,6,0,L|424:192,2,160,4|0|0,0:0|0:0|0:0,0:0:0:0:
256,104,221992,1,0,0:0:0:0:
184,64,222307,2,0,L|136:128,1,79.9999999999999
88,192,222939,6,0,P|88:256|128:304,2,120,14|14|14,0:0|0:0|0:0,0:0:0:0:
216,128,224518,1,12,0:0:0:0:
296,128,224834,2,0,L|296:208,1,79.9999999999999,10|8,0:0|0:0,0:0:0:0:
280,288,225465,5,2,0:0:0:0:
216,240,225781,2,0,P|280:208|356:264,1,160,8|8,0:0|0:0,0:0:0:0:
280,288,226728,2,0,P|272:328|284:372,3,79.9999999999999,2|8|2|8,0:0|0:0|0:0|0:0,0:0:0:0:
352,328,227992,2,0,P|384:304|416:272,1,79.9999999999999,2|8,0:0|0:0,0:0:0:0:
440,200,228623,2,0,P|488:244|488:308,2,120,2|6|8,0:0|0:0|0:0,0:0:0:0:
376,152,229886,2,0,L|328:88,1,79.9999999999999,10|10,0:0|0:0,0:0:0:0:
256,56,230518,6,0,P|184:96|96:88,1,160,6|2,0:0|0:0,0:0:0:0:
32,64,231465,1,8,0:0:0:0:
32,64,231781,2,0,B|40:96|40:96|32:184|32:184|40:232,1,160,2|2,0:0|0:0,0:0:0:0:
56,304,232728,1,8,0:0:0:0:
128,344,233044,6,0,P|208:320|240:256,1,160,2|6,0:0|0:0,0:0:0:0:
256,192,234150,12,4,235571,0:0:0:0:
