osu file format v12

[General]
AudioFilename: 10. .mp3
AudioLeadIn: 2007
PreviewTime: 50028
Countdown: 0
SampleSet: Normal
StackLeniency: 0.5
Mode: 0
LetterboxInBreaks: 0
EpilepsyWarning: 1

[Editor]
DistanceSpacing: 1.8
BeatDivisor: 4
GridSize: 4

[Metadata]
Title:Caramel Heaven
TitleUnicode:キャラメルへヴン
Artist:Last Note.
ArtistUnicode:Last Note.
Creator:Snepif
Version:Hard
Source:
Tags:megpoid gumi vocaloid 3 kyarameru heavun hea vun vocarock collection Nyquill winber1
BeatmapID:246688
BeatmapSetID:90095

[Difficulty]
HPDrainRate:5
CircleSize:4
OverallDifficulty:6
ApproachRate:8
SliderMultiplier:1.4
SliderTickRate:2

[Events]
//Background and Video events
0,0,"BG.jpg",0,0
//Break Periods
2,884,2254
2,3358,4728
2,5832,7202
2,74647,78955
2,132173,138336
//Storyboard Layer 0 (Background)
//Storyboard Layer 1 (Fail)
//Storyboard Layer 2 (Pass)
//Storyboard Layer 3 (Foreground)
//Storyboard Sound Samples
//Background Colour Transformations
3,100,163,162,255

[TimingPoints]
530,309.278350515464,4,1,1,70,1,0
10425,-90.9090909090909,4,1,1,70,0,1
10580,-90.9090909090909,4,1,1,70,0,0
15065,-90.9090909090909,4,1,1,60,0,0
15374,-90.9090909090909,4,1,1,70,0,0
20013,-90.9090909090909,4,1,1,60,0,0
20322,-125,4,2,1,58,0,0
22487,-125,4,1,1,70,0,0
22797,-125,4,2,1,65,0,0
28982,-125,4,1,1,70,0,0
29755,-166.666666666667,4,1,1,70,0,0
30219,-100,4,1,1,65,0,0
32384,-100,4,1,1,70,0,0
32693,-100,4,1,1,65,0,0
34858,-100,4,1,1,70,0,0
35168,-100,4,1,1,65,0,0
39111,-125,4,1,1,30,0,0
39188,-125,4,1,1,70,0,0
39420,-125,4,1,1,30,0,0
39498,-125,4,1,1,58,0,0
40116,-100,4,1,1,70,0,0
50013,-83.3333333333333,4,1,1,75,0,1
54653,-111.111111111111,4,1,1,75,0,1
54962,-83.3333333333333,4,1,1,75,0,1
64550,-111.111111111111,4,1,1,75,0,1
64859,-83.3333333333333,4,1,1,75,0,1
69807,-90.9090909090909,4,1,1,70,0,0
79704,-166.666666666667,4,1,1,60,0,0
89137,-200,4,1,1,70,0,0
89446,-166.666666666667,4,1,1,70,0,0
89601,-100,4,1,1,70,0,0
99498,-100,4,1,1,70,0,0
109394,-83.3333333333333,4,1,1,75,0,1
114035,-111.111111111111,4,1,1,75,0,1
114344,-83.3333333333333,4,1,1,75,0,1
123932,-111.111111111111,4,1,1,75,0,1
124241,-83.3333333333333,4,1,1,75,0,1
129188,-90.9090909090909,4,1,1,70,0,0
131972,-90.9090909090909,4,1,1,40,0,0
139085,-83.3333333333333,4,1,1,70,0,0
140322,-74.0740740740741,4,1,1,70,0,0
141559,-68.9655172413793,4,1,1,70,0,0
148982,-125,4,1,1,60,0,0
158879,-90.9090909090909,4,1,1,70,0,0
167539,-200,4,1,1,70,0,0
168003,-90.9090909090909,4,1,1,20,0,0
168776,-200,4,2,1,50,0,0
178673,-142.857142857143,4,2,1,65,0,0
178982,-142.857142857143,4,2,1,70,0,0
187333,-142.857142857143,4,1,1,85,0,0
188260,-142.857142857143,4,1,1,65,0,0
188570,-83.3333333333333,4,1,1,75,0,1
198158,-111.111111111111,4,1,1,75,0,1
198468,-83.3333333333333,4,1,1,75,0,1
208364,-90.9090909090909,4,1,1,70,0,0
210683,-90.9090909090909,4,1,1,70,0,0
210993,-90.9090909090909,4,1,1,80,0,0
218260,-83.3333333333333,4,1,1,80,0,1
228003,-83.3333333333333,4,1,1,90,0,0
228080,-83.3333333333333,4,1,1,50,0,0
232410,-83.3333333333333,4,1,1,15,0,0

[Colours]
Combo1 : 163,23,174
Combo2 : 105,207,75
Combo3 : 28,176,143
Combo4 : 226,27,67
Combo5 : 122,83,196
Combo6 : 149,149,149
Combo7 : 70,70,70
Combo8 : 0,23,230

[HitObjects]
136,288,530,70,0,P|172:288|208:264,1,70
412,216,3004,6,0,P|376:216|340:192,1,70
56,84,5478,102,0,L|68:160,1,70
400,240,7952,6,0,L|388:316,1,70,0|0,0:0|0:0,0:0:0:0:
72,180,9189,102,0,P|132:224|200:196,1,140,8|0,0:0|0:0,0:0:0:0:
264,192,9653,2,0,L|256:336,1,140,8|0,0:0|0:0,0:0:0:0:
332,352,10117,1,8,0:0:0:0:
332,352,10272,1,8,0:0:0:0:
400,316,10426,102,0,P|420:284|436:244,1,77.0000023498536,4|0,0:0|0:0,0:0:0:0:
448,168,10736,2,0,P|452:132|368:36,1,154.000004699707,8|0,0:0|0:0,0:0:0:0:
308,36,11200,1,0,0:0:0:0:
240,76,11354,2,0,P|224:112|228:151,1,77.0000023498536,8|0,0:0|0:0,0:0:0:0:
212,224,11664,70,0,B|120:236|120:236,2,77.0000023498536,0|0|8,0:0|0:0|0:0,0:0:0:0:
280,260,12127,1,8,0:0:0:0:
300,336,12282,2,0,B|392:348|392:348,2,77.0000023498536,0|0|8,0:0|0:0|0:0,0:0:0:0:
224,320,12746,2,0,B|144:312|144:312|112:320|72:360,1,154.000004699707,4|0,0:0|0:0,0:0:0:0:
24,300,13210,5,8,0:0:0:0:
24,224,13365,1,0,0:0:0:0:
32,148,13519,2,0,P|64:156|96:200,1,77.0000023498536
160,228,13828,2,0,L|240:212,1,77.0000023498536,8|0,0:0|0:0,0:0:0:0:
296,164,14138,5,8,0:0:0:0:
296,164,14292,1,0,0:0:0:0:
276,88,14447,2,0,L|196:72,2,77.0000023498536,8|0|8,0:0|0:0|0:0,0:0:0:0:
56,116,15066,2,0,P|40:192|68:224,1,115.50000352478,8|0,0:0|0:0,0:0:0:0:
92,240,15375,6,0,P|96:288|88:328,1,77.0000023498536,4|0,0:0|0:0,0:0:0:0:
156,360,15684,1,8,0:0:0:0:
232,348,15839,1,0,0:0:0:0:
292,300,15993,2,0,B|340:304|340:304|376:328|376:328|404:336|440:332,1,154.000004699707,0|8,0:0|0:0,0:0:0:0:
480,268,16457,1,0,0:0:0:0:
464,192,16612,70,0,L|448:112,2,77.0000023498536,0|0|8,0:0|0:0|0:0,0:0:0:0:
388,208,17076,1,8,0:0:0:0:
312,188,17231,2,0,P|272:168|228:176,2,77.0000023498536,0|0|8,0:0|0:0|0:0,0:0:0:0:
260,244,17694,2,0,P|180:220|168:152,1,154.000004699707,4|0,0:0|0:0,0:0:0:0:
152,84,18158,6,0,B|64:68|64:68|32:76|20:116,1,154.000004699707,8|0,0:0|0:0,0:0:0:0:
24,188,18622,1,0,0:0:0:0:
44,264,18777,2,0,L|120:284,1,77.0000023498536,8|0,0:0|0:0,0:0:0:0:
196,296,19086,6,0,P|208:260|204:216,1,77.0000023498536
180,148,19395,1,8,0:0:0:0:
140,84,19550,2,0,P|220:80|256:136,1,154.000004699707,8|0,0:0|0:0,0:0:0:0:
292,204,20014,2,0,P|324:176|332:140,1,77.0000023498536,8|8,0:0|0:0,0:0:0:0:
328,64,20323,6,0,L|444:80,1,112,4|8,0:0|0:0,0:0:0:0:
456,148,20787,1,0,0:0:0:0:
464,220,20942,2,0,B|456:264|456:264|467:290|467:290|460:344,2,112,0|8|0,0:0|0:0|0:0,0:0:0:0:
320,244,21870,2,0,B|293:237|293:237|260:224,1,56,8|0,0:0|0:0,0:0:0:0:
232,164,22179,2,0,P|216:116|240:56,1,112,0|8,0:0|0:0,0:0:0:0:
176,20,22643,1,8,0:0:0:0:
108,44,22798,70,0,L|92:156,1,112,4|8,0:0|0:0,0:0:0:0:
84,228,23261,1,0,0:0:0:0:
120,292,23416,2,0,P|168:328|228:308,1,112,0|8,0:0|0:0,0:0:0:0:
256,256,23880,1,0,0:0:0:0:
324,228,24035,6,0,L|380:232,1,56
388,304,24344,2,0,L|332:300,2,56,8|0|0,0:0|0:0|0:0,0:0:0:0:
440,168,24962,2,0,B|440:128|440:128|428:100,1,56,8|8,0:0|0:0,0:0:0:0:
392,52,25272,6,0,P|328:32|280:44,1,112,4|8,0:0|0:0,0:0:0:0:
180,144,25890,2,0,P|172:112|174:89,2,56,0|0|8,0:0|0:0|0:0,0:0:0:0:
196,216,26354,2,0,B|176:260|176:260|184:344,1,112
183,324,26818,1,8,0:0:0:0:
32,304,27127,6,0,L|28:244,1,56
80,196,27437,2,0,L|76:136,1,56,8|8,0:0|0:0,0:0:0:0:
108,76,27746,2,0,P|168:72|208:112,1,112,4|8,0:0|0:0,0:0:0:0:
268,144,28210,2,0,L|384:124,1,112
420,64,28674,1,8,0:0:0:0:
416,288,28983,69,8,0:0:0:0:
356,332,29138,1,8,0:0:0:0:
284,336,29292,1,8,0:0:0:0:
216,312,29447,1,8,0:0:0:0:
216,312,29756,2,0,B|184:292|148:296|148:296|140:272,1,83.9999974365235,8|8,0:0|0:0,0:0:0:0:
124,208,30220,6,0,L|116:136,1,70,4|0,0:0|0:0,0:0:0:0:
40,160,30530,2,0,L|48:232,1,70,8|0,0:0|0:0,0:0:0:0:
60,304,30839,2,0,P|132:316|184:272,1,140,0|8,0:0|0:0,0:0:0:0:
300,180,31457,2,0,P|340:184|364:208,1,70
384,276,31767,1,8,0:0:0:0:
384,276,31921,1,0,0:0:0:0:
456,300,32076,2,0,L|468:148,1,140,0|8,0:0|0:0,0:0:0:0:
424,96,32540,1,8,0:0:0:0:
360,140,32694,6,0,P|348:96|352:68,2,70,4|0|8,0:0|0:0|0:0,0:0:0:0:
328,212,33158,1,0,0:0:0:0:
256,188,33313,2,0,P|228:116|240:44,1,140,0|8,0:0|0:0,0:0:0:0:
235,55,33777,1,0,0:0:0:0:
308,28,33932,2,0,L|396:36,1,70
372,112,34241,2,0,L|441:105,1,70,8|0,0:0|0:0,0:0:0:0:
484,172,34550,2,0,B|500:260|500:260|468:312,1,140,0|8,0:0|0:0,0:0:0:0:
396,304,35014,1,8,0:0:0:0:
336,256,35169,6,0,P|320:288|324:328,1,70,4|0,0:0|0:0,0:0:0:0:
252,352,35478,2,0,L|176:344,1,70,8|0,0:0|0:0,0:0:0:0:
104,336,35787,2,0,B|72:312|72:312|60:260,1,70
72,204,36097,1,8,0:0:0:0:
81,127,36251,2,0,B|139:135|149:192|149:192|175:163,1,140
228,108,36715,2,0,P|248:136|252:172,1,70,8|0,0:0|0:0,0:0:0:0:
252,248,37024,69,8,0:0:0:0:
252,248,37179,1,0,0:0:0:0:
308,300,37334,1,8,0:0:0:0:
308,300,37488,1,8,0:0:0:0:
384,296,37643,6,0,B|412:248|412:248|404:216|404:216|400:192|408:164,1,140,4|8,0:0|0:0,0:0:0:0:
416,88,38107,2,0,P|360:52|276:68,1,140
224,100,38571,1,8,0:0:0:0:
216,332,38880,5,0,0:0:0:0:
96,172,39189,1,8,0:0:0:0:
296,148,39499,2,0,L|344:144,3,28,8|8|0|0,0:0|0:0|0:0|0:0,0:0:0:0:
348,164,39808,2,0,L|396:160,3,28,8|8|0|0,0:0|0:0|0:0|0:0,0:0:0:0:
416,156,40117,6,0,L|408:296,1,140,6|8,0:0|0:0,0:0:0:0:
260,248,40736,2,0,B|264:300|264:300|276:320,2,70,8|0|2,0:0|0:0|0:0,0:0:0:0:
232,176,41200,2,0,P|152:152|104:184,1,140,8|0,0:0|0:0,0:0:0:0:
48,228,41664,2,0,P|128:252|176:220,1,140,8|8,0:0|0:0,0:0:0:0:
320,180,42282,1,8,0:0:0:0:
296,108,42437,1,8,0:0:0:0:
228,148,42591,70,0,P|220:80|276:32,1,140,4|10,0:0|0:0,0:0:0:0:
140,120,43210,2,0,P|136:84|148:48,2,70,8|0|2,0:0|0:0|0:0,0:0:0:0:
144,196,43674,2,0,B|172:256|232:248|232:248|228:284,1,140,8|0,0:0|0:0,0:0:0:0:
244,352,44138,2,0,P|312:364|364:320,1,140,10|8,0:0|0:0,0:0:0:0:
420,180,44756,1,8,0:0:0:0:
332,52,45066,6,0,L|176:36,1,140,4|10,0:0|0:0,0:0:0:0:
68,128,45684,2,0,P|64:176|72:200,2,70,8|0|2,0:0|0:0|0:0,0:0:0:0:
124,76,46148,2,0,L|280:92,1,140,8|0,0:0|0:0,0:0:0:0:
332,128,46612,2,0,B|336:180|336:180|308:220|308:220|312:260,1,140,10|8,0:0|0:0,0:0:0:0:
176,328,47231,1,2,0:0:0:0:
124,272,47385,1,8,0:0:0:0:
200,252,47540,6,0,P|176:212|152:200,1,70,4|0,0:0|0:0,0:0:0:0:
84,180,47849,2,0,P|108:140|132:128,1,70,8|0,0:0|0:0,0:0:0:0:
204,112,48158,1,8,0:0:0:0:
276,140,48313,1,0,0:0:0:0:
332,88,48468,2,0,L|324:8,1,70,8|0,0:0|0:0,0:0:0:0:
400,32,48777,1,4,0:0:0:0:
400,256,49550,6,0,L|392:212,5,35,8|8|8|0|0|0,0:0|0:0|0:0|0:0|0:0|0:0,0:0:0:0:
384,188,50014,70,0,P|304:144|236:176,1,167.999994873047,4|8,0:0|0:0,0:0:0:0:
108,304,50633,2,0,L|104:216,1,83.9999974365235,0|0,0:0|0:0,0:0:0:0:
100,136,50942,1,8,0:0:0:0:
136,60,51097,2,0,B|176:53|200:56|200:56|236:80|236:80|272:80|300:72,1,167.999994873047,4|0,0:0|0:0,0:0:0:0:
376,56,51560,2,0,L|372:224,1,167.999994873047,8|8,0:0|0:0,0:0:0:0:
372,308,52024,1,0,0:0:0:0:
104,320,52334,6,0,P|140:252|224:248,1,167.999994873047,4|0,0:0|0:0,0:0:0:0:
296,288,52798,2,0,P|308:240|292:200,1,83.9999974365235,10|0,0:0|0:0,0:0:0:0:
248,344,53107,2,0,P|288:364|332:352,1,83.9999974365235,2|0,0:0|0:0,0:0:0:0:
404,324,53416,1,10,0:0:0:0:
448,252,53571,6,0,L|464:68,1,167.999994873047,4|0,0:0|0:0,0:0:0:0:
396,32,54035,1,10,0:0:0:0:
336,92,54189,2,0,P|256:112|188:40,1,167.999994873047,10|0,0:0|0:0,0:0:0:0:
104,56,54653,6,0,P|88:96|104:152,1,94.499997116089,8|8,0:0|0:0,0:0:0:0:
112,164,54962,70,0,P|128:248|88:316,1,167.999994873047,4|8,0:0|0:0,0:0:0:0:
24,260,55426,1,0,0:0:0:0:
28,176,55581,2,0,B|24:152|24:152|11:122|16:88,2,83.9999974365235,0|0|8,0:0|0:0|0:0,0:0:0:0:
112,164,56045,2,0,L|284:144,1,167.999994873047,4|0,0:0|0:0,0:0:0:0:
352,184,56509,2,0,P|360:244|348:280,1,83.9999974365235,8|0,0:0|0:0,0:0:0:0:
284,308,56818,1,0,0:0:0:0:
208,272,56973,1,0,0:0:0:0:
428,308,57282,6,0,P|448:220|420:136,1,167.999994873047,4|0,0:0|0:0,0:0:0:0:
360,96,57746,1,10,0:0:0:0:
276,108,57901,1,0,0:0:0:0:
240,184,58055,2,0,L|248:268,1,83.9999974365235,2|0,0:0|0:0,0:0:0:0:
196,336,58365,1,10,0:0:0:0:
116,312,58519,6,0,B|108:288|108:252|108:252|128:200|128:200|124:136,1,167.999994873047,4|0,0:0|0:0,0:0:0:0:
176,80,58983,1,10,0:0:0:0:
260,84,59138,2,0,B|256:135|256:135|276:187|276:187|276:223|268:247,1,167.999994873047,10|0,0:0|0:0,0:0:0:0:
320,312,59602,2,0,P|345:317|360:324,3,41.9999987182618,8|0|0|0,0:0|0:0|0:0|0:0,0:0:0:0:
384,336,59911,6,0,P|436:260|412:188,1,167.999994873047,4|8,0:0|0:0,0:0:0:0:
364,128,60375,1,0,0:0:0:0:
284,152,60530,2,0,L|296:248,2,83.9999974365235,0|0|8,0:0|0:0|0:0,0:0:0:0:
200,140,60993,2,0,L|220:312,1,167.999994873047,4|0,0:0|0:0,0:0:0:0:
144,344,61457,2,0,P|100:356|64:336,1,83.9999974365235,8|0,0:0|0:0,0:0:0:0:
32,264,61767,2,0,P|76:252|112:272,1,83.9999974365235,0|0,0:0|0:0,0:0:0:0:
272,308,62231,70,0,B|296:224|296:224|272:132,1,167.999994873047,4|0,0:0|0:0,0:0:0:0:
216,88,62694,1,10,0:0:0:0:
132,76,62849,1,0,0:0:0:0:
64,124,63004,2,0,P|48:72|60:36,1,83.9999974365235,2|0,0:0|0:0,0:0:0:0:
132,76,63313,1,10,0:0:0:0:
160,156,63468,6,0,P|248:172|296:120,1,167.999994873047,4|0,0:0|0:0,0:0:0:0:
364,68,63932,1,10,0:0:0:0:
440,108,64086,2,0,L|432:292,1,167.999994873047,10|0,0:0|0:0,0:0:0:0:
384,344,64550,6,0,B|360:348|336:344|336:344|288:328,1,94.499997116089,8|0,0:0|0:0,0:0:0:0:
272,320,64859,6,0,B|208:304|208:304|156:312|104:348,1,167.999994873047,4|8,0:0|0:0,0:0:0:0:
136,100,65478,2,0,L|148:188,1,83.9999974365235
208,240,65787,1,8,0:0:0:0:
292,244,65942,2,0,P|324:172|272:80,1,167.999994873047,4|0,0:0|0:0,0:0:0:0:
228,40,66406,2,0,P|260:16|312:16,1,83.9999974365235,8|0,0:0|0:0,0:0:0:0:
380,48,66715,1,0,0:0:0:0:
416,124,66870,1,0,0:0:0:0:
416,124,67179,70,0,L|244:160,1,167.999994873047,4|0,0:0|0:0,0:0:0:0:
180,200,67643,1,10,0:0:0:0:
200,284,67798,1,0,0:0:0:0:
136,340,67952,2,0,P|116:296|128:244,2,83.9999974365235,2|0|10,0:0|0:0|0:0,0:0:0:0:
64,380,68416,2,0,P|36:292|52:220,1,167.999994873047,4|0,0:0|0:0,0:0:0:0:
108,156,68880,6,0,B|120:116|120:116|124:68,1,83.9999974365235,8|0,0:0|0:0,0:0:0:0:
228,128,69189,2,0,L|228:212,1,83.9999974365235,8|0,0:0|0:0,0:0:0:0:
344,244,69499,2,0,B|332:204|332:204|328:161,2,83.9999974365235,8|8|12,0:0|0:0|0:0,0:0:0:0:
256,192,69885,12,4,72282,0:0:0:0:
256,192,72359,12,0,74447,0:0:0:0:
224,256,79705,6,0,L|276:248,1,41.9999987182618,4|0,0:0|0:0,0:0:0:0:
332,284,80014,2,0,L|384:276,1,41.9999987182618
448,260,80323,2,0,P|464:216|452:172,1,83.9999974365235,8|0,0:0|0:0,0:0:0:0:
412,120,80787,2,0,L|316:112,1,83.9999974365235,8|8,0:0|0:0,0:0:0:0:
260,80,81251,2,0,P|252:115|268:159,1,83.9999974365235,0|8,0:0|0:0,0:0:0:0:
244,232,81715,1,0,0:0:0:0:
168,224,81870,2,0,L|116:216,1,41.9999987182618,8|8,0:0|0:0,0:0:0:0:
52,204,82179,5,4,0:0:0:0:
44,128,82334,2,0,B|40:80|40:80,1,41.9999987182618
52,12,82643,1,0,0:0:0:0:
128,32,82798,2,0,P|176:44|208:24,1,83.9999974365235,8|0,0:0|0:0,0:0:0:0:
280,28,83261,2,0,B|293:69|293:69|289:109,1,83.9999974365235,8|8,0:0|0:0,0:0:0:0:
268,180,83725,1,0,0:0:0:0:
296,252,83880,1,0,0:0:0:0:
368,276,84035,2,0,P|400:280|416:276,1,41.9999987182618,8|0,0:0|0:0,0:0:0:0:
436,208,84344,2,0,P|404:204|388:208,1,41.9999987182618,8|8,0:0|0:0,0:0:0:0:
348,148,84653,70,0,L|356:92,2,41.9999987182618,4|0|0,0:0|0:0|0:0,0:0:0:0:
276,124,85117,1,0,0:0:0:0:
212,84,85272,2,0,L|204:28,2,41.9999987182618,8|8|0,0:0|0:0|0:0,0:0:0:0:
204,160,85736,2,0,P|176:184|128:184,1,83.9999974365235,8|8,0:0|0:0,0:0:0:0:
56,192,86200,2,0,L|48:236,1,41.9999987182618,0|8,0:0|0:0,0:0:0:0:
80,300,86509,1,8,0:0:0:0:
80,300,86664,1,8,0:0:0:0:
148,336,86818,2,0,L|155:294,1,41.9999987182618,0|8,0:0|0:0,0:0:0:0:
224,336,87127,6,0,B|284:336|284:336|316:316,1,83.9999974365235,4|0,0:0|0:0,0:0:0:0:
352,264,87591,2,0,P|364:224|348:176,1,83.9999974365235,8|0,0:0|0:0,0:0:0:0:
308,124,88055,1,8,0:0:0:0:
108,128,88365,5,8,0:0:0:0:
148,64,88519,1,8,0:0:0:0:
220,36,88674,1,8,0:0:0:0:
296,40,88828,1,8,0:0:0:0:
296,40,89138,2,0,B|328:52|328:52|368:52,1,70,8|8,0:0|0:0,0:0:0:0:
440,64,89602,6,0,P|448:92|440:144,1,70,4|0,0:0|0:0,0:0:0:0:
408,200,89911,2,0,L|328:192,1,70,8|0,0:0|0:0,0:0:0:0:
260,188,90220,2,0,P|236:260|272:324,1,140,0|8,0:0|0:0,0:0:0:0:
328,352,90684,1,0,0:0:0:0:
262,315,90839,70,0,P|224:324|200:352,1,70
128,356,91148,1,8,0:0:0:0:
64,312,91303,1,0,0:0:0:0:
56,236,91457,2,0,B|64:200|64:184|64:184|40:148|40:148|38:127|48:100,1,140,0|8,0:0|0:0,0:0:0:0:
240,116,92076,6,0,P|232:156|240:184,1,70,4|0,0:0|0:0,0:0:0:0:
308,148,92385,2,0,P|316:120|308:80,1,70,8|0,0:0|0:0,0:0:0:0:
176,76,92694,2,0,P|156:140|172:216,1,140,0|8,0:0|0:0,0:0:0:0:
212,272,93158,1,0,0:0:0:0:
288,260,93313,6,0,L|360:248,2,70,0|0|8,0:0|0:0|0:0,0:0:0:0:
248,196,93777,1,0,0:0:0:0:
324,176,93932,2,0,B|376:168|376:168|432:188|432:236,1,140,0|8,0:0|0:0,0:0:0:0:
456,36,94550,6,0,L|368:28,1,70,4|0,0:0|0:0,0:0:0:0:
308,28,94859,1,8,0:0:0:0:
256,84,95014,1,0,0:0:0:0:
192,124,95169,2,0,P|180:92|188:56,2,70,0|0|8,0:0|0:0|0:0,0:0:0:0:
148,188,95633,2,0,P|76:184|44:120,1,140
12,232,96097,2,0,L|12:308,1,70,8|0,0:0|0:0,0:0:0:0:
76,348,96406,69,8,0:0:0:0:
152,356,96560,1,8,0:0:0:0:
224,328,96715,1,0,0:0:0:0:
260,260,96870,1,8,0:0:0:0:
260,260,97024,6,0,P|316:232|392:268,1,140,4|0,0:0|0:0,0:0:0:0:
456,288,97488,2,0,L|480:144,1,140,8|0,0:0|0:0,0:0:0:0:
456,76,97952,1,8,0:0:0:0:
192,52,98261,5,0,0:0:0:0:
272,324,98571,1,8,0:0:0:0:
372,104,98880,2,0,L|360:152,3,35,8|0|0|0,0:0|0:0|0:0|0:0,0:0:0:0:
376,160,99189,2,0,L|364:208,3,35,8|0|0|0,0:0|0:0|0:0|0:0,0:0:0:0:
376,220,99499,6,0,B|412:232|412:232|452:224,1,70,12|0,0:0|0:0,0:0:0:0:
184,352,100272,1,8,0:0:0:0:
184,352,100581,2,0,P|152:288|176:208,1,140,0|8,0:0|0:0,0:0:0:0:
236,56,101509,1,2,0:0:0:0:
200,124,101664,2,0,L|60:128,1,140,2|8,0:0|0:0,0:0:0:0:
24,196,102127,69,0,0:0:0:0:
328,352,102746,1,8,0:0:0:0:
328,352,103055,2,0,P|360:288|336:208,1,140,8|0,0:0|0:0,0:0:0:0:
288,80,103674,2,0,L|284:132,2,35,0|0|8,0:0|0:0|0:0,0:0:0:0:
176,184,104138,1,8,0:0:0:0:
56,88,104447,6,0,L|128:76,1,70,4|0,0:0|0:0,0:0:0:0:
200,64,104756,2,0,P|216:104|212:152,1,70,8|0,0:0|0:0,0:0:0:0:
232,208,105066,2,0,P|296:248|372:208,1,140,0|8,0:0|0:0,0:0:0:0:
420,192,105530,2,0,L|416:48,2,140,4|8|0,0:0|0:0|0:0,0:0:0:0:
416,268,106303,2,0,B|388:296|388:296|348:300,1,70,8|0,0:0|0:0,0:0:0:0:
280,296,106612,1,8,0:0:0:0:
228,236,106767,1,8,0:0:0:0:
176,180,106921,6,0,P|128:168|96:180,1,70,12|0,0:0|0:0,0:0:0:0:
68,236,107231,2,0,P|116:248|148:236,1,70,8|0,0:0|0:0,0:0:0:0:
208,268,107540,1,8,0:0:0:0:
256,328,107694,1,0,0:0:0:0:
332,332,107849,2,0,L|356:244,1,70,8|0,0:0|0:0,0:0:0:0:
372,192,108158,1,8,0:0:0:0:
120,52,108468,6,0,P|108:88|114:118,1,70,8|0,0:0|0:0,0:0:0:0:
184,152,108777,1,0,0:0:0:0:
256,128,108932,2,8,L|268:80,5,35
276,52,109395,70,0,P|368:52|396:116,1,167.999994873047,4|8,0:0|0:0,0:0:0:0:
372,192,109859,1,0,0:0:0:0:
300,236,110014,2,0,B|300:284|300:284|328:316,2,83.9999974365235,0|0|8,0:0|0:0|0:0,0:0:0:0:
216,220,110478,2,0,B|216:304|216:304|200:336|144:356,1,167.999994873047,4|0,0:0|0:0,0:0:0:0:
68,340,110942,2,0,P|48:300|48:252,1,83.9999974365235,8|0,0:0|0:0,0:0:0:0:
52,176,111251,2,0,L|144:188,1,83.9999974365235,8|0,0:0|0:0,0:0:0:0:
384,72,111715,6,0,L|208:44,1,167.999994873047,4|0,0:0|0:0,0:0:0:0:
136,32,112179,2,0,P|124:76|144:120,1,83.9999974365235,10|0,0:0|0:0,0:0:0:0:
64,156,112488,2,0,P|96:192|144:192,1,83.9999974365235,2|0,0:0|0:0,0:0:0:0:
212,176,112798,1,10,0:0:0:0:
292,196,112952,2,0,P|328:276|280:360,1,167.999994873047,4|0,0:0|0:0,0:0:0:0:
212,352,113416,1,10,0:0:0:0:
240,272,113571,2,0,L|412:256,1,167.999994873047,10|0,0:0|0:0,0:0:0:0:
452,188,114035,6,0,B|464:144|464:144|452:92,1,94.499997116089,8|0,0:0|0:0,0:0:0:0:
436,60,114344,6,0,P|352:40|288:104,1,167.999994873047,4|8,0:0|0:0,0:0:0:0:
240,152,114808,1,0,0:0:0:0:
160,124,114962,2,0,L|152:24,2,83.9999974365235,0|0|8,0:0|0:0|0:0,0:0:0:0:
80,144,115426,2,0,L|72:324,1,167.999994873047,4|0,0:0|0:0,0:0:0:0:
148,348,115890,2,0,B|188:360|188:360|252:352,1,83.9999974365235,8|0,0:0|0:0,0:0:0:0:
308,324,116200,2,0,P|352:316|384:340,1,83.9999974365235,0|0,0:0|0:0,0:0:0:0:
228,84,116664,70,0,P|208:172|272:216,1,167.999994873047,4|0,0:0|0:0,0:0:0:0:
344,236,117127,2,0,L|440:244,1,83.9999974365235,10|0,0:0|0:0,0:0:0:0:
448,160,117437,2,0,L|352:152,1,83.9999974365235,2|0,0:0|0:0,0:0:0:0:
280,140,117746,1,10,0:0:0:0:
200,168,117901,6,0,B|184:196|184:228|184:228|200:272|200:272|200:296|184:340,1,167.999994873047,4|0,0:0|0:0,0:0:0:0:
268,356,118365,1,10,0:0:0:0:
348,332,118519,1,10,0:0:0:0:
96,360,118828,1,0,0:0:0:0:
88,276,118983,2,8,L|84:228,3,41.9999987182618,8|8|8|8,0:0|0:0|0:0|0:0,0:0:0:0:
80,192,119292,6,0,B|72:84|72:84|80:52|108:36,1,167.999994873047,2|8,0:0|0:0,0:0:0:0:
188,48,119756,1,0,0:0:0:0:
244,112,119911,2,0,P|300:116|332:92,2,83.9999974365235,0|0|8,0:0|0:0|0:0,0:0:0:0:
276,36,120375,2,0,L|292:208,1,167.999994873047,4|0,0:0|0:0,0:0:0:0:
264,284,120839,2,0,P|208:288|176:264,1,83.9999974365235,8|0,0:0|0:0,0:0:0:0:
112,236,121148,2,0,L|96:344,1,83.9999974365235,0|0,0:0|0:0,0:0:0:0:
272,192,121612,6,0,P|360:164|412:232,1,167.999994873047,4|0,0:0|0:0,0:0:0:0:
420,296,122076,1,10,0:0:0:0:
356,348,122231,1,0,0:0:0:0:
272,348,122385,2,0,B|234:340|234:340|180:352,2,83.9999974365235,2|0|10,0:0|0:0|0:0,0:0:0:0:
312,272,122849,69,4,0:0:0:0:
196,68,123158,1,0,0:0:0:0:
280,76,123313,2,0,L|372:80,1,83.9999974365235,10|10,0:0|0:0,0:0:0:0:
272,224,123777,1,0,0:0:0:0:
188,228,123932,6,0,L|92:232,1,94.499997116089,8|0,0:0|0:0,0:0:0:0:
52,232,124241,6,0,P|16:156|60:76,1,167.999994873047,4|8,0:0|0:0,0:0:0:0:
188,228,124859,2,0,P|200:272|180:320,1,83.9999974365235,0|0,0:0|0:0,0:0:0:0:
108,332,125169,1,8,0:0:0:0:
189,307,125323,2,0,L|364:324,1,167.999994873047,4|0,0:0|0:0,0:0:0:0:
424,272,125787,2,0,P|440:220|432:188,1,83.9999974365235,8|0,0:0|0:0,0:0:0:0:
348,192,126097,2,0,P|332:140|340:108,1,83.9999974365235,0|0,0:0|0:0,0:0:0:0:
180,56,126560,6,0,P|156:144|184:228,1,167.999994873047,4|0,0:0|0:0,0:0:0:0:
240,272,127024,2,0,L|236:368,1,83.9999974365235,10|0,0:0|0:0,0:0:0:0:
328,212,127334,2,0,L|324:295,1,83.9999974365235,2|0,0:0|0:0,0:0:0:0:
400,332,127643,1,10,0:0:0:0:
464,276,127798,2,0,L|472:96,1,167.999994873047,4|0,0:0|0:0,0:0:0:0:
416,48,128261,69,8,0:0:0:0:
332,36,128416,1,0,0:0:0:0:
256,72,128571,1,8,0:0:0:0:
212,144,128725,1,8,0:0:0:0:
132,120,128880,2,8,P|108:112|84:108,4,41.9999987182618,8|8|8|8|4,0:0|0:0|0:0|0:0|0:0,0:0:0:0:
256,192,129267,12,0,131973,2:0:0:0:
320,152,139086,6,0,L|420:140,2,83.9999974365235,10|0|8,0:0|0:0|0:0,0:0:0:0:
308,236,139550,2,0,L|408:224,2,83.9999974365235,0|8|0,0:0|0:0|0:0,0:0:0:0:
232,276,140014,1,8,0:0:0:0:
152,252,140169,1,0,0:0:0:0:
116,176,140323,6,0,P|80:208|68:252,2,94.5000003604889,8|0|8,0:0|0:0|0:0,0:0:0:0:
152,100,140787,2,0,P|188:132|200:176,2,94.5000003604889,0|8|0,0:0|0:0|0:0,0:0:0:0:
188,24,141251,1,8,0:0:0:0:
272,48,141406,1,0,0:0:0:0:
344,8,141560,6,0,L|364:116,1,101.500003097534,10|0,0:0|0:0,0:0:0:0:
428,172,141870,2,0,P|384:200|312:180,1,101.500003097534,8|0,0:0|0:0,0:0:0:0:
256,236,142179,2,0,P|212:208|164:212,1,101.500003097534,8|0,0:0|0:0,0:0:0:0:
72,212,142488,2,0,L|90:112,1,101.500003097534,8|0,0:0|0:0,0:0:0:0:
164,212,142798,70,0,B|160:264|160:264|182:311,1,101.500003097534,8|0,0:0|0:0,0:0:0:0:
264,344,143107,2,0,P|336:340|364:304,1,101.500003097534,8|0,0:0|0:0,0:0:0:0:
408,248,143416,2,0,B|429:203|429:203|425:151,1,101.500003097534,8|0,0:0|0:0,0:0:0:0:
412,60,143725,2,0,P|340:20|268:48,1,152.250004646301,8|0,0:0|0:0,0:0:0:0:
240,36,144035,6,0,L|236:140,1,101.500003097534,6|0,0:0|0:0,0:0:0:0:
168,180,144344,2,0,L|164:284,1,101.500003097534,10|0,0:0|0:0,0:0:0:0:
220,340,144653,2,0,P|272:352|312:328,1,101.500003097534,10|0,0:0|0:0,0:0:0:0:
348,256,144962,2,0,P|296:244|256:268,1,101.500003097534,10|0,0:0|0:0,0:0:0:0:
220,340,145272,5,10,0:0:0:0:
140,344,145426,1,0,0:0:0:0:
84,284,145581,2,0,B|60:248|60:248|60:184,1,101.500003097534,10|0,0:0|0:0,0:0:0:0:
64,108,145890,2,0,L|180:92,1,101.500003097534,10|0,0:0|0:0,0:0:0:0:
248,96,146200,2,0,B|248:154|248:154|224:190,1,101.500003097534,10|0,0:0|0:0,0:0:0:0:
256,192,146509,12,4,148983,0:0:0:0:
280,280,149292,5,2,0:0:0:0:
336,56,149602,2,0,P|380:72|400:136,1,112,8|2,0:0|0:0,0:0:0:0:
384,200,150066,2,0,L|260:184,1,112,8|0,0:0|0:0,0:0:0:0:
156,100,150684,1,0,0:0:0:0:
100,144,150839,2,0,L|104:200,2,56,8|0|10,0:0|0:0|0:0,0:0:0:0:
28,160,151303,70,0,L|36:276,1,112,8|8,0:0|0:0,0:0:0:0:
92,320,151767,2,0,P|160:332|192:300,1,112,2|8,0:0|0:0,0:0:0:0:
224,244,152231,1,8,0:0:0:0:
288,212,152385,1,2,0:0:0:0:
360,224,152540,2,0,L|367:112,1,112,8|0,0:0|0:0,0:0:0:0:
372,40,153004,1,10,0:0:0:0:
252,124,153313,1,8,0:0:0:0:
476,296,153622,1,10,0:0:0:0:
300,332,153932,6,0,P|248:300|192:320,1,112,4|10,0:0|0:0,0:0:0:0:
84,228,154550,2,0,L|80:288,2,56,8|0|2,0:0|0:0|0:0,0:0:0:0:
88,156,155014,2,0,B|132:124|132:124|196:132,2,112,8|0|8,0:0|0:0|0:0,0:0:0:0:
36,104,155787,2,0,L|84:64,1,56,8|0,0:0|0:0,0:0:0:0:
152,52,156097,2,0,L|224:64,1,56,10|0,0:0|0:0,0:0:0:0:
272,92,156406,6,0,B|272:152|272:152|256:176|248:208,1,112,4|10,0:0|0:0,0:0:0:0:
252,272,156870,2,0,P|300:312|360:296,1,112,0|8,0:0|0:0,0:0:0:0:
400,256,157334,1,2,0:0:0:0:
412,184,157488,1,8,0:0:0:0:
472,228,157643,2,0,L|476:348,1,112,4|10,0:0|0:0,0:0:0:0:
475,339,158107,1,0,0:0:0:0:
304,248,158416,2,0,B|308:276|305:305|305:305,2,56,0|8|8,0:0|0:0|0:0,0:0:0:0:
300,172,158880,6,0,B|292:108|300:64|300:64|332:24,1,154.000004699707,4|8,0:0|0:0,0:0:0:0:
424,148,159499,2,0,P|432:188|424:232,1,77.0000023498536,0|8,0:0|0:0,0:0:0:0:
396,296,159808,1,0,0:0:0:0:
328,332,159962,2,0,P|244:328|200:272,2,154.000004699707,4|0|0,0:0|0:0|0:0,0:0:0:0:
328,256,160736,2,0,L|320:176,1,77.0000023498536,8|0,0:0|0:0,0:0:0:0:
244,192,161045,2,0,L|236:104,1,77.0000023498536,0|8,0:0|0:0,0:0:0:0:
188,56,161354,70,0,B|112:48|112:48|44:88,1,154.000004699707,4|8,0:0|0:0,0:0:0:0:
48,240,161973,2,0,P|44:280|52:316,1,77.0000023498536,0|8,0:0|0:0,0:0:0:0:
120,352,162282,1,0,0:0:0:0:
196,356,162437,2,0,L|352:336,1,154.000004699707,8|0,0:0|0:0,0:0:0:0:
404,280,162901,5,8,0:0:0:0:
428,208,163055,1,0,0:0:0:0:
424,132,163210,1,0,0:0:0:0:
192,64,163519,2,0,L|204:152,1,77.0000023498536,8|8,0:0|0:0,0:0:0:0:
212,216,163828,6,0,B|152:224|128:164|128:164|120:116,2,154.000004699707,4|8|0,0:0|0:0|0:0,0:0:0:0:
288,208,164602,1,8,0:0:0:0:
340,152,164756,1,0,0:0:0:0:
344,76,164911,2,0,P|396:100|408:188,1,154.000004699707,0|0,0:0|0:0,0:0:0:0:
404,264,165375,6,0,L|488:292,1,77.0000023498536,8|0,0:0|0:0,0:0:0:0:
372,332,165684,2,0,L|288:360,1,77.0000023498536,8|0,0:0|0:0,0:0:0:0:
332,268,165993,2,0,L|292:196,1,77.0000023498536,8|8,0:0|0:0,0:0:0:0:
248,128,166303,69,12,0:0:0:0:
176,84,166457,1,0,0:0:0:0:
92,92,166612,2,0,P|80:132|96:176,1,77.0000023498536,8|0,0:0|0:0,0:0:0:0:
160,208,166921,2,0,P|172:248|156:292,1,77.0000023498536,8|0,0:0|0:0,0:0:0:0:
108,348,167231,1,8,0:0:0:0:
32,312,167385,1,0,0:0:0:0:
32,232,167540,6,0,L|28:120,1,105,4|0,0:0|0:0,0:0:0:0:
376,72,168777,38,0,P|340:56|300:60,1,70,4|2,0:0|0:0,0:0:0:0:
276,72,169241,1,0,0:0:0:0:
248,100,169395,2,0,L|244:144,2,35,0|2|0,0:0|0:0|0:0,0:0:0:0:
208,104,169859,2,0,L|200:176,1,70,2|0,0:0|0:0,0:0:0:0:
228,200,170323,2,0,L|220:284,1,70,2|2,0:0|0:0,0:0:0:0:
244,304,170787,1,0,0:0:0:0:
40,280,171097,6,0,P|72:256|104:256,1,70,2|0,0:0|0:0,0:0:0:0:
136,268,171560,2,0,L|128:348,2,70,2|2|2,0:0|0:0|0:0,0:0:0:0:
140,228,172334,1,0,0:0:0:0:
192,64,172643,1,0,0:0:0:0:
228,80,172798,2,0,L|232:124,1,35,2|2,0:0|0:0,0:0:0:0:
312,236,173261,1,0,0:0:0:0:
348,228,173416,2,0,P|368:192|364:156,2,70,2|0|2,0:0|0:0|0:0,0:0:0:0:
364,264,174189,101,0,0:0:0:0:
376,300,174344,2,0,L|416:304,2,35,0|2|0,0:0|0:0|0:0,0:0:0:0:
356,332,174808,2,0,B|308:324|308:324|284:332,1,70,2|0,0:0|0:0,0:0:0:0:
252,340,175272,2,0,L|244:296,1,35,2|0,0:0|0:0,0:0:0:0:
208,308,175581,2,0,L|200:264,1,35,2|0,0:0|0:0,0:0:0:0:
192,68,176045,6,0,B|156:92|156:92|150:109|152:124,1,70,2|0,0:0|0:0,0:0:0:0:
144,156,176509,2,0,L|104:148,1,35,2|0,0:0|0:0,0:0:0:0:
160,200,176818,2,0,L|200:192,1,35,2|0,0:0|0:0,0:0:0:0:
232,184,177127,1,2,0:0:0:0:
268,200,177282,2,0,P|280:240|264:276,1,70
288,300,177746,101,2,0:0:0:0:
320,320,177901,2,0,L|392:328,1,70
420,352,178365,1,2,0:0:0:0:
308,88,178674,6,0,P|344:52|404:64,1,97.9999970092774,4|0,0:0|3:0,0:0:0:0:
448,100,179138,1,0,0:0:0:0:
452,172,179292,2,0,L|448:224,1,48.9999985046387,0|0,3:0|0:0,0:0:0:0:
376,212,179602,2,0,L|372:264,1,48.9999985046387,0|0,3:0|0:0,0:0:0:0:
308,296,179911,2,0,P|276:296|256:284,1,48.9999985046387,0|0,3:0|0:0,0:0:0:0:
252,216,180220,2,0,P|284:216|304:228,2,48.9999985046387,0|0|0,3:0|0:0|3:0,0:0:0:0:
184,248,180684,1,0,0:0:0:0:
112,232,180839,1,0,3:0:0:0:
80,168,180993,102,0,L|64:64,1,97.9999970092774
120,24,181457,2,0,B|144:16|144:16|172:20,1,48.9999985046387,0|0,3:0|0:0,0:0:0:0:
196,88,181767,2,0,B|172:96|172:96|144:92,2,48.9999985046387,0|0|0,3:0|0:0|3:0,0:0:0:0:
264,60,182231,2,0,B|316:48|316:48|344:52|356:84,1,97.9999970092774
376,144,182694,1,0,3:0:0:0:
448,144,182849,1,0,0:0:0:0:
448,144,183158,1,0,0:0:0:0:
448,216,183313,2,0,P|448:252|444:272,1,48.9999985046387,0|0,3:0|0:0,0:0:0:0:
420,332,183622,6,0,B|348:392|296:256|224:344,1,195.999994018555,4|0,2:0|3:0,0:0:0:0:
168,344,184395,1,0,0:0:0:0:
104,308,184550,1,0,3:0:0:0:
88,236,184705,2,0,L|84:124,1,97.9999970092774
156,128,185169,2,0,L|160:188,1,48.9999985046387,0|0,3:0|0:0,0:0:0:0:
232,184,185478,2,0,L|236:244,1,48.9999985046387,0|0,3:0|0:0,0:0:0:0:
380,204,185942,102,0,P|392:160|376:112,1,97.9999970092774
308,80,186406,2,0,P|324:56|340:44,1,48.9999985046387,0|0,3:0|0:0,0:0:0:0:
236,100,186715,2,0,P|236:72|244:48,1,48.9999985046387,0|0,3:0|0:0,0:0:0:0:
188,156,187024,2,0,P|168:132|164:104,1,48.9999985046387,0|0,3:0|0:0,0:0:0:0:
108,64,187334,21,0,0:0:0:0:
88,136,187488,1,0,0:0:0:0:
160,244,187798,5,0,0:0:0:0:
180,316,187952,1,0,0:0:0:0:
300,136,188261,102,8,L|296:172,3,24.4999992523194
292,196,188571,70,0,P|360:252|436:208,1,167.999994873047,4|8,0:0|0:0,0:0:0:0:
464,148,189035,1,0,0:0:0:0:
444,68,189189,2,0,P|408:88|384:136,2,83.9999974365235,0|0|8,0:0|0:0|0:0,0:0:0:0:
464,148,189653,2,0,L|456:328,1,167.999994873047,4|0,0:0|0:0,0:0:0:0:
380,348,190117,2,0,B|320:356|276:328|276:328|244:344|208:340,1,167.999994873047,8|8,0:0|0:0,0:0:0:0:
136,336,190581,1,0,0:0:0:0:
220,192,190890,70,0,L|212:24,1,167.999994873047,4|0,0:0|0:0,0:0:0:0:
132,52,191354,2,0,L|136:136,1,83.9999974365235,10|0,0:0|0:0,0:0:0:0:
60,172,191664,2,0,B|64:232|64:232|56:256,1,83.9999974365235,2|0,0:0|0:0,0:0:0:0:
116,312,191973,1,10,0:0:0:0:
196,332,192127,2,0,P|284:308|300:228,1,167.999994873047,4|0,0:0|0:0,0:0:0:0:
288,160,192591,2,0,L|268:72,1,83.9999974365235,10|10,0:0|0:0,0:0:0:0:
416,56,193055,5,10,0:0:0:0:
420,140,193210,1,10,0:0:0:0:
424,224,193365,1,10,0:0:0:0:
428,308,193519,6,0,B|344:344|344:344|304:344|256:312,1,167.999994873047,4|8,0:0|0:0,0:0:0:0:
208,268,193983,1,0,0:0:0:0:
160,196,194138,2,0,P|208:180|252:196,2,83.9999974365235,0|0|8,0:0|0:0|0:0,0:0:0:0:
108,128,194602,2,0,P|184:92|272:112,1,167.999994873047,2|0,0:0|0:0,0:0:0:0:
344,136,195066,2,0,L|360:48,1,83.9999974365235,8|0,0:0|0:0,0:0:0:0:
440,76,195375,2,0,L|424:164,1,83.9999974365235,0|0,0:0|0:0,0:0:0:0:
176,40,195839,6,0,P|140:124|196:204,1,167.999994873047,4|0,0:0|0:0,0:0:0:0:
172,272,196303,2,0,P|120:256|104:224,1,83.9999974365235,10|0,0:0|0:0,0:0:0:0:
244,232,196612,2,0,P|256:200|252:152,2,83.9999974365235,2|0|10,0:0|0:0|0:0,0:0:0:0:
304,292,197076,2,0,P|340:212|332:128,1,167.999994873047,4|0,0:0|0:0,0:0:0:0:
288,64,197540,1,10,0:0:0:0:
288,64,197694,1,10,0:0:0:0:
132,132,198004,1,0,0:0:0:0:
148,216,198158,70,0,P|204:212|232:176,1,94.499997116089,8|0,0:0|0:0,0:0:0:0:
264,164,198468,6,0,L|260:344,1,167.999994873047,4|8,0:0|0:0,0:0:0:0:
180,352,198932,1,0,0:0:0:0:
100,324,199086,2,0,P|80:272|88:240,2,83.9999974365235,0|0|8,0:0|0:0|0:0,0:0:0:0:
160,268,199550,2,0,P|184:188|148:108,1,167.999994873047,4|0,0:0|0:0,0:0:0:0:
96,52,200014,2,0,B|56:48|56:48|12:68,1,83.9999974365235,8|0,0:0|0:0,0:0:0:0:
68,132,200323,2,0,B|24:152|24:152|16:192,1,83.9999974365235,0|0,0:0|0:0,0:0:0:0:
180,348,200787,6,0,P|268:348|300:280,1,167.999994873047,4|0,0:0|0:0,0:0:0:0:
336,208,201251,2,0,P|376:244|380:284,1,83.9999974365235,10|0,0:0|0:0,0:0:0:0:
296,140,201560,2,0,P|336:128|380:144,2,83.9999974365235,2|0|10,0:0|0:0|0:0,0:0:0:0:
244,204,202024,2,0,L|64:188,1,167.999994873047,4|0,0:0|0:0,0:0:0:0:
52,108,202488,1,10,0:0:0:0:
100,40,202643,2,0,L|280:56,1,167.999994873047,10|0,0:0|0:0,0:0:0:0:
348,80,203107,2,0,P|354:108|352:132,3,41.9999987182618,8|0|0|0,0:0|0:0|0:0|0:0,0:0:0:0:
356,156,203416,6,0,B|364:224|340:264|340:264|384:304,1,167.999994873047,4|8,0:0|0:0,0:0:0:0:
452,188,204035,2,0,P|452:148|444:100,2,83.9999974365235,0|0|8,0:0|0:0|0:0,0:0:0:0:
396,252,204499,2,0,P|304:248|264:176,1,167.999994873047,4|0,0:0|0:0,0:0:0:0:
212,128,204962,2,0,L|112:136,1,83.9999974365235,8|0,0:0|0:0,0:0:0:0:
104,216,205272,2,0,L|204:208,1,83.9999974365235,0|0,0:0|0:0,0:0:0:0:
48,148,205736,70,0,P|16:236|64:296,1,167.999994873047,4|0,0:0|0:0,0:0:0:0:
114,365,206200,2,0,B|140:340|140:340|140:292,1,83.9999974365235,10|0,0:0|0:0,0:0:0:0:
220,256,206509,2,0,L|220:344,2,83.9999974365235,2|0|10,0:0|0:0|0:0,0:0:0:0:
244,176,206973,2,0,B|336:168|336:168|400:224,1,167.999994873047,4|0,0:0|0:0,0:0:0:0:
420,300,207437,5,8,0:0:0:0:
356,352,207591,1,0,0:0:0:0:
276,328,207746,2,0,P|228:304|184:316,1,83.9999974365235,8|8,0:0|0:0,0:0:0:0:
120,332,208055,2,8,L|108:288,4,41.9999987182618,8|8|8|8|4,0:0|0:0|0:0|0:0|0:0,0:0:0:0:
256,192,208442,12,0,210684,0:0:0:0:
376,128,210993,5,0,0:0:0:0:
420,64,211148,2,0,P|376:48|344:56,1,77.0000023498536,8|0,0:0|0:0,0:0:0:0:
296,112,211457,2,0,L|292:200,1,77.0000023498536
244,248,211767,2,0,P|160:268|112:216,1,154.000004699707,8|0,0:0|0:0,0:0:0:0:
92,152,212231,5,0,0:0:0:0:
36,204,212385,2,0,L|24:292,1,77.0000023498536,8|8,0:0|0:0,0:0:0:0:
76,336,212694,2,0,B|104:368|152:368,1,77.0000023498536
220,360,213004,2,0,P|296:332|336:344,1,115.50000352478,8|0,0:0|0:0,0:0:0:0:
360,360,213313,70,0,L|376:280,1,77.0000023498536,4|0,0:0|0:0,0:0:0:0:
392,208,213622,1,8,0:0:0:0:
456,252,213777,1,0,0:0:0:0:
468,176,213932,2,0,L|448:20,1,154.000004699707,0|8,0:0|0:0,0:0:0:0:
372,20,214395,1,0,0:0:0:0:
304,56,214550,6,0,P|328:88|376:92,2,77.0000023498536,0|0|8,0:0|0:0|0:0,0:0:0:0:
228,36,215014,1,0,0:0:0:0:
164,80,215169,2,0,L|80:64,2,77.0000023498536,0|0|8,0:0|0:0|0:0,0:0:0:0:
236,112,215633,2,0,B|212:156|164:160|164:160|97:146,1,154.000004699707,4|0,0:0|0:0,0:0:0:0:
32,112,216097,6,0,P|16:68|32:24,1,77.0000023498536,8|8,0:0|0:0,0:0:0:0:
102,147,216406,2,0,P|108:175|92:219,1,77.0000023498536
148,276,216715,2,0,P|188:196|180:128,1,154.000004699707,8|0,0:0|0:0,0:0:0:0:
216,64,217179,5,8,0:0:0:0:
284,100,217334,2,0,L|368:112,1,77.0000023498536,0|8,0:0|0:0,0:0:0:0:
360,110,217798,1,0,0:0:0:0:
408,172,217952,2,0,P|408:204|404:228,3,38.5000011749268,8|0|0|0,0:0|0:0|0:0|0:0,0:0:0:0:
404,244,218261,70,0,P|364:264|312:240,1,83.9999974365235,4|0,0:0|0:0,0:0:0:0:
252,216,218571,2,0,L|256:316,1,83.9999974365235,8|0,0:0|0:0,0:0:0:0:
192,356,218880,1,8,0:0:0:0:
108,356,219035,1,0,0:0:0:0:
48,296,219189,2,0,L|40:120,1,167.999994873047,8|8,0:0|0:0,0:0:0:0:
84,56,219653,5,0,0:0:0:0:
152,104,219808,2,0,P|204:104|232:72,1,83.9999974365235,8|0,0:0|0:0,0:0:0:0:
280,148,220117,2,0,L|272:232,2,83.9999974365235,8|0|8,0:0|0:0|0:0,0:0:0:0:
292,64,220581,6,0,B|336:65|360:116|360:116|354:200,1,167.999994873047,4|0,0:0|0:0,0:0:0:0:
360,276,221045,2,0,P|404:264|428:232,1,83.9999974365235,8|0,0:0|0:0,0:0:0:0:
444,152,221354,2,0,L|448:68,1,83.9999974365235,8|0,0:0|0:0,0:0:0:0:
376,24,221664,2,0,P|332:36|309:65,1,83.9999974365235,8|0,0:0|0:0,0:0:0:0:
256,132,221973,5,8,0:0:0:0:
176,104,222127,1,0,0:0:0:0:
188,188,222282,2,0,L|188:276,1,83.9999974365235,8|8,0:0|0:0,0:0:0:0:
128,332,222591,2,0,P|92:348|44:332,1,83.9999974365235,8|0,0:0|0:0,0:0:0:0:
12,260,222901,2,0,L|12:128,1,125.999996154785,8|0,0:0|0:0,0:0:0:0:
12,100,223210,70,0,B|48:72|48:72|88:72,1,83.9999974365235,4|0,0:0|0:0,0:0:0:0:
168,84,223519,1,10,0:0:0:0:
228,144,223674,1,0,0:0:0:0:
240,228,223828,2,0,B|240:312|240:312|260:348|312:360,1,167.999994873047,10|10,0:0|0:0,0:0:0:0:
388,340,224292,1,0,0:0:0:0:
436,272,224447,6,0,L|448:184,2,83.9999974365235,10|0|10,0:0|0:0|0:0,0:0:0:0:
352,260,224911,1,0,0:0:0:0:
292,200,225066,2,0,L|280:112,2,83.9999974365235,10|0|10,0:0|0:0|0:0,0:0:0:0:
240,264,225530,2,0,P|148:272|96:220,1,167.999994873047,4|0,0:0|0:0,0:0:0:0:
32,276,225993,6,0,P|64:320|96:340,1,83.9999974365235,10|0,0:0|0:0,0:0:0:0:
172,356,226303,1,10,0:0:0:0:
252,332,226457,1,0,0:0:0:0:
308,268,226612,2,0,L|320:116,1,125.999996154785,10|0,0:0|0:0,0:0:0:0:
324,100,226921,6,8,L|416:80,1,83.9999974365235,10|8,0:0|0:0,0:0:0:0:
256,36,227231,2,0,L|348:16,1,83.9999974365235,10|8,0:0|0:0,0:0:0:0:
240,116,227540,2,0,L|232:168,3,41.9999987182618,8|0|8|0,0:0|0:0|0:0|0:0,0:0:0:0:
200,168,227849,2,0,L|192:216,2,41.9999987182618,8|8|12,0:0|0:0|0:0,0:0:0:0:
256,192,228081,12,0,232488,0:0:0:0:
