osu file format v14

[General]
AudioFilename: Gumi - An Ecstatic Vivace (--------).mp3
AudioLeadIn: 1500
PreviewTime: 7818
Countdown: 1
SampleSet: Soft
StackLeniency: 0.7
Mode: 0
LetterboxInBreaks: 1
WidescreenStoryboard: 1

[Editor]
Bookmarks: 51126,58344,65562,72780,76389,83607,98043,105261,112479,119697,123306,129622,130524,144960,152178,163006,166615,170224,181051,184660,191878,209021
DistanceSpacing: 1.4
BeatDivisor: 4
GridSize: 4
TimelineZoom: 1

[Metadata]
Title:An Ecstatic Vivace
TitleUnicode:An Ecstatic Vivace
Artist:Last Note.
ArtistUnicode:Last Note.
Creator:Pizza Kun
Version:Pizza style AR9
Source:Vocaloid
Tags:Gumi
BeatmapID:745578
BeatmapSetID:336940

[Difficulty]
HPDrainRate:7
CircleSize:4
OverallDifficulty:7
ApproachRate:9
SliderMultiplier:1.9
SliderTickRate:1

[Events]
//Background and Video events
0,0,"249516-gumi-vocaloid-panic-gumi-panic.jpg",0,0
//Break Periods
2,83806,90225
2,159396,161954
2,192077,198496
//Storyboard Layer 0 (Background)
//Storyboard Layer 1 (Fail)
//Storyboard Layer 2 (Pass)
//Storyboard Layer 3 (Foreground)
//Storyboard Sound Samples

[TimingPoints]
600,225.563909774436,4,2,0,65,1,0
600,-133.333333333333,4,2,0,65,0,0
7818,-100,4,1,0,75,0,1
22254,-133.333333333333,4,2,0,65,0,0
51126,-181.818181818182,4,2,0,60,0,0
56539,-133.333333333333,4,2,0,65,0,0
65562,-100,4,1,0,75,0,1
72780,-133.333333333333,4,1,0,75,0,1
76389,-100,4,1,0,75,0,1
83607,-100,4,2,0,65,0,0
90825,-133.333333333333,4,2,0,65,0,0
98043,-181.818181818182,4,2,0,60,0,0
105261,-133.333333333333,4,2,0,60,0,0
112479,-100,4,1,0,75,0,1
119697,-133.333333333333,4,1,0,75,0,1
123306,-100,4,1,0,75,0,1
129622,-133.333333333333,4,2,0,60,0,0
130299,-133.333333333333,4,2,0,100,0,0
130524,-100,4,1,0,75,0,1
144960,-133.333333333333,4,2,0,65,0,0
162498,-100,4,1,0,75,0,0
191878,-100,4,1,0,60,0,1
209021,-181.818181818182,4,2,0,60,0,0

[Colours]
Combo1 : 252,126,44
Combo2 : 33,140,30
Combo3 : 5,226,33
Combo4 : 173,84,3

[HitObjects]
68,192,600,6,0,P|84:244|116:264,1,71.2500027179719,2|0,0:0|0:0,0:0:0:0:
216,204,825,2,0,P|200:152|168:132,1,71.2500027179719,2|0,0:0|0:0,0:0:0:0:
144,200,1051,2,0,P|204:276|264:256,1,142.500005435944,2|0,0:0|0:0,0:0:0:0:
216,204,1389,2,0,B|216:144|160:128|160:128|180:92,1,142.500005435944,2|0,0:0|0:0,0:0:0:0:
332,93,1727,2,0,B|352:128|352:128|296:144|296:204,1,142.500005435944,2|0,0:0|0:0,0:0:0:0:
296,204,2178,1,2,0:0:0:0:
308,324,2404,6,0,P|264:340|220:324,1,71.2500027179719,2|0,0:0|0:0,0:0:0:0:
227,206,2630,2,0,P|261:196|296:204,1,71.2500027179719,2|0,0:0|0:0,0:0:0:0:
264,268,2855,2,0,B|212:288|152:248|104:288,1,142.500005435944,2|0,0:0|0:0,0:0:0:0:
144,344,3193,2,0,P|192:292|152:212,1,142.500005435944,2|0,0:0|0:0,0:0:0:0:
104,156,3532,2,0,L|48:104,1,71.2500027179719,2|0,0:0|0:0,0:0:0:0:
180,80,3757,2,0,L|156:8,1,71.2500027179719,2|0,0:0|0:0,0:0:0:0:
284,112,3983,2,0,L|228:172,1,71.2500027179719,2|0,0:0|0:0,0:0:0:0:
264,268,4209,6,0,P|304:284|336:272,1,71.2500027179719,2|0,0:0|0:0,0:0:0:0:
360,180,4434,2,0,P|400:168|432:180,1,71.2500027179719,2|0,0:0|0:0,0:0:0:0:
492,252,4660,2,0,B|492:328|492:328|440:296|420:328,1,142.500005435944,2|0,0:0|0:0,0:0:0:0:
340,356,4998,2,0,B|280:380|232:336|184:364,1,142.500005435944,2|0,0:0|0:0,0:0:0:0:
100,356,5336,2,0,P|68:336|64:296,1,71.2500027179719,2|0,0:0|0:0,0:0:0:0:
112,216,5562,2,0,P|152:228|180:216,1,71.2500027179719,2|0,0:0|0:0,0:0:0:0:
112,116,5787,2,0,P|72:104|44:116,1,71.2500027179719,2|0,0:0|0:0,0:0:0:0:
36,216,6013,5,2,0:0:0:0:
112,280,6126,1,0,0:0:0:0:
188,216,6239,1,2,0:0:0:0:
256,364,6351,1,2,0:0:0:0:
340,216,6464,1,2,0:0:0:0:
340,216,6690,1,0,0:0:0:0:
340,288,6803,2,0,B|340:348|340:348|380:380|420:348,1,142.500005435944,2|0,0:0|0:0,0:0:0:0:
476,200,7141,2,0,B|484:156|472:136|472:136|448:136|448:136|452:112|400:96,1,142.500005435944,2|0,0:0|1:0,0:0:0:0:
413,100,7818,6,0,B|372:80|372:80|324:100,1,95,4|0,0:2|0:0,0:0:0:0:
340,216,8043,2,0,B|381:236|381:236|429:216,1,95,8|0,0:0|0:0,0:0:0:0:
292,204,8269,2,0,B|248:188|212:184|212:184|240:256|172:272,1,190,0|8,0:0|0:0,0:0:0:0:
160,200,8607,2,0,P|236:224|224:324,1,190
104,344,8945,2,0,L|196:380,1,95,8|0,0:0|0:0,0:0:0:0:
160,200,9171,2,0,L|96:128,1,95
40,64,9396,1,8,0:0:0:0:
256,152,9509,1,0,0:0:0:0:
200,96,9622,6,0,P|252:72|296:84,1,95
464,212,9848,2,0,P|412:236|368:224,1,95,8|0,0:0|0:0,0:0:0:0:
388,160,10073,2,0,P|448:224|392:296,1,190,0|8,0:0|0:0,0:0:0:0:
268,332,10412,2,0,B|212:304|172:332|172:332|192:292|164:240,1,190
104,128,10750,2,0,B|80:176|80:176|36:168,1,95,8|0,0:0|0:0,0:0:0:0:
200,96,10975,2,0,B|240:128|240:128|284:108,1,95,8|0,0:0|0:0,0:0:0:0:
120,36,11201,1,8,0:0:0:0:
184,200,11314,1,0,0:0:0:0:
312,228,11427,6,0,P|356:248|400:232,1,95,4|0,0:2|0:0,0:0:0:0:
404,84,11652,2,0,P|360:64|316:80,1,95,8|0,0:0|0:0,0:0:0:0:
436,164,11878,2,0,B|484:192|476:248|476:248|488:288|488:288|448:332,1,190,0|8,0:0|0:0,0:0:0:0:
380,356,12216,2,0,B|332:364|292:332|292:332|256:364|196:348,1,190
184,200,12554,2,0,L|228:112,1,95,8|0,0:0|0:0,0:0:0:0:
88,232,12780,2,0,L|44:320,1,95
40,144,13006,2,0,L|84:56,1,95,8|0,0:0|0:0,0:0:0:0:
212,24,13231,6,0,P|264:8|304:32,1,95
396,120,13457,1,8,0:0:0:0:
256,168,13569,1,8,0:0:0:0:
410,324,13682,2,0,P|363:318|332:284,1,95,8|0,0:0|0:0,0:0:0:0:
488,248,13908,1,8,0:0:0:0:
396,256,14021,2,0,P|328:212|260:280,1,190
396,256,14359,2,0,L|376:160,1,95,8|0,0:0|0:0,0:0:0:0:
260,280,14584,2,0,L|280:376,1,95
108,292,14810,2,0,L|88:196,1,95,8|0,0:0|0:0,0:0:0:0:
72,104,15036,6,0,P|132:116|160:92,1,95,4|0,0:2|0:0,0:0:0:0:
256,12,15261,2,0,L|256:112,1,95,8|0,0:0|0:0,0:0:0:0:
355,97,15487,2,0,P|396:119|440:104,1,95
404,32,15712,1,8,0:0:0:0:
396,256,15825,2,0,B|344:224|344:224|332:272|284:268|284:268|276:320,1,190
108,292,16163,2,0,B|120:272|144:272|144:272|132:252|144:220,1,95,8|0,0:0|0:0,0:0:0:0:
104,56,16389,2,0,B|92:76|68:76|68:76|80:96|68:128,1,95
256,192,16615,2,0,B|278:196|287:218|287:218|301:200|335:201,1,95,8|0,0:0|0:0,0:0:0:0:
456,148,16840,6,0,P|484:188|480:232,1,95
456,148,17066,2,0,P|428:108|432:64,1,95,8|0,0:0|0:0,0:0:0:0:
336,24,17291,2,0,P|256:68|172:16,1,190,0|8,0:0|0:0,0:0:0:0:
204,184,17630,2,0,B|204:140|204:140|256:156|304:140|304:140|304:188,1,190
300,344,17968,2,0,P|256:360|208:344,1,95,8|0,0:0|0:0,0:0:0:0:
208,232,18193,2,0,P|252:216|300:232,1,95
196,288,18419,2,0,P|148:272|124:232,1,95,8|0,0:0|0:0,0:0:0:0:
108,88,18645,6,0,B|60:92|60:92|72:116|56:148,1,95
204,184,18870,2,0,B|252:180|252:180|240:156|256:124,1,95,8|0,0:0|0:0,0:0:0:0:
352,44,19096,2,0,B|352:92|352:92|388:128,1,95
500,196,19321,1,8,0:0:0:0:
400,220,19434,2,0,B|400:280|400:280|424:328|464:324|464:324|484:280,1,190
500,196,19772,2,0,L|500:92,1,95,8|0,0:0|0:0,0:0:0:0:
288,192,19998,2,0,L|288:292,1,95
400,220,20224,2,0,L|400:124,1,95,8|0,0:0|0:0,0:0:0:0:
352,44,20449,5,8,0:0:0:0:
280,96,20562,1,0,0:0:0:0:
212,40,20675,1,8,0:0:0:0:
148,96,20787,1,0,0:0:0:0:
88,36,20900,2,0,P|60:76|64:128,1,95,8|0,0:0|0:0,0:0:0:0:
112,264,21126,5,8,0:0:0:0:
200,186,21239,1,0,0:0:0:0:
280,264,21351,1,4,0:2:0:0:
196,334,21464,1,8,0:0:0:0:
200,186,21577,1,8,0:0:0:0:
355,186,21690,1,8,0:0:0:0:
355,338,21803,1,8,0:0:0:0:
355,338,22028,1,8,0:0:0:0:
256,96,22254,6,0,P|212:80|168:96,1,71.2500027179719,4|0,0:0|0:0,0:0:0:0:
256,192,22479,2,0,P|300:208|344:192,1,71.2500027179719,8|0,0:0|0:0,0:0:0:0:
424,204,22705,1,0,0:0:0:0:
388,328,22818,1,0,0:0:0:0:
292,300,22930,2,0,B|248:288|200:352|140:312,1,142.500005435944,8|0,0:0|0:0,0:0:0:0:
172,220,23269,1,0,0:0:0:0:
84,268,23381,2,0,P|52:236|52:200,1,71.2500027179719,8|0,0:0|0:0,0:0:0:0:
64,112,23607,1,0,0:0:0:0:
256,96,23720,1,0,0:0:0:0:
164,56,23833,1,8,0:0:0:0:
164,56,24058,6,0,P|156:136|212:180,1,142.500005435944,0|8,0:0|0:0,0:0:0:0:
292,204,24396,1,0,0:0:0:0:
256,96,24509,2,0,P|324:92|364:120,1,106.875004076958
400,136,24735,2,0,B|372:192|456:220|412:292,1,142.500005435944,8|0,0:0|0:0,0:0:0:0:
348,340,25073,2,0,P|324:296|336:264,1,71.2500027179719,0|8,0:0|0:0,0:0:0:0:
292,204,25299,2,0,P|252:236|180:184,1,142.500005435944
148,96,25637,2,0,B|136:124|136:124|92:156|100:208|100:208|84:244,1,142.500005435944,8|4,0:0|0:0,0:0:0:0:
292,204,26088,5,8,0:0:0:0:
292,204,26201,1,0,0:0:0:0:
292,204,26314,2,0,L|364:224,1,71.2500027179719
316,104,26539,2,0,L|244:84,1,71.2500027179719,8|0,0:0|0:0,0:0:0:0:
380,48,26765,2,0,P|416:64|452:48,1,71.2500027179719
496,140,26990,1,8,0:0:0:0:
412,136,27103,2,0,P|424:192|504:224,1,142.500005435944
492,328,27442,2,0,B|432:364|376:316|340:356,1,142.500005435944,8|8,0:0|0:0,0:0:0:0:
256,344,27893,5,8,0:0:0:0:
220,328,28118,1,8,0:0:0:0:
176,304,28344,1,8,0:0:0:0:
96,212,28457,6,0,B|168:228|168:228|160:184|176:160,1,142.500005435944,4|0,0:0|0:0,0:0:0:0:
260,104,28795,2,0,L|288:184,1,71.2500027179719,8|0,0:0|0:0,0:0:0:0:
384,104,29021,2,0,L|406:36,1,71.2500027179719
424,272,29246,2,0,L|401:339,1,71.2500027179719,8|0,0:0|0:0,0:0:0:0:
396,192,29472,6,0,B|344:208|336:264|336:264|272:264,1,142.500005435944,4|8,0:0|0:0,0:0:0:0:
96,212,29923,2,0,B|96:272|96:272|136:296|180:276,1,142.500005435944,0|8,0:0|0:0,0:0:0:0:
196,180,30261,1,0,0:0:0:0:
120,116,30374,2,0,P|80:112|52:128,1,71.2500027179719
132,24,30599,1,8,0:0:0:0:
200,96,30712,2,0,P|240:100|268:84,1,71.2500027179719
360,48,30938,1,0,0:0:0:0:
328,144,31051,1,8,0:0:0:0:
328,144,31276,6,0,B|312:200|312:200|364:196|384:228|384:228,1,142.500005435944,0|8,0:0|0:0,0:0:0:0:
264,312,31615,1,0,0:0:0:0:
328,272,31727,2,0,P|392:304|452:260,1,142.500005435944,0|8,0:0|0:0,0:0:0:0:
480,176,32066,1,0,0:0:0:0:
328,144,32178,2,0,P|376:132|392:112,1,71.2500027179719
320,44,32404,1,8,0:0:0:0:
236,96,32517,2,0,B|184:116|160:52|84:116,1,142.500005435944
16,144,32855,2,0,P|48:184|140:184,1,142.500005435944,8|4,0:0|0:0,0:0:0:0:
140,288,33193,5,0,0:0:0:0:
232,248,33306,2,0,B|244:284|244:284|228:320,1,71.2500027179719,8|0,0:0|0:0,0:0:0:0:
308,228,33532,2,0,B|296:192|296:192|312:156,1,71.2500027179719
408,164,33757,2,0,B|420:200|420:200|404:236,1,71.2500027179719,8|0,0:0|0:0,0:0:0:0:
364,320,33983,2,0,P|416:336|484:284,1,142.500005435944,0|8,0:0|0:0,0:0:0:0:
480,188,34321,2,0,B|480:116|480:116|440:72|392:92,1,142.500005435944,0|8,0:0|0:0,0:0:0:0:
408,164,34660,5,8,0:0:0:0:
360,12,34772,1,8,0:0:0:0:
320,84,34885,2,0,P|256:108|184:80,1,142.500005435944,4|8,0:0|0:0,0:0:0:0:
192,300,35336,2,0,P|256:276|328:304,1,142.500005435944,4|8,0:0|0:0,0:0:0:0:
156,192,35787,2,0,B|120:208|120:208|92:192,1,71.2500027179719,12|0,0:0|0:0,0:0:0:0:
356,192,36013,2,0,B|392:208|392:208|420:192,1,71.2500027179719,12|0,0:0|0:0,0:0:0:0:
256,156,36239,1,8,0:0:0:0:
256,156,36351,1,8,0:0:0:0:
256,156,36464,1,8,0:0:0:0:
256,156,36577,1,8,0:0:0:0:
256,264,36690,6,0,B|256:228|256:228|184:216|188:148,1,142.500005435944,0|8,0:0|0:0,0:0:0:0:
184,80,37028,1,0,0:0:0:0:
256,48,37141,2,0,B|256:84|256:84|328:96|324:164,1,142.500005435944,0|8,0:0|0:0,0:0:0:0:
332,252,37479,1,0,0:0:0:0:
400,324,37592,2,0,P|420:288|424:248,1,71.2500027179719
488,124,37818,1,8,0:0:0:0:
416,128,37930,2,0,P|428:168|456:188,1,71.2500027179719
504,252,38156,1,0,0:0:0:0:
400,324,38269,1,8,0:0:0:0:
400,324,38494,6,0,B|340:356|264:300|236:344,1,142.500005435944,0|8,0:0|0:0,0:0:0:0:
160,344,38833,1,0,0:0:0:0:
152,248,38945,2,0,P|120:228|84:232,1,71.2500027179719
40,280,39171,2,0,P|84:300|152:216,1,142.500005435944,8|0,0:0|0:0,0:0:0:0:
188,156,39509,1,0,0:0:0:0:
100,104,39622,2,0,P|88:64|104:36,1,71.2500027179719,8|0,0:0|0:0,0:0:0:0:
200,28,39848,1,0,0:0:0:0:
256,112,39960,1,0,0:0:0:0:
316,32,40073,1,8,0:0:0:0:
260,56,40186,1,8,0:0:0:0:
348,104,40299,6,0,P|396:112|420:104,1,71.2500027179719,4|0,0:0|0:0,0:0:0:0:
360,188,40524,2,0,P|312:180|288:188,1,71.2500027179719,8|0,0:0|0:0,0:0:0:0:
292,288,40750,2,0,B|336:256|400:336|448:288,1,142.500005435944,0|8,0:0|0:0,0:0:0:0:
228,292,41201,2,0,P|188:304|156:292,1,71.2500027179719
84,232,41427,1,8,0:0:0:0:
180,208,41539,2,0,P|160:160|128:144,1,71.2500027179719
48,120,41765,1,0,0:0:0:0:
116,48,41878,2,0,B|176:16|216:100|256:56,1,142.500005435944,8|0,0:0|0:0,0:0:0:0:
332,40,42329,5,8,0:0:0:0:
416,28,42554,6,0,L|416:100,1,71.2500027179719
352,144,42780,1,8,0:0:0:0:
480,144,42893,1,0,0:0:0:0:
380,224,43006,2,0,P|344:248|304:244,1,71.2500027179719
448,224,43231,2,0,P|484:248|524:244,1,71.2500027179719,8|0,0:0|0:0,0:0:0:0:
416,352,43457,2,0,L|416:276,1,71.2500027179719,8|0,0:0|0:0,0:0:0:0:
416,28,43682,2,0,L|416:104,1,71.2500027179719,8|0,0:0|0:0,0:0:0:0:
372,192,43908,6,0,B|316:212|284:156|224:200,1,142.500005435944,4|8,0:0|0:0,0:0:0:0:
184,280,44246,1,0,0:0:0:0:
284,252,44359,2,0,P|312:196|256:124,1,142.500005435944,0|8,0:0|0:0,0:0:0:0:
192,76,44697,1,0,0:0:0:0:
96,108,44810,2,0,P|56:116|20:104,1,71.2500027179719
120,36,45036,1,8,0:0:0:0:
160,128,45148,2,0,P|136:164|88:172,1,71.2500027179719
60,260,45374,1,0,0:0:0:0:
184,280,45487,2,0,B|236:320|292:260|336:296,1,142.500005435944,8|0,0:0|0:0,0:0:0:0:
384,84,45938,6,8,P|420:56|448:52,1,71.2500027179719
452,136,46163,1,0,0:0:0:0:
312,136,46276,1,0,0:0:0:0:
396,192,46389,2,0,P|432:212|472:212,1,71.2500027179719,8|0,0:0|0:0,0:0:0:0:
384,84,46615,2,0,P|352:56|312:48,1,71.2500027179719
220,116,46840,1,8,0:0:0:0:
172,52,46953,2,0,P|132:96|160:176,1,142.500005435944
220,244,47291,1,8,0:0:0:0:
72,240,47404,1,8,0:0:0:0:
220,244,47517,6,0,P|236:288|260:300,1,71.2500027179719,4|0,0:0|0:0,0:0:0:0:
352,320,47742,1,8,0:0:0:0:
448,296,47855,1,0,0:0:0:0:
484,188,47968,2,0,P|448:204|412:184,1,71.2500027179719
364,108,48193,1,8,0:0:0:0:
272,136,48306,2,0,P|208:164|140:124,1,142.500005435944
220,244,48645,2,0,P|264:256|292:244,1,71.2500027179719,8|0,0:0|0:0,0:0:0:0:
188,240,48870,2,0,P|144:228|116:240,1,71.2500027179719
196,324,49096,1,8,0:0:0:0:
256,160,49209,1,0,0:0:0:0:
256,60,49321,6,0,P|232:80|192:80,1,71.2500027179719,4|0,0:0|0:0,0:0:0:0:
368,24,49547,1,0,0:0:0:0:
348,124,49660,1,8,0:0:0:0:
444,84,49772,2,0,P|456:128|480:144,1,71.2500027179719
496,240,49998,1,8,0:0:0:0:
400,220,50111,1,0,0:0:0:0:
300,232,50224,6,0,B|296:264|324:292|324:292|312:316|288:328,1,106.875004076958,12|0,0:0|0:0,0:0:0:0:
252,336,50449,2,0,P|196:348|144:308,1,106.875004076958,12|0,0:0|0:0,0:0:0:0:
120,288,50675,2,0,P|164:252|168:200,1,106.875004076958,12|0,0:0|0:0,0:0:0:0:
148,160,50900,2,0,B|116:96|116:96|144:52,1,106.875004076958,12|0,0:0|0:0,0:0:0:0:
180,44,51126,6,0,P|232:68|328:44,1,156.750004783631,4|0,0:0|0:0,0:0:0:0:
396,32,51577,2,0,B|400:100|344:116|344:116,1,104.500003189087,8|0,0:0|0:0,0:0:0:0:
280,148,51915,2,0,B|280:200|280:200|312:184|340:204,1,104.500003189087,8|8,0:0|0:0,0:0:0:0:
392,240,52254,2,0,L|384:304,1,52.2500015945435
304,336,52479,2,0,L|284:288,1,52.2500015945435,8|0,0:0|0:0,0:0:0:0:
196,264,52705,2,0,L|176:320,1,52.2500015945435,0|8,0:0|0:0,0:0:0:0:
80,328,52930,6,0,L|64:272,3,52.2500015945435,8|0|8|0,0:0|0:0|0:0|0:0,0:0:0:0:
36,168,53381,2,0,P|72:188|128:156,1,104.500003189087,8|0,0:0|0:0,0:0:0:0:
92,96,53720,2,0,P|140:88|192:132,1,104.500003189087,8|0,0:0|0:0,0:0:0:0:
240,168,54058,2,0,P|272:184|292:184,1,52.2500015945435,8|0,0:0|0:0,0:0:0:0:
380,96,54284,2,0,P|352:84|328:84,1,52.2500015945435,12|0,0:0|0:0,0:0:0:0:
396,208,54509,2,0,P|428:224|448:224,1,52.2500015945435,8|8,0:0|0:0,0:0:0:0:
316,244,54735,6,0,B|284:292|284:292|244:256|224:272,1,104.500003189087,4|0,0:0|0:0,0:0:0:0:
208,348,55073,1,0,0:0:0:0:
171,267,55186,2,0,B|172:256|132:292|132:292|100:244,1,104.500003189087,8|0,0:0|0:0,0:0:0:0:
64,136,55524,2,0,P|104:156|156:120,1,104.500003189087,8|0,0:0|0:0,0:0:0:0:
228,48,55863,2,0,L|248:104,1,52.2500015945435,8|0,0:0|0:0,0:0:0:0:
312,204,56088,2,0,L|320:140,1,52.2500015945435
400,96,56314,2,0,L|424:160,1,52.2500015945435,8|0,0:0|0:0,0:0:0:0:
456,280,56539,6,0,B|416:328|360:256|304:296,1,142.500005435944,0|0,0:0|0:0,0:0:0:0:
256,364,56878,1,0,0:0:0:0:
191,287,56990,2,0,B|152:256|96:328|56:280,1,142.500005435944,8|0,0:0|0:0,0:0:0:0:
112,196,57329,2,0,P|136:164|96:76,1,142.500005435944,8|0,0:0|0:0,0:0:0:0:
196,48,57667,2,0,P|232:72|272:68,1,71.2500027179719,8|0,0:0|0:0,0:0:0:0:
356,48,57893,5,8,0:0:0:0:
356,48,58006,1,8,0:0:0:0:
356,48,58118,1,8,0:0:0:0:
356,48,58231,1,8,0:0:0:0:
440,104,58344,2,0,P|452:144|440:180,1,71.2500027179719,8|0,0:0|0:0,0:0:0:0:
348,152,58569,1,0,0:0:0:0:
396,240,58682,2,0,B|300:280|272:192|240:260,1,142.500005435944,8|0,0:0|0:0,0:0:0:0:
172,284,59021,1,8,0:0:0:0:
184,152,59133,1,0,0:0:0:0:
104,216,59246,6,0,P|80:248|80:288,2,71.2500027179719,8|8|0,0:0|0:0|0:0,0:0:0:0:
8,192,59584,1,0,0:0:0:0:
108,180,59697,2,0,P|132:148|132:108,2,71.2500027179719,8|8|0,0:0|0:0|0:0,0:0:0:0:
208,192,60036,1,0,0:0:0:0:
292,248,60148,6,0,P|332:264|372:244,1,71.2500027179719,8|0,0:0|0:0,0:0:0:0:
420,148,60374,2,0,P|380:132|340:152,1,71.2500027179719,8|0,0:0|0:0,0:0:0:0:
440,224,60599,2,0,P|480:200|488:112,1,142.500005435944,8|0,0:0|0:0,0:0:0:0:
408,48,60938,2,0,P|368:72|276:48,1,142.500005435944,8|0,0:0|0:0,0:0:0:0:
188,92,61276,2,0,L|224:164,1,71.2500027179719,8|0,0:0|0:0,0:0:0:0:
108,180,61502,2,0,L|60:252,1,71.2500027179719
184,276,61727,2,8,L|248:328,1,71.2500027179719
336,344,61953,6,0,P|376:352|408:344,1,71.2500027179719,4|0,0:0|0:0,0:0:0:0:
372,252,62178,1,8,0:0:0:0:
456,152,62291,2,0,P|452:192|464:224,1,71.2500027179719
380,76,62517,1,0,0:0:0:0:
281,220,62630,2,0,P|292:187|288:152,1,71.2500027179719,8|0,0:0|0:0,0:0:0:0:
184,276,62855,1,0,0:0:0:0:
56,100,62968,2,0,P|100:112|132:96,1,71.2500027179719,0|8,0:0|0:0,0:0:0:0:
16,280,63193,1,0,0:0:0:0:
100,228,63306,5,8,0:0:0:0:
128,192,63419,1,8,0:0:0:0:
176,184,63532,1,8,0:0:0:0:
224,192,63645,1,8,0:0:0:0:
264,208,63757,2,0,B|316:232|316:232|340:188|396:200,1,142.500005435944,4|0,0:0|0:0,0:0:0:0:
408,296,64096,1,0,0:0:0:0:
256,292,64209,5,8,0:0:0:0:
256,91,64321,1,8,0:0:0:0:
155,191,64434,1,8,0:0:0:0:
356,192,64547,1,12,0:0:0:0:
356,192,64772,2,0,P|412:220|432:216,1,71.2500027179719
504,168,64998,1,0,0:0:0:0:
428,104,65111,1,8,0:0:0:0:
428,104,65224,1,8,0:0:0:0:
428,104,65336,1,8,0:0:0:0:
428,104,65449,1,8,0:0:0:0:
256,91,65562,6,0,B|232:132|232:132|252:192,1,95,4|0,0:0|0:0,0:0:0:0:
356,192,65787,1,8,0:0:0:0:
264,249,65900,2,0,B|280:295|280:295|256:336,1,95,0|0,0:0|0:0,0:0:0:0:
128,296,66126,1,0,0:0:0:0:
68,176,66239,2,0,B|44:216|44:216|64:264,1,95,8|0,0:0|0:0,0:0:0:0:
128,144,66464,2,0,B|172:160|172:160|216:136,2,95,0|0|8,0:0|0:0|0:0,0:0:0:0:
24,60,66803,2,0,B|68:8|156:92|216:52,1,190
336,40,67141,5,8,0:0:0:0:
256,192,67254,1,0,0:0:0:0:
364,268,67366,2,0,B|408:288|408:288|452:268,1,95
340,196,67592,1,8,0:0:0:0:
456,128,67705,2,0,B|412:108|412:108|368:128,1,95
484,200,67930,1,0,0:0:0:0:
364,268,68043,2,0,B|304:304|252:228|176:288,1,190,8|0,0:0|0:0,0:0:0:0:
128,352,68381,5,0,0:0:0:0:
52,244,68494,2,0,P|32:200|48:152,1,95,8|0,0:0|0:0,0:0:0:0:
108,40,68720,2,0,P|156:56|204:44,1,95
332,40,68945,1,8,0:0:0:0:
240,136,69058,1,8,0:0:0:0:
372,140,69171,6,0,P|452:96|484:180,1,190,4|8,0:0|0:0,0:0:0:0:
456,280,69509,2,0,B|408:288|380:336|380:336|372:280|320:236,1,190
240,136,69848,2,0,B|216:188|216:188|228:232,1,95,8|0,0:0|0:0,0:0:0:0:
256,312,70073,2,0,P|180:304|136:196,1,190,0|8,0:0|0:0,0:0:0:0:
56,144,70412,1,0,0:0:0:0:
100,56,70524,2,0,B|144:80|144:80|188:56,1,95
316,48,70750,1,8,0:0:0:0:
240,136,70863,1,0,0:0:0:0:
292,228,70975,6,0,B|336:248|336:248|392:236,1,95,8|0,0:0|0:0,0:0:0:0:
220,156,71201,2,0,B|176:136|176:136|120:148,1,95,8|0,0:0|0:0,0:0:0:0:
305,204,71427,2,0,B|353:198|353:198|395:159,1,95,8|0,0:0|0:0,0:0:0:0:
206,179,71653,2,0,B|158:185|158:185|116:224,1,95,8|0,0:0|0:0,0:0:0:0:
256,328,71878,2,0,B|304:272|212:212|268:136,1,190,0|8,0:0|0:0,0:0:0:0:
328,180,72216,2,0,P|248:220|192:120,1,190
264,48,72554,2,0,B|308:72|308:72|352:56,1,95,8|8,0:0|0:0,0:0:0:0:
484,40,72780,5,8,0:0:0:0:
480,88,73006,1,8,0:0:0:0:
472,136,73231,1,8,0:0:0:0:
460,224,73457,2,0,P|432:248|400:244,1,71.2500027179719
260,192,73682,2,0,P|256:152|268:120,2,71.2500027179719,8|0|0,0:0|0:0|0:0,0:0:0:0:
332,260,74021,2,0,P|292:288|184:252,1,142.500005435944,8|0,0:0|0:0,0:0:0:0:
148,192,74359,2,0,P|116:180|76:200,1,71.2500027179719,8|8,0:0|0:0,0:0:0:0:
116,100,74584,5,8,0:0:0:0:
176,100,74810,1,8,0:0:0:0:
236,100,75036,1,8,0:0:0:0:
260,192,75261,2,0,P|300:176|320:148,1,71.2500027179719
416,124,75487,2,0,P|412:88|388:56,2,71.2500027179719,8|0|0,0:0|0:0|0:0,0:0:0:0:
492,188,75825,2,0,P|428:220|352:188,1,142.500005435944,8|8,0:0|0:0,0:0:0:0:
260,192,76163,1,8,0:0:0:0:
260,192,76276,1,8,0:0:0:0:
140,252,76389,6,0,B|108:288|108:288|108:336,1,95,12|0,0:0|0:0,0:0:0:0:
140,132,76615,2,0,B|108:96|108:96|108:48,1,95,8|0,0:0|0:0,0:0:0:0:
300,49,76840,2,0,B|300:96|300:96|268:132,1,95,8|0,0:0|0:0,0:0:0:0:
272,252,77066,2,0,P|320:272|356:244,1,95,8|0,0:0|0:0,0:0:0:0:
492,188,77291,2,0,P|492:244|468:272,2,95,8|0|8,0:0|0:0|0:0,0:0:0:0:
492,96,77630,2,0,B|436:96|404:152|404:152|324:152,1,190,8|0,0:0|0:0,0:0:0:0:
324,80,77968,2,0,P|396:144|336:224,1,190,8|0,0:0|0:0,0:0:0:0:
272,252,78306,6,0,P|240:272|224:324,2,95,0|8|0,0:0|0:0|0:0,0:0:0:0:
248,180,78645,1,0,0:0:0:0:
128,212,78757,2,0,P|160:192|176:140,1,95,0|8,0:0|0:0,0:0:0:0:
84,132,78983,1,0,0:0:0:0:
112,52,79096,2,0,P|60:48|24:68,2,95,8|0|0,0:0|0:0|0:0,0:0:0:0:
200,60,79434,2,0,B|256:36|324:112|384:48,1,190,8|0,0:0|0:0,0:0:0:0:
380,51,79772,1,8,0:0:0:0:
336,312,79998,6,0,P|256:360|180:308,1,190,12|0,0:0|0:0,0:0:0:0:
184,180,80336,2,0,P|261:133|337:181,1,190,12|0,0:0|0:0,0:0:0:0:
392,248,80675,1,0,0:0:0:0:
256,244,80787,1,0,0:0:0:0:
200,112,80900,6,0,B|144:104|128:144|128:144|92:160|92:160|80:124|40:116,1,190,12|0,0:0|0:0,0:0:0:0:
312,112,81239,2,0,B|368:104|384:144|384:144|420:160|420:160|432:124|472:116,1,190,12|0,0:0|0:0,0:0:0:0:
192,188,81577,1,8,0:0:0:0:
320,188,81690,1,8,0:0:0:0:
188,272,81803,2,0,P|264:316|328:248,1,190
256,244,82141,2,0,L|300:328,1,95,12|8,0:0|0:0,0:0:0:0:
388,228,82366,1,8,0:0:0:0:
472,124,82479,2,0,B|420:152|420:152|424:56|336:44,1,190,4|12,0:0|0:0,0:0:0:0:
358,48,82930,6,0,B|300:32|272:112|272:112|228:60|200:120|200:120|172:56|112:48|56:56|32:104|32:184|76:228|116:248|168:224,1,570,0|4,0:0|0:0,0:0:0:0:
352,228,90825,6,0,B|392:228|392:228|416:208,1,71.2500027179719
316,228,91051,2,0,B|280:228|280:228|252:204,1,71.2500027179719,8|0,0:0|0:0,0:0:0:0:
196,124,91276,2,0,B|168:100|168:100|132:100,1,71.2500027179719
48,200,91502,2,0,B|76:224|76:224|112:224,1,71.2500027179719,8|0,0:0|0:0,0:0:0:0:
200,268,91727,2,0,B|172:308|172:308|132:308,2,71.2500027179719,0|0|8,0:0|0:0|0:0,0:0:0:0:
316,228,92066,2,0,P|348:268|416:216,1,142.500005435944
432,128,92404,2,0,B|396:148|368:128|368:128|340:148|296:128,1,142.500005435944,8|0,0:0|0:0,0:0:0:0:
48,200,92855,6,0,L|92:260,1,71.2500027179719,8|0,0:0|0:0,0:0:0:0:
140,172,93081,2,0,L|148:96,1,71.2500027179719
232,196,93306,2,0,B|232:260|232:260|272:240|320:272,1,142.500005435944,8|0,0:0|0:0,0:0:0:0:
404,292,93645,1,0,0:0:0:0:
452,208,93757,1,8,0:0:0:0:
360,168,93870,2,0,P|396:124|480:112,1,142.500005435944
496,40,94209,1,8,0:0:0:0:
344,40,94321,1,8,0:0:0:0:
244,52,94434,6,0,P|208:60|172:48,1,71.2500027179719,4|0,0:0|0:0,0:0:0:0:
76,56,94660,2,0,P|92:92|68:124,1,71.2500027179719,8|0,0:0|0:0,0:0:0:0:
172,152,94885,2,0,P|208:136|240:152,1,71.2500027179719
236,248,95111,2,0,P|200:264|168:248,1,71.2500027179719,8|0,0:0|0:0,0:0:0:0:
76,224,95336,2,0,P|76:280|144:348,1,142.500005435944,0|8,0:0|0:0,0:0:0:0:
228,364,95675,2,0,B|280:384|336:296|376:360,1,142.500005435944
460,372,96013,1,8,0:0:0:0:
384,268,96126,1,0,0:0:0:0:
484,280,96239,6,0,B|484:204|484:204|444:216|408:196,1,142.500005435944,12|0,0:0|0:0,0:0:0:0:
452,132,96577,1,0,0:0:0:0:
216,48,96915,2,8,P|264:36|292:52,1,71.2500027179719
144,140,97141,2,0,L|108:204,1,71.2500027179719,8|0,0:0|0:0,0:0:0:0:
216,180,97366,2,0,L|204:252,1,71.2500027179719,8|0,0:0|0:0,0:0:0:0:
296,180,97592,2,0,L|308:252,1,71.2500027179719,8|0,0:0|0:0,0:0:0:0:
368,140,97818,2,0,L|404:204,1,71.2500027179719,8|8,0:0|0:0,0:0:0:0:
448,296,98043,6,0,B|384:272|344:344|280:308,1,156.750004783631,4|0,0:0|0:0,0:0:0:0:
220,372,98494,2,0,P|196:320|216:264,1,104.500003189087,8|0,0:0|0:0,0:0:0:0:
272,212,98833,2,0,P|282:161|258:116,1,104.500003189087,8|8,0:0|0:0,0:0:0:0:
188,180,99171,2,0,L|148:232,1,52.2500015945435,0|0,0:0|0:0,0:0:0:0:
56,172,99396,2,0,L|44:116,1,52.2500015945435,8|0,0:0|0:0,0:0:0:0:
136,40,99622,2,0,L|168:88,1,52.2500015945435,0|8,0:0|0:0,0:0:0:0:
188,180,99848,6,0,P|220:192|240:188,1,52.2500015945435,8|0,0:0|0:0,0:0:0:0:
296,104,100073,2,0,P|332:92|360:100,1,52.2500015945435,8|0,0:0|0:0,0:0:0:0:
439,110,100299,2,0,P|432:160|392:192,1,104.500003189087,8|0,0:0|0:0,0:0:0:0:
320,216,100637,2,0,P|348:256|408:264,1,104.500003189087,8|8,0:0|0:0,0:0:0:0:
476,264,100975,2,0,L|468:328,1,52.2500015945435,8|0,0:0|0:0,0:0:0:0:
444,192,101201,2,0,L|392:192,1,52.2500015945435,8|0,0:0|0:0,0:0:0:0:
376,100,101427,2,0,L|396:44,1,52.2500015945435,8|0,0:0|0:0,0:0:0:0:
296,32,101652,6,0,P|256:60|212:32,1,104.500003189087,4|0,0:0|0:0,0:0:0:0:
140,44,101990,1,0,0:0:0:0:
88,96,102103,2,0,B|76:128|56:136|56:136|72:160|72:184,1,104.500003189087,8|0,0:0|0:0,0:0:0:0:
32,264,102442,2,0,P|72:280|132:252,1,104.500003189087,8|8,0:0|0:0,0:0:0:0:
188,184,102780,2,0,P|212:172|244:172,1,52.2500015945435
236,276,103006,2,0,P|224:316|228:336,1,52.2500015945435,8|0,0:0|0:0,0:0:0:0:
312,352,103231,1,0,0:0:0:0:
392,252,103344,1,8,0:0:0:0:
392,340,103457,6,0,P|452:344|464:304,1,104.500003189087
464,212,103795,1,0,0:0:0:0:
424,124,103908,2,0,P|392:160|344:132,1,104.500003189087,8|0,0:0|0:0,0:0:0:0:
324,56,104246,2,0,P|280:84|268:140,1,104.500003189087,8|8,0:0|0:0,0:0:0:0:
260,228,104584,2,0,P|240:264|220:272,1,52.2500015945435,8|0,0:0|0:0,0:0:0:0:
124,276,104810,5,8,0:0:0:0:
124,276,104923,1,8,0:0:0:0:
124,276,105036,1,8,0:0:0:0:
124,276,105148,1,8,0:0:0:0:
56,176,105261,6,0,B|36:144|36:144|56:104,1,71.2500027179719,4|0,0:0|0:0,0:0:0:0:
140,136,105487,1,8,0:0:0:0:
220,88,105599,2,0,B|240:120|232:160|232:160|304:172,1,142.500005435944
404,208,105938,2,0,L|404:280,1,71.2500027179719,8|0,0:0|0:0,0:0:0:0:
332,316,106163,6,0,P|320:276|332:240,1,71.2500027179719
480,252,106389,2,0,P|487:286|476:320,1,71.2500027179719,8|0,0:0|0:0,0:0:0:0:
408,368,106615,1,0,0:0:0:0:
404,208,106727,1,0,0:0:0:0:
348,148,106840,2,0,P|308:160|276:152,1,71.2500027179719,8|0,0:0|0:0,0:0:0:0:
238,90,107066,6,0,P|202:85|168:92,1,71.2500027179719
136,216,107291,2,0,P|176:220|212:212,1,71.2500027179719,8|0,0:0|0:0,0:0:0:0:
168,92,107517,2,0,P|128:88|92:96,1,71.2500027179719
40,168,107742,1,8,0:0:0:0:
44,260,107855,6,0,P|88:316|160:312,1,142.500005435944
244,284,108193,2,0,L|272:356,1,71.2500027179719,8|0,0:0|0:0,0:0:0:0:
340,264,108419,2,0,L|360:196,1,71.2500027179719,8|0,0:0|0:0,0:0:0:0:
440,304,108645,2,0,L|412:372,1,71.2500027179719,8|0,0:0|0:0,0:0:0:0:
424,228,108870,6,0,B|464:224|488:244|488:244|504:160,1,142.500005435944,4|8,0:0|0:0,0:0:0:0:
468,84,109209,2,0,P|404:104|384:40,1,142.500005435944
288,44,109547,2,0,B|252:64|268:104|268:104|240:132|200:124,1,142.500005435944,8|0,0:0|0:0,0:0:0:0:
112,108,109885,1,0,0:0:0:0:
60,184,109998,2,0,L|24:248,1,71.2500027179719,8|0,0:0|0:0,0:0:0:0:
116,272,110224,2,0,L|160:336,1,71.2500027179719,8|0,0:0|0:0,0:0:0:0:
212,256,110449,2,0,L|296:276,1,71.2500027179719,8|0,0:0|0:0,0:0:0:0:
340,344,110675,6,0,P|368:312|352:212,1,142.500005435944,4|0,0:0|0:0,0:0:0:0:
304,144,111013,1,0,0:0:0:0:
232,88,111126,1,8,0:0:0:0:
224,180,111239,1,8,0:0:0:0:
316,60,111351,1,8,0:0:0:0:
152,132,111464,1,12,0:0:0:0:
172,236,111577,6,0,P|150:263|116:272,1,71.2500027179719
60,184,111803,2,0,P|92:160|124:160,1,71.2500027179719
224,180,112028,1,8,0:0:0:0:
308,220,112141,1,8,0:0:0:0:
392,180,112254,1,8,0:0:0:0:
428,96,112366,1,8,0:0:0:0:
316,60,112479,6,0,B|272:88|272:88|216:68,2,95,4|0|8,0:0|0:0|0:0,0:0:0:0:
428,96,112818,1,0,0:0:0:0:
492,216,112930,2,0,B|512:264|512:264|484:304,1,95
312,304,113156,2,0,B|287:268|287:268|307:220,1,95,8|0,0:0|0:0,0:0:0:0:
404,296,113381,2,0,P|396:344|364:380,2,95,0|0|8,0:0|0:0|0:0,0:0:0:0:
392,180,113720,2,0,B|332:132|332:132|312:144|312:144|300:128|300:128|232:164,1,190
148,252,114058,1,8,0:0:0:0:
240,248,114171,1,0,0:0:0:0:
120,160,114284,6,0,B|92:156|92:156|72:172|72:172|72:208|52:228,1,95
212,152,114509,1,8,0:0:0:0:
240,248,114622,2,0,B|268:252|268:252|288:236|288:236|288:200|308:180,1,95
336,112,114848,1,0,0:0:0:0:
440,180,114960,2,0,B|460:208|452:236|452:236|452:272,1,95,8|0,0:0|0:0,0:0:0:0:
512,324,115186,2,0,P|464:348|372:264,1,190,0|8,0:0|0:0,0:0:0:0:
240,248,115524,2,0,P|187:320|100:301,1,190
160,248,115863,1,8,0:0:0:0:
308,256,115975,1,8,0:0:0:0:
440,180,116088,6,0,B|468:140|468:140|440:100,1,95
268,104,116314,2,0,B|241:141|241:141|269:181,1,95,8|0,0:0|0:0,0:0:0:0:
352,96,116539,2,0,L|352:0,1,95
352,192,116765,2,0,L|352:288,1,95,8|0,0:0|0:0,0:0:0:0:
248,356,116990,2,0,B|260:308|260:308|228:268|228:268|268:248|216:212|272:176,1,190,0|8,0:0|0:0,0:0:0:0:
352,96,117329,2,0,B|284:68|260:104|260:104|228:68|172:88,1,190
68,140,117667,1,8,0:0:0:0:
68,140,117780,1,8,0:0:0:0:
120,252,117893,6,0,P|164:284|208:284,1,95
352,192,118118,2,0,P|308:160|264:160,1,95,8|0,0:0|0:0,0:0:0:0:
136,96,118344,2,0,B|124:136|100:144|100:144|56:136,1,95
376,96,118569,2,0,B|388:136|412:144|412:144|456:136,1,95,8|0,0:0|0:0,0:0:0:0:
360,276,118795,2,0,P|304:316|192:284,1,190,0|8,0:0|0:0,0:0:0:0:
136,96,119133,2,0,B|108:136|128:168|128:168|96:192|96:192|116:232|116:232|100:256,1,190
200,356,119472,2,8,P|244:336|264:296,1,95
256,80,119697,5,8,0:0:0:0:
136,192,119923,1,8,0:0:0:0:
376,192,120148,1,8,0:0:0:0:
136,192,120374,2,0,P|96:208|56:192,1,71.2500027179719
132,104,120599,2,0,P|180:96|212:112,1,71.2500027179719,8|0,0:0|0:0,0:0:0:0:
288,208,120825,1,0,0:0:0:0:
136,192,120938,2,0,B|112:224|132:244|132:244|116:264|144:268|144:268|140:304|168:316,1,142.500005435944,8|0,0:0|0:0,0:0:0:0:
324,272,121276,2,0,P|276:280|240:260,1,71.2500027179719,8|0,0:0|0:0,0:0:0:0:
136,192,121502,5,8,0:0:0:0:
376,192,121727,1,8,0:0:0:0:
256,348,121953,1,8,0:0:0:0:
324,272,122178,2,0,P|356:296|364:328,1,71.2500027179719
456,324,122404,2,0,P|467:290|496:271,1,71.2500027179719,8|0,0:0|0:0,0:0:0:0:
504,176,122630,2,0,B|468:192|456:168|428:168,1,71.2500027179719,0|8,0:0|0:0,0:0:0:0:
332,148,122855,1,8,0:0:0:0:
332,148,122968,1,8,0:0:0:0:
332,148,123081,1,8,0:0:0:0:
332,148,123193,1,8,0:0:0:0:
256,260,123306,6,0,B|220:296|220:296|164:292,1,95
256,124,123532,2,0,B|292:88|292:88|348:92,1,95,8|0,0:0|0:0,0:0:0:0:
188,192,123757,2,0,B|152:156|152:156|156:100,1,95
324,192,123983,2,0,B|359:228|359:228|355:284,1,95,8|0,0:0|0:0,0:0:0:0:
260,348,124209,2,0,B|220:328|200:352|156:340,1,95
68,268,124434,1,8,0:0:0:0:
172,236,124547,2,0,B|152:176|88:160|88:160|88:80,1,190
216,48,124885,2,0,B|256:72|256:72|304:48,1,95,8|0,0:0|0:0,0:0:0:0:
424,52,125111,6,0,B|372:120|464:184|428:244,1,190,0|8,0:0|0:0,0:0:0:0:
340,236,125449,1,0,0:0:0:0:
380,336,125562,2,0,B|336:364|248:288|188:344,1,190,0|8,0:0|0:0,0:0:0:0:
84,116,126013,2,0,P|132:136|176:112,1,95
256,28,126239,1,8,0:0:0:0:
352,24,126351,2,0,B|348:100|280:120|280:120|280:188,1,190
324,296,126690,2,0,B|376:272|376:272|384:216,1,95,8|0,0:0|0:0,0:0:0:0:
130,234,126915,6,0,B|136:272|136:272|188:296,1,95
256,192,127141,1,8,0:0:0:0:
180,96,127254,2,0,B|140:136|136:180|136:180|36:180,1,190
72,96,127592,1,8,0:0:0:0:
256,192,127705,1,0,0:0:0:0:
332,96,127818,6,0,P|368:136|356:264,1,190,0|8,0:0|0:0,0:0:0:0:
155,263,128156,2,0,P|131:174|180:96,1,190
332,96,128494,1,8,0:0:0:0:
256,192,128607,1,8,0:0:0:0:
340,284,128720,6,0,P|388:300|432:284,1,95,8|0,0:0|0:0,0:0:0:0:
488,216,128945,1,0,0:0:0:0:
408,204,129058,2,0,P|428:160|468:140,1,95,8|0,0:0|0:0,0:0:0:0:
476,48,129284,1,0,0:0:0:0:
476,48,129396,5,8,0:0:0:0:
36,48,129622,1,12,0:0:0:0:
36,48,129848,2,0,B|68:80|56:120|56:120|112:96|136:144|136:144|180:96|236:128,1,285.000010871888,0|10,0:0|0:1,0:0:0:0:
436,272,130524,6,0,B|392:304|392:304|368:268|340:308|340:308|312:284|272:296,1,190,4|8,0:2|0:0,0:0:0:0:
188,352,130863,2,0,B|156:300|180:252|180:252|236:212|212:160,1,190
172,68,131201,2,0,P|128:64|88:100,1,95,8|0,0:0|0:0,0:0:0:0:
220,184,131427,6,0,P|264:188|304:152,2,95,0|0|8,0:0|0:0|0:0,0:0:0:0:
96,172,131765,1,0,0:0:0:0:
56,288,131878,2,0,P|64:336|112:352,2,95,0|0|8,0:0|0:0|0:0,0:0:0:0:
176,268,132216,1,0,0:0:0:0:
272,336,132329,6,0,B|304:296|288:220|288:220|312:196|360:204,1,190,0|8,0:0|0:0,0:0:0:0:
472,240,132667,2,0,B|496:200|472:152|472:152|504:112|504:112|468:120|468:120|472:104|420:112|420:112|388:72,1,285,0|8,0:0|0:0,0:0:0:0:
256,32,133118,1,0,0:0:0:0:
192,136,133231,2,0,P|160:96|168:48,1,95
256,32,133457,1,8,0:0:0:0:
347,54,133569,2,0,P|350:101|320:136,1,95
196,208,133795,1,0,0:0:0:0:
320,208,133908,1,8,0:0:0:0:
256,316,134021,1,8,0:0:0:0:
184,288,134133,6,0,P|256:236|328:292,1,190,4|8,0:2|0:0,0:0:0:0:
428,364,134472,1,0,0:0:0:0:
468,248,134584,2,0,P|484:200|464:164,1,95
349,132,134810,2,0,B|297:120|285:148|256:136,1,95,8|0,0:0|0:0,0:0:0:0:
132,132,135036,6,0,P|88:136|48:104,1,95
156,208,135261,2,0,P|116:232|60:228,1,95,8|0,0:0|0:0,0:0:0:0:
256,316,135487,2,0,P|288:280|296:232,1,95
213,102,135712,2,0,P|167:101|132:132,1,95,8|0,0:0|0:0,0:0:0:0:
156,208,135938,5,0,0:0:0:0:
352,132,136051,1,0,0:0:0:0:
256,316,136163,1,8,0:0:0:0:
376,340,136276,2,0,P|424:312|436:272,1,95
352,132,136502,2,0,P|304:160|292:200,1,95,0|8,0:0|0:0,0:0:0:0:
448,192,136727,1,0,0:0:0:0:
456,68,136840,6,0,P|416:32|368:32,1,95
256,96,137066,2,0,P|208:104|164:88,1,95,8|0,0:0|0:0,0:0:0:0:
52,36,137291,1,0,0:0:0:0:
20,156,137404,2,0,B|32:204|92:172|88:232|88:232|128:240|156:208|156:208|172:268|172:268|204:288,1,285,0|4,0:0|0:2,0:0:0:0:
201,286,137855,5,0,0:0:0:0:
324,296,137968,2,0,B|368:312|368:312|388:360,1,95,8|0,0:0|0:0,0:0:0:0:
318,156,138193,2,0,B|274:140|274:140|256:96,1,95
260,225,138419,2,0,B|244:269|244:269|200:288,1,95,8|0,0:0|0:0,0:0:0:0:
399,219,138644,6,0,B|415:175|415:175|459:156,1,95
488,240,138870,1,8,0:0:0:0:
444,72,138983,1,0,0:0:0:0:
292,68,139096,2,0,L|268:28,2,47.5
212,164,139321,1,8,0:0:0:0:
100,112,139434,1,0,0:0:0:0:
64,232,139547,5,0,0:0:0:0:
64,232,139660,1,0,0:0:0:0:
64,232,139772,2,0,B|80:284|80:284|128:304,1,95,8|0,0:0|0:0,0:0:0:0:
212,164,139998,2,0,B|196:112|196:112|148:92,1,95,8|0,0:0|0:0,0:0:0:0:
224,204,140224,2,0,B|240:256|240:256|288:276,1,95,8|0,0:0|0:0,0:0:0:0:
396,304,140449,5,0,0:0:0:0:
504,244,140562,1,0,0:0:0:0:
428,144,140675,1,8,0:0:0:0:
308,148,140787,2,0,P|336:68|428:24,1,190
426,24,141126,1,8,0:0:0:0:
426,24,141239,1,0,0:0:0:0:
276,32,141351,6,0,B|232:68|144:0|88:36,1,190,0|8,0:0|0:0,0:0:0:0:
16,104,141690,2,0,B|60:152|128:132|128:132|160:196,1,190
216,300,142028,1,8,0:0:0:0:
308,148,142141,1,8,0:0:0:0:
256,200,142254,2,0,P|300:224|380:136,1,190,0|0,0:0|0:0,0:0:0:0:
352,64,142592,2,0,P|428:72|448:172,1,190
420,272,142930,2,0,B|404:292|400:312|400:312|384:308|348:320,1,95,8|0,0:0|0:0,0:0:0:0:
216,300,143156,6,0,P|188:256|196:216,1,95,8|0,0:0|0:0,0:0:0:0:
76,180,143381,2,0,P|124:148|164:148,1,95,8|0,0:0|0:0,0:0:0:0:
152,24,143607,2,0,P|196:56|216:96,1,95,8|0,0:0|0:0,0:0:0:0:
256,192,143833,1,8,0:0:0:0:
376,212,143945,6,0,P|408:256|452:264,1,95,8|0,0:0|0:0,0:0:0:0:
436,140,144171,2,0,P|476:112|472:68,1,95,8|0,0:0|0:0,0:0:0:0:
348,76,144396,2,0,P|328:32|272:28,1,95,8|0,0:0|0:0,0:0:0:0:
176,80,144622,5,8,0:0:0:0:
72,180,144735,1,8,0:0:0:0:
148,276,144848,1,8,0:0:0:0:
256,192,144960,6,0,B|304:168|332:216|404:184,1,142.500005435944,4|0,0:0|0:0,0:0:0:0:
436,104,145299,1,0,0:0:0:0:
348,132,145412,2,0,P|320:196|368:256,1,142.500005435944,8|0,0:0|0:0,0:0:0:0:
408,328,145750,2,8,B|352:372|296:312|252:348,1,142.500005435944
176,344,146088,2,0,P|140:348|104:332,1,71.2500027179719,2|0,0:0|0:0,0:0:0:0:
76,248,146314,2,0,P|116:240|132:212,1,71.2500027179719,2|0,0:0|0:0,0:0:0:0:
188,144,146539,2,0,P|228:160|256:144,1,71.2500027179719,2|0,0:0|0:0,0:0:0:0:
348,132,146765,6,0,P|332:204|276:248,1,142.500005435944
320,332,147103,1,0,0:0:0:0:
412,332,147216,2,0,B|420:292|464:288|464:288|492:252|484:212,1,142.500005435944,8|0,0:0|0:0,0:0:0:0:
488,132,147554,2,8,B|488:56|488:56|444:68|412:56,1,142.500005435944
352,132,147893,2,0,P|372:164|408:172,1,71.2500027179719,2|0,0:0|0:0,0:0:0:0:
288,68,148118,2,0,P|268:36|232:28,1,71.2500027179719,2|0,0:0|0:0,0:0:0:0:
276,144,148344,2,0,P|256:176|216:184,1,71.2500027179719,2|0,0:0|0:0,0:0:0:0:
132,196,148569,6,0,P|176:264|232:280,1,142.500005435944
320,284,148908,1,0,0:0:0:0:
396,232,149021,2,0,B|444:244|468:232|468:232|472:304,1,142.500005435944,8|0,0:0|0:0,0:0:0:0:
388,340,149359,2,8,P|320:372|248:336,1,142.500005435944
188,292,149697,2,0,L|136:244,1,71.2500027179719,2|0,0:0|0:0,0:0:0:0:
80,168,149923,2,0,B|68:128|68:128|100:100,1,71.2500027179719,2|0,0:0|0:0,0:0:0:0:
172,64,150148,2,0,P|204:80|240:68,1,71.2500027179719,2|0,0:0|0:0,0:0:0:0:
328,44,150374,6,0,B|328:120|328:120|288:144|280:184,1,142.500005435944
372,204,150712,1,0,0:0:0:0:
292,256,150825,2,0,P|360:300|432:280,1,142.500005435944,8|0,0:0|0:0,0:0:0:0:
456,152,151163,2,8,P|388:108|316:128,1,142.500005435944
248,164,151502,2,0,P|212:184|172:184,1,71.2500027179719
188,92,151727,1,8,0:0:0:0:
188,92,151840,1,8,0:0:0:0:
188,92,151953,1,8,0:0:0:0:
188,92,152066,1,8,0:0:0:0:
248,164,152178,6,0,B|240:208|240:208|264:224,1,71.2500027179719,4|0,0:0|0:0,0:0:0:0:
348,192,152404,2,0,B|388:192|388:192|412:164,1,71.2500027179719,8|0,0:0|0:0,0:0:0:0:
328,68,152630,2,0,B|288:68|288:68|264:88,1,71.2500027179719
196,152,152855,1,8,0:0:0:0:
120,96,152968,2,0,P|96:144|136:228,1,142.500005435944
184,272,153306,2,0,L|160:344,1,71.2500027179719,8|0,0:0|0:0,0:0:0:0:
256,272,153532,2,0,L|256:348,1,71.2500027179719,8|0,0:0|0:0,0:0:0:0:
328,272,153757,2,0,L|352:344,1,71.2500027179719,8|0,0:0|0:0,0:0:0:0:
384,221,153983,6,0,P|416:160|392:96,1,142.500005435944,0|8,0:0|0:0,0:0:0:0:
312,52,154321,1,0,0:0:0:0:
260,128,154434,2,0,P|232:128|192:100,1,71.2500027179719
160,28,154660,1,8,0:0:0:0:
108,104,154772,2,0,B|120:144|88:180|88:180|120:196|124:240,1,142.500005435944
180,300,155111,2,0,L|120:344,1,71.2500027179719,8|0,0:0|0:0,0:0:0:0:
292,276,155336,2,0,L|320:208,1,71.2500027179719,8|0,0:0|0:0,0:0:0:0:
317,85,155562,2,0,L|260:128,1,71.2500027179719,8|0,0:0|0:0,0:0:0:0:
208,204,155787,6,0,P|172:140|188:72,1,142.500005435944,4|8,0:0|0:0,0:0:0:0:
264,28,156126,1,0,0:0:0:0:
356,20,156239,2,0,P|392:68|360:148,1,142.500005435944,0|8,0:0|0:0,0:0:0:0:
344,232,156577,2,0,B|384:240|412:224|412:224|452:248|484:236,1,142.500005435944
424,308,156915,2,0,L|392:376,1,71.2500027179719,8|0,0:0|0:0,0:0:0:0:
368,140,157141,2,0,L|336:72,1,71.2500027179719,8|0,0:0|0:0,0:0:0:0:
264,240,157366,2,0,L|216:304,1,71.2500027179719,8|0,0:0|0:0,0:0:0:0:
152,360,157592,6,0,P|124:320|152:232,1,142.500005435944,0|8,0:0|0:0,0:0:0:0:
212,172,157930,1,0,0:0:0:0:
120,164,158043,2,0,P|64:144|84:72,1,142.500005435944,0|8,0:0|0:0,0:0:0:0:
160,28,158381,1,4,0:0:0:0:
256,192,162554,5,8,0:0:0:0:
256,192,162667,1,8,0:0:0:0:
256,192,162780,1,8,0:0:0:0:
256,192,162893,1,8,0:0:0:0:
336,148,163006,6,0,P|257:102|177:146,1,190,0|8,0:0|0:0,0:0:0:0:
176,236,163344,2,0,P|254:279|336:232,1,190
436,228,163682,1,8,0:0:0:0:
336,148,163795,1,0,0:0:0:0:
460,136,163908,6,0,B|504:128|504:128|520:80|520:80|484:40|432:48|432:48,1,190,0|8,0:0|0:0,0:0:0:0:
336,40,164246,2,0,B|300:56|256:16|256:16|212:56|152:36,1,190
32,36,164584,1,8,0:0:0:0:
88,156,164697,1,0,0:0:0:0:
176,236,164810,6,0,P|232:232|256:196,1,95
88,156,165036,2,0,P|32:160|8:196,1,95,8|0,0:0|0:0,0:0:0:0:
190,207,165261,2,0,P|236:175|238:132,1,95
73,184,165487,2,0,P|27:216|25:259,1,95,8|0,0:0|0:0,0:0:0:0:
124,324,165712,6,0,B|164:348|216:312|216:312|272:344|308:320,1,190,0|8,0:0|0:0,0:0:0:0:
424,292,166051,2,0,B|452:280|464:256|464:256|424:220|464:200|464:200|476:164|452:136,1,190
376,44,166389,2,0,P|328:32|288:48,1,95,8|8,0:0|0:0,0:0:0:0:
256,168,166615,5,8,0:0:0:0:
256,204,166840,1,8,0:0:0:0:
256,244,167066,1,8,0:0:0:0:
216,324,167291,6,0,P|176:284|168:244,1,95,8|0,0:0|0:0,0:0:0:0:
144,124,167517,2,0,P|96:108|60:132,2,95,0|0|8,0:0|0:0|0:0,0:0:0:0:
256,168,167855,2,0,B|312:128|372:200|440:168,1,190
408,96,168193,2,0,P|364:176|432:244,1,190,8|8,0:0|0:0,0:0:0:0:
421,241,168645,5,8,0:0:0:0:
421,241,168870,1,8,0:0:0:0:
420,336,169096,6,0,P|368:352|332:328,1,95,8|0,0:0|0:0,0:0:0:0:
256,240,169321,2,0,B|256:288|256:288|220:320,1,95,8|0,0:0|0:0,0:0:0:0:
136,228,169547,1,0,0:0:0:0:
47,319,169660,2,0,B|12:288|12:288|12:240,1,95,0|8,0:0|0:0,0:0:0:0:
136,176,169885,5,8,0:0:0:0:
136,176,169998,1,8,0:0:0:0:
136,176,170111,1,8,0:0:0:0:
256,140,170224,6,0,P|300:164|344:164,1,95
512,116,170449,2,0,P|468:140|424:140,1,95,8|0,0:0|0:0,0:0:0:0:
256,240,170675,2,0,P|300:264|344:264,1,95
512,216,170900,2,0,P|468:240|424:240,1,95,8|0,0:0|0:0,0:0:0:0:
368,328,171126,6,0,B|280:352|232:288|168:340,1,190,0|8,0:0|0:0,0:0:0:0:
52,356,171464,2,0,B|20:320|52:272|52:272|108:264|120:200,1,190
136,76,171803,2,0,L|232:44,1,95,8|0,0:0|0:0,0:0:0:0:
356,64,172028,6,0,P|336:108|360:148,1,95
492,144,172254,2,0,P|512:100|488:60,1,95,8|0,0:0|0:0,0:0:0:0:
356,64,172479,2,0,P|308:48|264:68,1,95
272,224,172705,2,0,P|320:240|364:220,1,95,8|0,0:0|0:0,0:0:0:0:
492,144,172930,6,0,B|472:188|472:188|508:208|480:252|480:252|504:288|492:320,1,190,0|8,0:0|0:0,0:0:0:0:
424,300,173269,2,0,P|356:356|292:288,1,190
328,168,173607,2,0,P|288:144|236:152,1,95,8|0,0:0|0:0,0:0:0:0:
168,192,173833,6,0,B|208:228|200:280|200:280|160:304|100:276,1,190,0|8,0:0|0:0,0:0:0:0:
76,192,174171,2,0,B|84:136|128:112|128:112|108:76|108:76|156:48,1,190
256,36,174509,2,0,B|256:72|256:72|244:84|244:84|268:84|268:84|256:100|256:100,1,95,8|0,0:0|0:0,0:0:0:0:
256,192,174735,6,0,P|336:244|400:188,1,190,0|8,0:0|0:0,0:0:0:0:
424,92,175073,2,0,B|448:76|468:52|468:52|468:184,1,190
432,276,175412,2,0,B|480:316|480:316|484:356,1,95,8|0,0:0|0:0,0:0:0:0:
296,344,175637,6,0,B|256:312|220:352|220:352|200:296|128:328,1,190,0|8,0:0|0:0,0:0:0:0:
36,332,175975,1,0,0:0:0:0:
36,236,176088,2,0,P|24:184|56:148,1,95
256,160,176314,2,0,P|268:212|236:248,1,95,8|0,0:0|0:0,0:0:0:0:
140,128,176539,6,0,B|168:56|212:56|212:56|244:68|244:68|260:48|260:48|300:64,1,190,0|8,0:0|0:0,0:0:0:0:
380,192,176878,2,0,B|420:168|420:168|388:124|388:124|456:124|444:68,1,190
280,56,177216,1,8,0:0:0:0:
208,232,177329,1,8,0:0:0:0:
328,288,177442,6,0,P|292:344|176:364,1,190,4|8,0:2|0:0,0:0:0:0:
128,272,177780,2,0,B|80:296|72:348|72:348|36:312|32:248,1,190
44,132,178118,2,0,B|56:84|56:84|88:116|88:116|96:100|96:100|116:120|156:124|184:108,1,190,8|0,0:0|0:0,0:0:0:0:
280,56,178457,1,0,0:0:0:0:
388,136,178569,2,0,P|416:96|420:52,1,95,8|0,0:0|0:0,0:0:0:0:
320,140,178795,2,0,P|308:192|324:236,1,95
408,332,179021,1,8,0:0:0:0:
240,292,179133,1,0,0:0:0:0:
128,272,179246,6,0,B|92:304|92:304|32:304,1,95
237,172,179472,2,0,B|273:140|273:140|320:140,1,95,8|0,0:0|0:0,0:0:0:0:
408,332,179697,2,0,B|372:364|372:364|325:364,1,95
128,272,179923,2,0,B|128:224|128:224|152:184,1,95,8|0,0:0|0:0,0:0:0:0:
232,68,180148,2,0,B|276:36|340:100|416:56,1,190,0|8,0:0|0:0,0:0:0:0:
476,116,180487,2,0,B|440:152|472:200|472:200|468:244|400:264,1,190
300,284,180825,2,0,P|280:240|300:196,1,95,8|8,0:0|0:0,0:0:0:0:
384,148,181051,5,8,0:0:0:0:
344,148,181276,1,8,0:0:0:0:
304,148,181502,1,8,0:0:0:0:
240,192,181727,2,0,P|224:148|248:96,1,95,8|0,0:0|0:0,0:0:0:0:
304,44,181953,2,0,P|352:44|392:72,2,95,0|0|8,0:0|0:0|0:0,0:0:0:0:
220,28,182291,2,0,B|168:24|172:84|124:96|124:96|124:164,1,190
124,268,182630,2,0,B|148:268|148:268|164:284|164:284|180:268|180:268|208:268,1,95,8|8,0:0|0:0,0:0:0:0:
300,264,182855,5,8,0:0:0:0:
348,264,183081,1,8,0:0:0:0:
396,264,183306,1,8,0:0:0:0:
468,168,183532,2,0,P|412:172|384:144,1,95,8|0,0:0|0:0,0:0:0:0:
392,36,183757,2,0,P|448:32|476:60,1,95,8|0,0:0|0:0,0:0:0:0:
336,88,183983,2,0,B|292:60|276:96|232:80,1,95,8|0,0:0|0:0,0:0:0:0:
144,44,184209,5,8,0:0:0:0:
144,44,184321,1,8,0:0:0:0:
144,44,184434,1,8,0:0:0:0:
144,44,184547,1,8,0:0:0:0:
64,192,184660,6,0,B|72:240|72:240|44:276,1,95
316,172,184885,2,0,B|308:124|308:124|336:88,1,95,8|0,0:0|0:0,0:0:0:0:
192,244,185111,2,0,B|200:292|200:292|172:328,1,95
444,224,185336,2,0,B|436:176|436:176|464:140,1,95,8|0,0:0|0:0,0:0:0:0:
488,300,185562,6,0,P|400:300|360:216,1,190,0|8,0:0|0:0,0:0:0:0:
384,84,185900,2,0,B|336:36|252:112|192:68,1,190
68,48,186239,1,8,0:0:0:0:
12,168,186351,1,8,0:0:0:0:
84,280,186464,6,0,B|128:256|172:292|172:292|212:256|268:280,1,190,0|8,0:0|0:0,0:0:0:0:
388,320,186803,1,0,0:0:0:0:
456,204,186915,2,0,P|466:116|384:84,1,190,0|8,0:0|0:0,0:0:0:0:
360,176,187254,1,0,0:0:0:0:
252,132,187366,6,0,P|244:188|256:232,2,95,0|0|8,0:0|0:0|0:0,0:0:0:0:
192,52,187705,2,0,P|116:84|60:8,1,190
132,12,188043,2,0,L|132:116,1,95,8|8,0:0|0:0,0:0:0:0:
136,240,188269,6,0,B|136:308|136:308|176:280|216:316|216:316|264:316,1,190,4|0,0:2|0:0,0:0:0:0:
462,246,188607,2,0,B|462:195|462:195|430:211|430:211|434:171|398:151|360:176,1,190
256,232,188945,1,8,0:0:0:0:
256,64,189058,1,8,0:0:0:0:
184,92,189171,6,0,P|256:144|332:76,1,190,4|0,0:2|0:0,0:0:0:0:
328,291,189509,2,0,P|256:239|184:292,1,190
368,192,189848,6,8,P|408:168|424:120,1,95
256,64,190073,2,0,L|256:160,1,95,8|0,0:0|0:0,0:0:0:0:
256,292,190299,1,0,0:0:0:0:
368,192,190412,5,8,0:0:0:0:
144,192,190524,2,0,P|104:168|88:120,1,95,0|0,0:0|0:0,0:0:0:0:
256,64,190750,1,8,0:0:0:0:
368,192,190863,1,0,0:0:0:0:
144,192,190975,1,8,0:0:0:0:
144,192,191201,6,0,B|202:176|230:256|230:256|274:204|302:264|302:264|330:200|390:192|446:200|470:248|470:328|426:372|386:392|334:368,1,570,0|4,0:0|0:0,0:0:0:0:
172,192,199096,6,0,P|124:204|76:192,1,95
128,68,199321,2,0,P|176:56|224:68,1,95,8|0,0:0|0:0,0:0:0:0:
356,192,199547,2,0,B|316:160|272:232|172:192,1,190,0|8,0:0|0:0,0:0:0:0:
183,119,199885,2,0,P|105:160|122:246,1,190
256,340,200224,2,0,P|212:348|166:328,1,95,8|0,0:0|0:0,0:0:0:0:
356,192,200449,2,0,P|408:216|456:208,1,95
484,84,200675,2,0,P|432:60|384:68,1,95,8|0,0:0|0:0,0:0:0:0:
284,132,200900,6,0,P|260:196|268:232,1,95
172,240,201126,2,0,P|208:296|248:312,1,95,8|0,0:0|0:0,0:0:0:0:
356,192,201351,2,0,B|304:192|268:160|268:160|232:192|180:192,1,190,0|8,0:0|0:0,0:0:0:0:
48,188,201690,2,0,P|16:108|104:76,1,190
284,132,202028,2,0,B|276:140|276:140|264:140|264:140|272:148|272:148|264:148|264:148|224:188,1,95,8|0,0:0|0:0,0:0:0:0:
426,137,202254,2,0,B|434:129|434:129|446:129|446:129|438:121|438:121|446:121|446:121|484:84,1,95,8|0,0:0|0:0,0:0:0:0:
356,80,202479,1,8,0:0:0:0:
356,224,202592,1,0,0:0:0:0:
476,284,202705,6,0,P|452:324|408:344,1,95,4|0,0:2|0:0,0:0:0:0:
240,284,202930,2,0,P|264:324|308:344,1,95,8|0,0:0|0:0,0:0:0:0:
356,224,203156,2,0,B|328:216|312:192|312:192|276:212|236:192|236:192|216:220|184:228,1,190,0|8,0:0|0:0,0:0:0:0:
92,312,203494,2,0,B|72:328|28:328|28:328|-8:268|28:208,1,190
104,104,203833,2,0,L|184:44,1,95,8|0,0:0|0:0,0:0:0:0:
296,108,204058,2,0,L|200:144,1,95
324,24,204284,2,0,L|416:64,1,95,8|0,0:0|0:0,0:0:0:0:
301,341,204509,6,0,P|256:360|208:344,1,95,8|0,0:0|0:0,0:0:0:0:
76,185,204735,2,0,P|74:139|104:104,1,95,8|0,0:0|0:0,0:0:0:0:
407,103,204960,2,0,P|437:139|435:185,1,95,8|0,0:0|0:0,0:0:0:0:
256,260,205186,5,8,0:0:0:0:
161,165,205299,1,0,0:0:0:0:
256,71,205411,1,8,0:0:0:0:
350,165,205524,1,0,0:0:0:0:
188,232,205637,1,8,0:0:0:0:
188,98,205750,1,8,0:0:0:0:
322,98,205862,1,8,0:0:0:0:
322,98,206088,1,0,0:0:0:0:
408,104,206314,6,0,B|440:124|440:124|428:168|468:188|468:188|484:216|444:256,1,190,4|8,0:2|0:0,0:0:0:0:
66,254,206652,2,0,B|28:216|44:188|44:188|84:168|72:124|72:124|104:104,1,190,4|8,0:2|0:0,0:0:0:0:
256,192,206990,1,8,0:0:0:0:
256,332,207216,6,0,B|232:288|184:336|184:336|132:332|132:260,1,190,4|8,0:2|0:0,0:0:0:0:
256,52,207554,2,0,B|280:96|328:48|328:48|380:52|380:124,1,190,4|8,0:2|0:0,0:0:0:0:
392,336,207893,1,8,0:0:0:0:
256,192,208118,6,0,B|208:200|168:160|168:160|140:208|140:208|96:200,1,190,4|8,0:2|0:0,0:0:0:0:
376,56,208457,2,0,P|392:112|444:40,1,190,4|8,0:2|0:0,0:0:0:0:
256,52,208795,1,8,0:0:0:0:
256,332,209021,1,12,0:2:0:0:
