osu file format v12

[General]
AudioFilename: Gumi - After School Stride (English Sub).mp3
AudioLeadIn: 0
PreviewTime: -1
Countdown: 1
SampleSet: None
StackLeniency: 0.7
Mode: 0
LetterboxInBreaks: 1
WidescreenStoryboard: 0

[Editor]
DistanceSpacing: 1.3
BeatDivisor: 1
GridSize: 32
TimelineZoom: 2.3

[Metadata]
Title:After-School Stride
TitleUnicode:After-School Stride
Artist:Last Note
ArtistUnicode:Last Note
Creator:Eagle_Peak
Version:LAGOTRON V2
Source:
Tags:Gumi, vocaloid
BeatmapID:437050
BeatmapSetID:182192

[Difficulty]
HPDrainRate:10
CircleSize:2
OverallDifficulty:10
ApproachRate:0
SliderMultiplier:1.4
SliderTickRate:1

[Events]
//Background and Video events
//Break Periods
//Storyboard Layer 0 (Background)
//Storyboard Layer 1 (Fail)
//Storyboard Layer 2 (Pass)
//Storyboard Layer 3 (Foreground)
//Storyboard Sound Samples
//Background Colour Transformations
3,100,64,0,0

[TimingPoints]
16609.070642765,120,4,1,0,100,1,0

[Colours]
Combo1 : 128,0,128
Combo2 : 0,255,0
Combo3 : 0,0,255
Combo4 : 255,0,0
Combo5 : 255,255,0
Combo6 : 255,128,0
Combo7 : 0,255,255
Combo8 : 255,0,255

[HitObjects]
0,0,289,6,0,L|512:0,1,507.5
0,32,289,6,0,L|512:32,1,507.5
0,64,289,6,0,L|512:64,1,507.5
0,96,289,6,0,L|512:96,1,507.5
0,128,289,6,0,L|512:128,1,507.5
0,160,289,6,0,L|512:160,1,507.5
0,192,289,6,0,L|512:192,1,507.5
0,224,289,6,0,L|512:224,1,507.5
0,256,289,6,0,L|512:256,1,507.5
0,288,289,6,0,L|512:288,1,507.5
0,320,289,6,0,L|512:320,1,507.5
0,352,289,6,0,L|512:352,1,507.5
0,384,289,6,0,L|512:384,1,507.5
256,192,289,12,0,769,0:0:0:0:
32,64,529,6,0,L|32:352|32:288,2,280
96,64,529,6,0,L|96:352|96:288,2,280
160,64,529,6,0,L|160:352|160:288,2,280
224,64,529,6,0,L|224:352|224:288,2,280
352,64,529,6,0,L|352:352|352:288,2,280
416,64,529,6,0,L|416:352|416:288,2,280
480,64,529,6,0,L|480:352|480:288,2,280
288,64,529,6,0,L|288:352|288:288,2,280
256,192,769,12,0,1249,0:0:0:0:
0,0,769,6,0,L|512:0,1,507.5
0,32,769,6,0,L|512:32,1,507.5
0,64,769,6,0,L|512:64,1,507.5
0,96,769,6,0,L|512:96,1,507.5
0,128,769,6,0,L|512:128,1,507.5
0,160,769,6,0,L|512:160,1,507.5
0,192,769,6,0,L|512:192,1,507.5
0,224,769,6,0,L|512:224,1,507.5
0,256,769,6,0,L|512:256,1,507.5
0,288,769,6,0,L|512:288,1,507.5
0,320,769,6,0,L|512:320,1,507.5
0,352,769,6,0,L|512:352,1,507.5
0,384,769,6,0,L|512:384,1,507.5
416,64,1009,6,0,L|416:352|416:288,2,280
352,64,1009,6,0,L|352:352|352:288,2,280
288,64,1009,6,0,L|288:352|288:288,2,280
480,64,1009,6,0,L|480:352|480:288,2,280
96,64,1009,6,0,L|96:352|96:288,2,280
32,64,1009,6,0,L|32:352|32:288,2,280
224,64,1009,6,0,L|224:352|224:288,2,280
160,64,1009,6,0,L|160:352|160:288,2,280
0,256,1249,6,0,L|512:256,1,507.5
0,224,1249,6,0,L|512:224,1,507.5
0,192,1249,6,0,L|512:192,1,507.5
0,288,1249,6,0,L|512:288,1,507.5
0,384,1249,6,0,L|512:384,1,507.5
0,352,1249,6,0,L|512:352,1,507.5
0,320,1249,6,0,L|512:320,1,507.5
0,32,1249,6,0,L|512:32,1,507.5
0,0,1249,6,0,L|512:0,1,507.5
256,192,1249,12,0,1729,0:0:0:0:
0,64,1249,6,0,L|512:64,1,507.5
0,160,1249,6,0,L|512:160,1,507.5
0,128,1249,6,0,L|512:128,1,507.5
0,96,1249,6,0,L|512:96,1,507.5
32,64,1489,6,0,L|32:352|32:288,2,280
96,64,1489,6,0,L|96:352|96:288,2,280
160,64,1489,6,0,L|160:352|160:288,2,280
224,64,1489,6,0,L|224:352|224:288,2,280
352,64,1489,6,0,L|352:352|352:288,2,280
416,64,1489,6,0,L|416:352|416:288,2,280
480,64,1489,6,0,L|480:352|480:288,2,280
288,64,1489,6,0,L|288:352|288:288,2,280
256,192,1729,12,0,2209,0:0:0:0:
0,0,1729,6,0,L|512:0,1,507.5
0,32,1729,6,0,L|512:32,1,507.5
0,64,1729,6,0,L|512:64,1,507.5
0,96,1729,6,0,L|512:96,1,507.5
0,128,1729,6,0,L|512:128,1,507.5
0,160,1729,6,0,L|512:160,1,507.5
0,192,1729,6,0,L|512:192,1,507.5
0,224,1729,6,0,L|512:224,1,507.5
0,256,1729,6,0,L|512:256,1,507.5
0,288,1729,6,0,L|512:288,1,507.5
0,320,1729,6,0,L|512:320,1,507.5
0,352,1729,6,0,L|512:352,1,507.5
0,384,1729,6,0,L|512:384,1,507.5
416,64,1969,6,0,L|416:352|416:288,2,280
352,64,1969,6,0,L|352:352|352:288,2,280
288,64,1969,6,0,L|288:352|288:288,2,280
480,64,1969,6,0,L|480:352|480:288,2,280
96,64,1969,6,0,L|96:352|96:288,2,280
32,64,1969,6,0,L|32:352|32:288,2,280
224,64,1969,6,0,L|224:352|224:288,2,280
160,64,1969,6,0,L|160:352|160:288,2,280
0,256,2209,6,0,L|512:256,1,507.5
0,224,2209,6,0,L|512:224,1,507.5
0,192,2209,6,0,L|512:192,1,507.5
0,288,2209,6,0,L|512:288,1,507.5
0,384,2209,6,0,L|512:384,1,507.5
0,352,2209,6,0,L|512:352,1,507.5
0,320,2209,6,0,L|512:320,1,507.5
0,32,2209,6,0,L|512:32,1,507.5
0,0,2209,6,0,L|512:0,1,507.5
256,192,2209,12,0,2689,0:0:0:0:
0,64,2209,6,0,L|512:64,1,507.5
0,160,2209,6,0,L|512:160,1,507.5
0,128,2209,6,0,L|512:128,1,507.5
0,96,2209,6,0,L|512:96,1,507.5
32,64,2449,6,0,L|32:352|32:288,2,280
96,64,2449,6,0,L|96:352|96:288,2,280
160,64,2449,6,0,L|160:352|160:288,2,280
224,64,2449,6,0,L|224:352|224:288,2,280
352,64,2449,6,0,L|352:352|352:288,2,280
416,64,2449,6,0,L|416:352|416:288,2,280
480,64,2449,6,0,L|480:352|480:288,2,280
288,64,2449,6,0,L|288:352|288:288,2,280
256,192,2689,12,0,3169,0:0:0:0:
0,0,2689,6,0,L|512:0,1,507.5
0,32,2689,6,0,L|512:32,1,507.5
0,64,2689,6,0,L|512:64,1,507.5
0,96,2689,6,0,L|512:96,1,507.5
0,128,2689,6,0,L|512:128,1,507.5
0,160,2689,6,0,L|512:160,1,507.5
0,192,2689,6,0,L|512:192,1,507.5
0,224,2689,6,0,L|512:224,1,507.5
0,256,2689,6,0,L|512:256,1,507.5
0,288,2689,6,0,L|512:288,1,507.5
0,320,2689,6,0,L|512:320,1,507.5
0,352,2689,6,0,L|512:352,1,507.5
0,384,2689,6,0,L|512:384,1,507.5
416,64,2929,6,0,L|416:352|416:288,2,280
352,64,2929,6,0,L|352:352|352:288,2,280
288,64,2929,6,0,L|288:352|288:288,2,280
480,64,2929,6,0,L|480:352|480:288,2,280
96,64,2929,6,0,L|96:352|96:288,2,280
32,64,2929,6,0,L|32:352|32:288,2,280
224,64,2929,6,0,L|224:352|224:288,2,280
160,64,2929,6,0,L|160:352|160:288,2,280
0,256,3169,6,0,L|512:256,1,507.5
0,224,3169,6,0,L|512:224,1,507.5
0,192,3169,6,0,L|512:192,1,507.5
0,288,3169,6,0,L|512:288,1,507.5
0,384,3169,6,0,L|512:384,1,507.5
0,352,3169,6,0,L|512:352,1,507.5
0,320,3169,6,0,L|512:320,1,507.5
0,32,3169,6,0,L|512:32,1,507.5
0,0,3169,6,0,L|512:0,1,507.5
256,192,3169,12,0,3649,0:0:0:0:
0,64,3169,6,0,L|512:64,1,507.5
0,160,3169,6,0,L|512:160,1,507.5
0,128,3169,6,0,L|512:128,1,507.5
0,96,3169,6,0,L|512:96,1,507.5
32,64,3409,6,0,L|32:352|32:288,2,280
96,64,3409,6,0,L|96:352|96:288,2,280
160,64,3409,6,0,L|160:352|160:288,2,280
224,64,3409,6,0,L|224:352|224:288,2,280
352,64,3409,6,0,L|352:352|352:288,2,280
416,64,3409,6,0,L|416:352|416:288,2,280
480,64,3409,6,0,L|480:352|480:288,2,280
288,64,3409,6,0,L|288:352|288:288,2,280
0,256,3649,6,0,L|512:256,1,507.5
0,224,3649,6,0,L|512:224,1,507.5
0,192,3649,6,0,L|512:192,1,507.5
0,288,3649,6,0,L|512:288,1,507.5
0,384,3649,6,0,L|512:384,1,507.5
0,352,3649,6,0,L|512:352,1,507.5
0,320,3649,6,0,L|512:320,1,507.5
0,32,3649,6,0,L|512:32,1,507.5
0,0,3649,6,0,L|512:0,1,507.5
256,192,3649,12,0,4129,0:0:0:0:
0,64,3649,6,0,L|512:64,1,507.5
0,160,3649,6,0,L|512:160,1,507.5
0,128,3649,6,0,L|512:128,1,507.5
0,96,3649,6,0,L|512:96,1,507.5
416,64,3889,6,0,L|416:352|416:288,2,280
352,64,3889,6,0,L|352:352|352:288,2,280
288,64,3889,6,0,L|288:352|288:288,2,280
480,64,3889,6,0,L|480:352|480:288,2,280
96,64,3889,6,0,L|96:352|96:288,2,280
32,64,3889,6,0,L|32:352|32:288,2,280
224,64,3889,6,0,L|224:352|224:288,2,280
160,64,3889,6,0,L|160:352|160:288,2,280
256,192,4129,12,0,4609,0:0:0:0:
0,0,4129,6,0,L|512:0,1,507.5
0,32,4129,6,0,L|512:32,1,507.5
0,64,4129,6,0,L|512:64,1,507.5
0,96,4129,6,0,L|512:96,1,507.5
0,128,4129,6,0,L|512:128,1,507.5
0,160,4129,6,0,L|512:160,1,507.5
0,192,4129,6,0,L|512:192,1,507.5
0,224,4129,6,0,L|512:224,1,507.5
0,256,4129,6,0,L|512:256,1,507.5
0,288,4129,6,0,L|512:288,1,507.5
0,320,4129,6,0,L|512:320,1,507.5
0,352,4129,6,0,L|512:352,1,507.5
0,384,4129,6,0,L|512:384,1,507.5
32,64,4369,6,0,L|32:352|32:288,2,280
96,64,4369,6,0,L|96:352|96:288,2,280
160,64,4369,6,0,L|160:352|160:288,2,280
224,64,4369,6,0,L|224:352|224:288,2,280
352,64,4369,6,0,L|352:352|352:288,2,280
416,64,4369,6,0,L|416:352|416:288,2,280
480,64,4369,6,0,L|480:352|480:288,2,280
288,64,4369,6,0,L|288:352|288:288,2,280
0,256,4609,6,0,L|512:256,1,507.5
0,224,4609,6,0,L|512:224,1,507.5
0,192,4609,6,0,L|512:192,1,507.5
0,288,4609,6,0,L|512:288,1,507.5
0,384,4609,6,0,L|512:384,1,507.5
0,352,4609,6,0,L|512:352,1,507.5
0,320,4609,6,0,L|512:320,1,507.5
0,32,4609,6,0,L|512:32,1,507.5
0,0,4609,6,0,L|512:0,1,507.5
256,192,4609,12,0,5089,0:0:0:0:
0,64,4609,6,0,L|512:64,1,507.5
0,160,4609,6,0,L|512:160,1,507.5
0,128,4609,6,0,L|512:128,1,507.5
0,96,4609,6,0,L|512:96,1,507.5
416,64,4849,6,0,L|416:352|416:288,2,280
352,64,4849,6,0,L|352:352|352:288,2,280
288,64,4849,6,0,L|288:352|288:288,2,280
480,64,4849,6,0,L|480:352|480:288,2,280
96,64,4849,6,0,L|96:352|96:288,2,280
32,64,4849,6,0,L|32:352|32:288,2,280
224,64,4849,6,0,L|224:352|224:288,2,280
160,64,4849,6,0,L|160:352|160:288,2,280
256,192,5089,12,0,5569,0:0:0:0:
0,0,5089,6,0,L|512:0,1,507.5
0,32,5089,6,0,L|512:32,1,507.5
0,64,5089,6,0,L|512:64,1,507.5
0,96,5089,6,0,L|512:96,1,507.5
0,128,5089,6,0,L|512:128,1,507.5
0,160,5089,6,0,L|512:160,1,507.5
0,192,5089,6,0,L|512:192,1,507.5
0,224,5089,6,0,L|512:224,1,507.5
0,256,5089,6,0,L|512:256,1,507.5
0,288,5089,6,0,L|512:288,1,507.5
0,320,5089,6,0,L|512:320,1,507.5
0,352,5089,6,0,L|512:352,1,507.5
0,384,5089,6,0,L|512:384,1,507.5
32,64,5329,6,0,L|32:352|32:288,2,280
96,64,5329,6,0,L|96:352|96:288,2,280
160,64,5329,6,0,L|160:352|160:288,2,280
224,64,5329,6,0,L|224:352|224:288,2,280
352,64,5329,6,0,L|352:352|352:288,2,280
416,64,5329,6,0,L|416:352|416:288,2,280
480,64,5329,6,0,L|480:352|480:288,2,280
288,64,5329,6,0,L|288:352|288:288,2,280
0,256,5569,6,0,L|512:256,1,507.5
0,224,5569,6,0,L|512:224,1,507.5
0,192,5569,6,0,L|512:192,1,507.5
0,288,5569,6,0,L|512:288,1,507.5
0,384,5569,6,0,L|512:384,1,507.5
0,352,5569,6,0,L|512:352,1,507.5
0,320,5569,6,0,L|512:320,1,507.5
0,32,5569,6,0,L|512:32,1,507.5
0,0,5569,6,0,L|512:0,1,507.5
256,192,5569,12,0,6049,0:0:0:0:
0,64,5569,6,0,L|512:64,1,507.5
0,160,5569,6,0,L|512:160,1,507.5
0,128,5569,6,0,L|512:128,1,507.5
0,96,5569,6,0,L|512:96,1,507.5
416,64,5809,6,0,L|416:352|416:288,2,280
352,64,5809,6,0,L|352:352|352:288,2,280
288,64,5809,6,0,L|288:352|288:288,2,280
480,64,5809,6,0,L|480:352|480:288,2,280
96,64,5809,6,0,L|96:352|96:288,2,280
32,64,5809,6,0,L|32:352|32:288,2,280
224,64,5809,6,0,L|224:352|224:288,2,280
160,64,5809,6,0,L|160:352|160:288,2,280
256,192,6049,12,0,6529,0:0:0:0:
0,0,6049,6,0,L|512:0,1,507.5
0,32,6049,6,0,L|512:32,1,507.5
0,64,6049,6,0,L|512:64,1,507.5
0,96,6049,6,0,L|512:96,1,507.5
0,128,6049,6,0,L|512:128,1,507.5
0,160,6049,6,0,L|512:160,1,507.5
0,192,6049,6,0,L|512:192,1,507.5
0,224,6049,6,0,L|512:224,1,507.5
0,256,6049,6,0,L|512:256,1,507.5
0,288,6049,6,0,L|512:288,1,507.5
0,320,6049,6,0,L|512:320,1,507.5
0,352,6049,6,0,L|512:352,1,507.5
0,384,6049,6,0,L|512:384,1,507.5
32,64,6289,6,0,L|32:352|32:288,2,280
96,64,6289,6,0,L|96:352|96:288,2,280
160,64,6289,6,0,L|160:352|160:288,2,280
224,64,6289,6,0,L|224:352|224:288,2,280
352,64,6289,6,0,L|352:352|352:288,2,280
416,64,6289,6,0,L|416:352|416:288,2,280
480,64,6289,6,0,L|480:352|480:288,2,280
288,64,6289,6,0,L|288:352|288:288,2,280
0,256,6529,6,0,L|512:256,1,507.5
0,224,6529,6,0,L|512:224,1,507.5
0,192,6529,6,0,L|512:192,1,507.5
0,288,6529,6,0,L|512:288,1,507.5
0,384,6529,6,0,L|512:384,1,507.5
0,352,6529,6,0,L|512:352,1,507.5
0,320,6529,6,0,L|512:320,1,507.5
0,32,6529,6,0,L|512:32,1,507.5
0,0,6529,6,0,L|512:0,1,507.5
256,192,6529,12,0,7009,0:0:0:0:
0,64,6529,6,0,L|512:64,1,507.5
0,160,6529,6,0,L|512:160,1,507.5
0,128,6529,6,0,L|512:128,1,507.5
0,96,6529,6,0,L|512:96,1,507.5
416,64,6769,6,0,L|416:352|416:288,2,280
352,64,6769,6,0,L|352:352|352:288,2,280
288,64,6769,6,0,L|288:352|288:288,2,280
480,64,6769,6,0,L|480:352|480:288,2,280
96,64,6769,6,0,L|96:352|96:288,2,280
32,64,6769,6,0,L|32:352|32:288,2,280
224,64,6769,6,0,L|224:352|224:288,2,280
160,64,6769,6,0,L|160:352|160:288,2,280
0,256,7009,6,0,L|512:256,1,507.5
0,224,7009,6,0,L|512:224,1,507.5
0,192,7009,6,0,L|512:192,1,507.5
0,288,7009,6,0,L|512:288,1,507.5
0,384,7009,6,0,L|512:384,1,507.5
0,352,7009,6,0,L|512:352,1,507.5
0,320,7009,6,0,L|512:320,1,507.5
0,32,7009,6,0,L|512:32,1,507.5
0,0,7009,6,0,L|512:0,1,507.5
256,192,7009,12,0,7489,0:0:0:0:
0,64,7009,6,0,L|512:64,1,507.5
0,160,7009,6,0,L|512:160,1,507.5
0,128,7009,6,0,L|512:128,1,507.5
0,96,7009,6,0,L|512:96,1,507.5
32,64,7249,6,0,L|32:352|32:288,2,280
96,64,7249,6,0,L|96:352|96:288,2,280
160,64,7249,6,0,L|160:352|160:288,2,280
224,64,7249,6,0,L|224:352|224:288,2,280
352,64,7249,6,0,L|352:352|352:288,2,280
416,64,7249,6,0,L|416:352|416:288,2,280
480,64,7249,6,0,L|480:352|480:288,2,280
288,64,7249,6,0,L|288:352|288:288,2,280
256,192,7489,12,0,7969,0:0:0:0:
0,0,7489,6,0,L|512:0,1,507.5
0,32,7489,6,0,L|512:32,1,507.5
0,64,7489,6,0,L|512:64,1,507.5
0,96,7489,6,0,L|512:96,1,507.5
0,128,7489,6,0,L|512:128,1,507.5
0,160,7489,6,0,L|512:160,1,507.5
0,192,7489,6,0,L|512:192,1,507.5
0,224,7489,6,0,L|512:224,1,507.5
0,256,7489,6,0,L|512:256,1,507.5
0,288,7489,6,0,L|512:288,1,507.5
0,320,7489,6,0,L|512:320,1,507.5
0,352,7489,6,0,L|512:352,1,507.5
0,384,7489,6,0,L|512:384,1,507.5
0,288,7969,6,0,L|512:288,1,507.5
0,256,7969,6,0,L|512:256,1,507.5
0,224,7969,6,0,L|512:224,1,507.5
0,320,7969,6,0,L|512:320,1,507.5
256,192,7969,12,0,8449,0:0:0:0:
0,384,7969,6,0,L|512:384,1,507.5
0,352,7969,6,0,L|512:352,1,507.5
0,64,7969,6,0,L|512:64,1,507.5
0,32,7969,6,0,L|512:32,1,507.5
0,0,7969,6,0,L|512:0,1,507.5
0,96,7969,6,0,L|512:96,1,507.5
0,192,7969,6,0,L|512:192,1,507.5
0,160,7969,6,0,L|512:160,1,507.5
0,128,7969,6,0,L|512:128,1,507.5
416,64,8209,6,0,L|416:352|416:288,2,280
352,64,8209,6,0,L|352:352|352:288,2,280
288,64,8209,6,0,L|288:352|288:288,2,280
480,64,8209,6,0,L|480:352|480:288,2,280
96,64,8209,6,0,L|96:352|96:288,2,280
32,64,8209,6,0,L|32:352|32:288,2,280
224,64,8209,6,0,L|224:352|224:288,2,280
160,64,8209,6,0,L|160:352|160:288,2,280
256,192,8449,12,0,8929,0:0:0:0:
0,0,8449,6,0,L|512:0,1,507.5
0,32,8449,6,0,L|512:32,1,507.5
0,64,8449,6,0,L|512:64,1,507.5
0,96,8449,6,0,L|512:96,1,507.5
0,128,8449,6,0,L|512:128,1,507.5
0,160,8449,6,0,L|512:160,1,507.5
0,192,8449,6,0,L|512:192,1,507.5
0,224,8449,6,0,L|512:224,1,507.5
0,256,8449,6,0,L|512:256,1,507.5
0,288,8449,6,0,L|512:288,1,507.5
0,320,8449,6,0,L|512:320,1,507.5
0,352,8449,6,0,L|512:352,1,507.5
0,384,8449,6,0,L|512:384,1,507.5
32,64,8689,6,0,L|32:352|32:288,2,280
96,64,8689,6,0,L|96:352|96:288,2,280
160,64,8689,6,0,L|160:352|160:288,2,280
224,64,8689,6,0,L|224:352|224:288,2,280
352,64,8689,6,0,L|352:352|352:288,2,280
416,64,8689,6,0,L|416:352|416:288,2,280
480,64,8689,6,0,L|480:352|480:288,2,280
288,64,8689,6,0,L|288:352|288:288,2,280
0,256,8929,6,0,L|512:256,1,507.5
0,224,8929,6,0,L|512:224,1,507.5
0,192,8929,6,0,L|512:192,1,507.5
0,288,8929,6,0,L|512:288,1,507.5
0,384,8929,6,0,L|512:384,1,507.5
0,352,8929,6,0,L|512:352,1,507.5
0,320,8929,6,0,L|512:320,1,507.5
0,32,8929,6,0,L|512:32,1,507.5
0,0,8929,6,0,L|512:0,1,507.5
256,192,8929,12,0,9409,0:0:0:0:
0,64,8929,6,0,L|512:64,1,507.5
0,160,8929,6,0,L|512:160,1,507.5
0,128,8929,6,0,L|512:128,1,507.5
0,96,8929,6,0,L|512:96,1,507.5
32,64,9169,6,0,L|32:352|32:288,2,280
96,64,9169,6,0,L|96:352|96:288,2,280
160,64,9169,6,0,L|160:352|160:288,2,280
224,64,9169,6,0,L|224:352|224:288,2,280
352,64,9169,6,0,L|352:352|352:288,2,280
416,64,9169,6,0,L|416:352|416:288,2,280
480,64,9169,6,0,L|480:352|480:288,2,280
288,64,9169,6,0,L|288:352|288:288,2,280
256,192,9409,12,0,9889,0:0:0:0:
0,0,9409,6,0,L|512:0,1,507.5
0,32,9409,6,0,L|512:32,1,507.5
0,64,9409,6,0,L|512:64,1,507.5
0,96,9409,6,0,L|512:96,1,507.5
0,128,9409,6,0,L|512:128,1,507.5
0,160,9409,6,0,L|512:160,1,507.5
0,192,9409,6,0,L|512:192,1,507.5
0,224,9409,6,0,L|512:224,1,507.5
0,256,9409,6,0,L|512:256,1,507.5
0,288,9409,6,0,L|512:288,1,507.5
0,320,9409,6,0,L|512:320,1,507.5
0,352,9409,6,0,L|512:352,1,507.5
0,384,9409,6,0,L|512:384,1,507.5
416,64,9649,6,0,L|416:352|416:288,2,280
352,64,9649,6,0,L|352:352|352:288,2,280
288,64,9649,6,0,L|288:352|288:288,2,280
480,64,9649,6,0,L|480:352|480:288,2,280
96,64,9649,6,0,L|96:352|96:288,2,280
32,64,9649,6,0,L|32:352|32:288,2,280
224,64,9649,6,0,L|224:352|224:288,2,280
160,64,9649,6,0,L|160:352|160:288,2,280
256,192,9889,12,0,10369,0:0:0:0:
0,0,9889,6,0,L|512:0,1,507.5
0,32,9889,6,0,L|512:32,1,507.5
0,64,9889,6,0,L|512:64,1,507.5
0,96,9889,6,0,L|512:96,1,507.5
0,128,9889,6,0,L|512:128,1,507.5
0,160,9889,6,0,L|512:160,1,507.5
0,192,9889,6,0,L|512:192,1,507.5
0,224,9889,6,0,L|512:224,1,507.5
0,256,9889,6,0,L|512:256,1,507.5
0,288,9889,6,0,L|512:288,1,507.5
0,320,9889,6,0,L|512:320,1,507.5
0,352,9889,6,0,L|512:352,1,507.5
0,384,9889,6,0,L|512:384,1,507.5
32,64,10129,6,0,L|32:352|32:288,2,280
96,64,10129,6,0,L|96:352|96:288,2,280
160,64,10129,6,0,L|160:352|160:288,2,280
224,64,10129,6,0,L|224:352|224:288,2,280
352,64,10129,6,0,L|352:352|352:288,2,280
416,64,10129,6,0,L|416:352|416:288,2,280
480,64,10129,6,0,L|480:352|480:288,2,280
288,64,10129,6,0,L|288:352|288:288,2,280
0,256,10369,6,0,L|512:256,1,507.5
0,224,10369,6,0,L|512:224,1,507.5
0,192,10369,6,0,L|512:192,1,507.5
0,288,10369,6,0,L|512:288,1,507.5
0,384,10369,6,0,L|512:384,1,507.5
0,352,10369,6,0,L|512:352,1,507.5
0,320,10369,6,0,L|512:320,1,507.5
0,32,10369,6,0,L|512:32,1,507.5
0,0,10369,6,0,L|512:0,1,507.5
256,192,10369,12,0,10849,0:0:0:0:
0,64,10369,6,0,L|512:64,1,507.5
0,160,10369,6,0,L|512:160,1,507.5
0,128,10369,6,0,L|512:128,1,507.5
0,96,10369,6,0,L|512:96,1,507.5
416,64,10609,6,0,L|416:352|416:288,2,280
352,64,10609,6,0,L|352:352|352:288,2,280
288,64,10609,6,0,L|288:352|288:288,2,280
480,64,10609,6,0,L|480:352|480:288,2,280
96,64,10609,6,0,L|96:352|96:288,2,280
32,64,10609,6,0,L|32:352|32:288,2,280
224,64,10609,6,0,L|224:352|224:288,2,280
160,64,10609,6,0,L|160:352|160:288,2,280
0,256,10849,6,0,L|512:256,1,507.5
0,224,10849,6,0,L|512:224,1,507.5
0,192,10849,6,0,L|512:192,1,507.5
0,288,10849,6,0,L|512:288,1,507.5
0,384,10849,6,0,L|512:384,1,507.5
0,352,10849,6,0,L|512:352,1,507.5
0,320,10849,6,0,L|512:320,1,507.5
0,32,10849,6,0,L|512:32,1,507.5
0,0,10849,6,0,L|512:0,1,507.5
256,192,10849,12,0,11329,0:0:0:0:
0,64,10849,6,0,L|512:64,1,507.5
0,160,10849,6,0,L|512:160,1,507.5
0,128,10849,6,0,L|512:128,1,507.5
0,96,10849,6,0,L|512:96,1,507.5
416,64,11089,6,0,L|416:352|416:288,2,280
352,64,11089,6,0,L|352:352|352:288,2,280
288,64,11089,6,0,L|288:352|288:288,2,280
480,64,11089,6,0,L|480:352|480:288,2,280
96,64,11089,6,0,L|96:352|96:288,2,280
32,64,11089,6,0,L|32:352|32:288,2,280
224,64,11089,6,0,L|224:352|224:288,2,280
160,64,11089,6,0,L|160:352|160:288,2,280
0,256,11329,6,0,L|512:256,1,507.5
0,224,11329,6,0,L|512:224,1,507.5
0,192,11329,6,0,L|512:192,1,507.5
0,288,11329,6,0,L|512:288,1,507.5
0,384,11329,6,0,L|512:384,1,507.5
0,352,11329,6,0,L|512:352,1,507.5
0,320,11329,6,0,L|512:320,1,507.5
0,32,11329,6,0,L|512:32,1,507.5
0,0,11329,6,0,L|512:0,1,507.5
256,192,11329,12,0,11809,0:0:0:0:
0,64,11329,6,0,L|512:64,1,507.5
0,160,11329,6,0,L|512:160,1,507.5
0,128,11329,6,0,L|512:128,1,507.5
0,96,11329,6,0,L|512:96,1,507.5
416,64,11569,6,0,L|416:352|416:288,2,280
352,64,11569,6,0,L|352:352|352:288,2,280
288,64,11569,6,0,L|288:352|288:288,2,280
480,64,11569,6,0,L|480:352|480:288,2,280
96,64,11569,6,0,L|96:352|96:288,2,280
32,64,11569,6,0,L|32:352|32:288,2,280
224,64,11569,6,0,L|224:352|224:288,2,280
160,64,11569,6,0,L|160:352|160:288,2,280
0,256,11809,6,0,L|512:256,1,507.5
0,224,11809,6,0,L|512:224,1,507.5
0,192,11809,6,0,L|512:192,1,507.5
0,288,11809,6,0,L|512:288,1,507.5
0,384,11809,6,0,L|512:384,1,507.5
0,352,11809,6,0,L|512:352,1,507.5
0,320,11809,6,0,L|512:320,1,507.5
0,32,11809,6,0,L|512:32,1,507.5
0,0,11809,6,0,L|512:0,1,507.5
256,192,11809,12,0,12289,0:0:0:0:
0,64,11809,6,0,L|512:64,1,507.5
0,160,11809,6,0,L|512:160,1,507.5
0,128,11809,6,0,L|512:128,1,507.5
0,96,11809,6,0,L|512:96,1,507.5
416,64,12049,6,0,L|416:352|416:288,2,280
352,64,12049,6,0,L|352:352|352:288,2,280
288,64,12049,6,0,L|288:352|288:288,2,280
480,64,12049,6,0,L|480:352|480:288,2,280
96,64,12049,6,0,L|96:352|96:288,2,280
32,64,12049,6,0,L|32:352|32:288,2,280
224,64,12049,6,0,L|224:352|224:288,2,280
160,64,12049,6,0,L|160:352|160:288,2,280
0,256,12289,6,0,L|512:256,1,507.5
0,224,12289,6,0,L|512:224,1,507.5
0,192,12289,6,0,L|512:192,1,507.5
0,288,12289,6,0,L|512:288,1,507.5
0,384,12289,6,0,L|512:384,1,507.5
0,352,12289,6,0,L|512:352,1,507.5
0,320,12289,6,0,L|512:320,1,507.5
0,32,12289,6,0,L|512:32,1,507.5
0,0,12289,6,0,L|512:0,1,507.5
256,192,12289,12,0,12769,0:0:0:0:
0,64,12289,6,0,L|512:64,1,507.5
0,160,12289,6,0,L|512:160,1,507.5
0,128,12289,6,0,L|512:128,1,507.5
0,96,12289,6,0,L|512:96,1,507.5
32,64,12529,6,0,L|32:352|32:288,2,280
96,64,12529,6,0,L|96:352|96:288,2,280
160,64,12529,6,0,L|160:352|160:288,2,280
224,64,12529,6,0,L|224:352|224:288,2,280
352,64,12529,6,0,L|352:352|352:288,2,280
416,64,12529,6,0,L|416:352|416:288,2,280
480,64,12529,6,0,L|480:352|480:288,2,280
288,64,12529,6,0,L|288:352|288:288,2,280
0,256,12769,6,0,L|512:256,1,507.5
0,224,12769,6,0,L|512:224,1,507.5
0,192,12769,6,0,L|512:192,1,507.5
0,288,12769,6,0,L|512:288,1,507.5
0,384,12769,6,0,L|512:384,1,507.5
0,352,12769,6,0,L|512:352,1,507.5
0,320,12769,6,0,L|512:320,1,507.5
0,32,12769,6,0,L|512:32,1,507.5
0,0,12769,6,0,L|512:0,1,507.5
256,192,12769,12,0,13249,0:0:0:0:
0,64,12769,6,0,L|512:64,1,507.5
0,160,12769,6,0,L|512:160,1,507.5
0,128,12769,6,0,L|512:128,1,507.5
0,96,12769,6,0,L|512:96,1,507.5
32,64,13009,6,0,L|32:352|32:288,2,280
96,64,13009,6,0,L|96:352|96:288,2,280
160,64,13009,6,0,L|160:352|160:288,2,280
224,64,13009,6,0,L|224:352|224:288,2,280
352,64,13009,6,0,L|352:352|352:288,2,280
416,64,13009,6,0,L|416:352|416:288,2,280
480,64,13009,6,0,L|480:352|480:288,2,280
288,64,13009,6,0,L|288:352|288:288,2,280
0,256,13249,6,0,L|512:256,1,507.5
0,224,13249,6,0,L|512:224,1,507.5
0,192,13249,6,0,L|512:192,1,507.5
0,288,13249,6,0,L|512:288,1,507.5
0,384,13249,6,0,L|512:384,1,507.5
0,352,13249,6,0,L|512:352,1,507.5
0,320,13249,6,0,L|512:320,1,507.5
0,32,13249,6,0,L|512:32,1,507.5
0,0,13249,6,0,L|512:0,1,507.5
256,192,13249,12,0,13729,0:0:0:0:
0,64,13249,6,0,L|512:64,1,507.5
0,160,13249,6,0,L|512:160,1,507.5
0,128,13249,6,0,L|512:128,1,507.5
0,96,13249,6,0,L|512:96,1,507.5
32,64,13489,6,0,L|32:352|32:288,2,280
96,64,13489,6,0,L|96:352|96:288,2,280
160,64,13489,6,0,L|160:352|160:288,2,280
224,64,13489,6,0,L|224:352|224:288,2,280
352,64,13489,6,0,L|352:352|352:288,2,280
416,64,13489,6,0,L|416:352|416:288,2,280
480,64,13489,6,0,L|480:352|480:288,2,280
288,64,13489,6,0,L|288:352|288:288,2,280
256,192,13729,12,0,14209,0:0:0:0:
0,0,13729,6,0,L|512:0,1,507.5
0,32,13729,6,0,L|512:32,1,507.5
0,64,13729,6,0,L|512:64,1,507.5
0,96,13729,6,0,L|512:96,1,507.5
0,128,13729,6,0,L|512:128,1,507.5
0,160,13729,6,0,L|512:160,1,507.5
0,192,13729,6,0,L|512:192,1,507.5
0,224,13729,6,0,L|512:224,1,507.5
0,256,13729,6,0,L|512:256,1,507.5
0,288,13729,6,0,L|512:288,1,507.5
0,320,13729,6,0,L|512:320,1,507.5
0,352,13729,6,0,L|512:352,1,507.5
0,384,13729,6,0,L|512:384,1,507.5
32,64,13969,6,0,L|32:352|32:288,2,280
96,64,13969,6,0,L|96:352|96:288,2,280
160,64,13969,6,0,L|160:352|160:288,2,280
224,64,13969,6,0,L|224:352|224:288,2,280
352,64,13969,6,0,L|352:352|352:288,2,280
416,64,13969,6,0,L|416:352|416:288,2,280
480,64,13969,6,0,L|480:352|480:288,2,280
288,64,13969,6,0,L|288:352|288:288,2,280
256,192,14209,12,0,14689,0:0:0:0:
0,0,14209,6,0,L|512:0,1,507.5
0,32,14209,6,0,L|512:32,1,507.5
0,64,14209,6,0,L|512:64,1,507.5
0,96,14209,6,0,L|512:96,1,507.5
0,128,14209,6,0,L|512:128,1,507.5
0,160,14209,6,0,L|512:160,1,507.5
0,192,14209,6,0,L|512:192,1,507.5
0,224,14209,6,0,L|512:224,1,507.5
0,256,14209,6,0,L|512:256,1,507.5
0,288,14209,6,0,L|512:288,1,507.5
0,320,14209,6,0,L|512:320,1,507.5
0,352,14209,6,0,L|512:352,1,507.5
0,384,14209,6,0,L|512:384,1,507.5
416,64,14449,6,0,L|416:352|416:288,2,280
352,64,14449,6,0,L|352:352|352:288,2,280
288,64,14449,6,0,L|288:352|288:288,2,280
480,64,14449,6,0,L|480:352|480:288,2,280
96,64,14449,6,0,L|96:352|96:288,2,280
32,64,14449,6,0,L|32:352|32:288,2,280
224,64,14449,6,0,L|224:352|224:288,2,280
160,64,14449,6,0,L|160:352|160:288,2,280
0,256,14689,6,0,L|512:256,1,507.5
0,224,14689,6,0,L|512:224,1,507.5
0,192,14689,6,0,L|512:192,1,507.5
0,288,14689,6,0,L|512:288,1,507.5
0,384,14689,6,0,L|512:384,1,507.5
0,352,14689,6,0,L|512:352,1,507.5
0,320,14689,6,0,L|512:320,1,507.5
0,32,14689,6,0,L|512:32,1,507.5
0,0,14689,6,0,L|512:0,1,507.5
256,192,14689,12,0,15169,0:0:0:0:
0,64,14689,6,0,L|512:64,1,507.5
0,160,14689,6,0,L|512:160,1,507.5
0,128,14689,6,0,L|512:128,1,507.5
0,96,14689,6,0,L|512:96,1,507.5
416,64,14929,6,0,L|416:352|416:288,2,280
352,64,14929,6,0,L|352:352|352:288,2,280
288,64,14929,6,0,L|288:352|288:288,2,280
480,64,14929,6,0,L|480:352|480:288,2,280
96,64,14929,6,0,L|96:352|96:288,2,280
32,64,14929,6,0,L|32:352|32:288,2,280
224,64,14929,6,0,L|224:352|224:288,2,280
160,64,14929,6,0,L|160:352|160:288,2,280
256,192,15169,12,0,15649,0:0:0:0:
0,0,15169,6,0,L|512:0,1,507.5
0,32,15169,6,0,L|512:32,1,507.5
0,64,15169,6,0,L|512:64,1,507.5
0,96,15169,6,0,L|512:96,1,507.5
0,128,15169,6,0,L|512:128,1,507.5
0,160,15169,6,0,L|512:160,1,507.5
0,192,15169,6,0,L|512:192,1,507.5
0,224,15169,6,0,L|512:224,1,507.5
0,256,15169,6,0,L|512:256,1,507.5
0,288,15169,6,0,L|512:288,1,507.5
0,320,15169,6,0,L|512:320,1,507.5
0,352,15169,6,0,L|512:352,1,507.5
0,384,15169,6,0,L|512:384,1,507.5
0,0,15649,6,0,L|512:0,1,507.5
0,32,15649,6,0,L|512:32,1,507.5
0,64,15649,6,0,L|512:64,1,507.5
0,96,15649,6,0,L|512:96,1,507.5
0,128,15649,6,0,L|512:128,1,507.5
0,160,15649,6,0,L|512:160,1,507.5
0,192,15649,6,0,L|512:192,1,507.5
0,224,15649,6,0,L|512:224,1,507.5
0,256,15649,6,0,L|512:256,1,507.5
0,288,15649,6,0,L|512:288,1,507.5
0,320,15649,6,0,L|512:320,1,507.5
0,352,15649,6,0,L|512:352,1,507.5
0,384,15649,6,0,L|512:384,1,507.5
256,192,15649,12,0,16129,0:0:0:0:
32,64,15889,6,0,L|32:352|32:288,2,280
96,64,15889,6,0,L|96:352|96:288,2,280
160,64,15889,6,0,L|160:352|160:288,2,280
224,64,15889,6,0,L|224:352|224:288,2,280
352,64,15889,6,0,L|352:352|352:288,2,280
416,64,15889,6,0,L|416:352|416:288,2,280
480,64,15889,6,0,L|480:352|480:288,2,280
288,64,15889,6,0,L|288:352|288:288,2,280
0,256,16129,6,0,L|512:256,1,507.5
0,224,16129,6,0,L|512:224,1,507.5
0,192,16129,6,0,L|512:192,1,507.5
0,288,16129,6,0,L|512:288,1,507.5
0,384,16129,6,0,L|512:384,1,507.5
0,352,16129,6,0,L|512:352,1,507.5
0,320,16129,6,0,L|512:320,1,507.5
0,32,16129,6,0,L|512:32,1,507.5
0,0,16129,6,0,L|512:0,1,507.5
256,192,16129,12,0,16609,0:0:0:0:
0,64,16129,6,0,L|512:64,1,507.5
0,160,16129,6,0,L|512:160,1,507.5
0,128,16129,6,0,L|512:128,1,507.5
0,96,16129,6,0,L|512:96,1,507.5
416,64,16369,6,0,L|416:352|416:288,2,280
352,64,16369,6,0,L|352:352|352:288,2,280
288,64,16369,6,0,L|288:352|288:288,2,280
480,64,16369,6,0,L|480:352|480:288,2,280
96,64,16369,6,0,L|96:352|96:288,2,280
32,64,16369,6,0,L|32:352|32:288,2,280
224,64,16369,6,0,L|224:352|224:288,2,280
160,64,16369,6,0,L|160:352|160:288,2,280
256,192,16609,12,0,17089,0:0:0:0:
0,0,16609,6,0,L|512:0,1,507.5
0,32,16609,6,0,L|512:32,1,507.5
0,64,16609,6,0,L|512:64,1,507.5
0,96,16609,6,0,L|512:96,1,507.5
0,128,16609,6,0,L|512:128,1,507.5
0,160,16609,6,0,L|512:160,1,507.5
0,192,16609,6,0,L|512:192,1,507.5
0,224,16609,6,0,L|512:224,1,507.5
0,256,16609,6,0,L|512:256,1,507.5
0,288,16609,6,0,L|512:288,1,507.5
0,320,16609,6,0,L|512:320,1,507.5
0,352,16609,6,0,L|512:352,1,507.5
0,384,16609,6,0,L|512:384,1,507.5
416,64,16849,6,0,L|416:352|416:288,2,280
352,64,16849,6,0,L|352:352|352:288,2,280
288,64,16849,6,0,L|288:352|288:288,2,280
480,64,16849,6,0,L|480:352|480:288,2,280
96,64,16849,6,0,L|96:352|96:288,2,280
32,64,16849,6,0,L|32:352|32:288,2,280
224,64,16849,6,0,L|224:352|224:288,2,280
160,64,16849,6,0,L|160:352|160:288,2,280
0,256,17089,6,0,L|512:256,1,507.5
0,224,17089,6,0,L|512:224,1,507.5
0,192,17089,6,0,L|512:192,1,507.5
0,288,17089,6,0,L|512:288,1,507.5
0,384,17089,6,0,L|512:384,1,507.5
0,352,17089,6,0,L|512:352,1,507.5
0,320,17089,6,0,L|512:320,1,507.5
0,32,17089,6,0,L|512:32,1,507.5
0,0,17089,6,0,L|512:0,1,507.5
256,192,17089,12,0,17569,0:0:0:0:
0,64,17089,6,0,L|512:64,1,507.5
0,160,17089,6,0,L|512:160,1,507.5
0,128,17089,6,0,L|512:128,1,507.5
0,96,17089,6,0,L|512:96,1,507.5
32,64,17329,6,0,L|32:352|32:288,2,280
96,64,17329,6,0,L|96:352|96:288,2,280
160,64,17329,6,0,L|160:352|160:288,2,280
224,64,17329,6,0,L|224:352|224:288,2,280
352,64,17329,6,0,L|352:352|352:288,2,280
416,64,17329,6,0,L|416:352|416:288,2,280
480,64,17329,6,0,L|480:352|480:288,2,280
288,64,17329,6,0,L|288:352|288:288,2,280
0,256,17569,6,0,L|512:256,1,507.5
0,224,17569,6,0,L|512:224,1,507.5
0,192,17569,6,0,L|512:192,1,507.5
0,288,17569,6,0,L|512:288,1,507.5
0,384,17569,6,0,L|512:384,1,507.5
0,352,17569,6,0,L|512:352,1,507.5
0,320,17569,6,0,L|512:320,1,507.5
0,32,17569,6,0,L|512:32,1,507.5
0,0,17569,6,0,L|512:0,1,507.5
256,192,17569,12,0,18049,0:0:0:0:
0,64,17569,6,0,L|512:64,1,507.5
0,160,17569,6,0,L|512:160,1,507.5
0,128,17569,6,0,L|512:128,1,507.5
0,96,17569,6,0,L|512:96,1,507.5
416,64,17809,6,0,L|416:352|416:288,2,280
352,64,17809,6,0,L|352:352|352:288,2,280
288,64,17809,6,0,L|288:352|288:288,2,280
480,64,17809,6,0,L|480:352|480:288,2,280
96,64,17809,6,0,L|96:352|96:288,2,280
32,64,17809,6,0,L|32:352|32:288,2,280
224,64,17809,6,0,L|224:352|224:288,2,280
160,64,17809,6,0,L|160:352|160:288,2,280
256,192,18049,12,0,18529,0:0:0:0:
0,0,18049,6,0,L|512:0,1,507.5
0,32,18049,6,0,L|512:32,1,507.5
0,64,18049,6,0,L|512:64,1,507.5
0,96,18049,6,0,L|512:96,1,507.5
0,128,18049,6,0,L|512:128,1,507.5
0,160,18049,6,0,L|512:160,1,507.5
0,192,18049,6,0,L|512:192,1,507.5
0,224,18049,6,0,L|512:224,1,507.5
0,256,18049,6,0,L|512:256,1,507.5
0,288,18049,6,0,L|512:288,1,507.5
0,320,18049,6,0,L|512:320,1,507.5
0,352,18049,6,0,L|512:352,1,507.5
0,384,18049,6,0,L|512:384,1,507.5
32,64,18289,6,0,L|32:352|32:288,2,280
96,64,18289,6,0,L|96:352|96:288,2,280
160,64,18289,6,0,L|160:352|160:288,2,280
224,64,18289,6,0,L|224:352|224:288,2,280
352,64,18289,6,0,L|352:352|352:288,2,280
416,64,18289,6,0,L|416:352|416:288,2,280
480,64,18289,6,0,L|480:352|480:288,2,280
288,64,18289,6,0,L|288:352|288:288,2,280
256,192,18529,12,0,19009,0:0:0:0:
0,0,18529,6,0,L|512:0,1,507.5
0,32,18529,6,0,L|512:32,1,507.5
0,64,18529,6,0,L|512:64,1,507.5
0,96,18529,6,0,L|512:96,1,507.5
0,128,18529,6,0,L|512:128,1,507.5
0,160,18529,6,0,L|512:160,1,507.5
0,192,18529,6,0,L|512:192,1,507.5
0,224,18529,6,0,L|512:224,1,507.5
0,256,18529,6,0,L|512:256,1,507.5
0,288,18529,6,0,L|512:288,1,507.5
0,320,18529,6,0,L|512:320,1,507.5
0,352,18529,6,0,L|512:352,1,507.5
0,384,18529,6,0,L|512:384,1,507.5
32,64,18769,6,0,L|32:352|32:288,2,280
96,64,18769,6,0,L|96:352|96:288,2,280
160,64,18769,6,0,L|160:352|160:288,2,280
224,64,18769,6,0,L|224:352|224:288,2,280
352,64,18769,6,0,L|352:352|352:288,2,280
416,64,18769,6,0,L|416:352|416:288,2,280
480,64,18769,6,0,L|480:352|480:288,2,280
288,64,18769,6,0,L|288:352|288:288,2,280
256,192,19009,12,0,19489,0:0:0:0:
0,0,19009,6,0,L|512:0,1,507.5
0,32,19009,6,0,L|512:32,1,507.5
0,64,19009,6,0,L|512:64,1,507.5
0,96,19009,6,0,L|512:96,1,507.5
0,128,19009,6,0,L|512:128,1,507.5
0,160,19009,6,0,L|512:160,1,507.5
0,192,19009,6,0,L|512:192,1,507.5
0,224,19009,6,0,L|512:224,1,507.5
0,256,19009,6,0,L|512:256,1,507.5
0,288,19009,6,0,L|512:288,1,507.5
0,320,19009,6,0,L|512:320,1,507.5
0,352,19009,6,0,L|512:352,1,507.5
0,384,19009,6,0,L|512:384,1,507.5
32,64,19249,6,0,L|32:352|32:288,2,280
96,64,19249,6,0,L|96:352|96:288,2,280
160,64,19249,6,0,L|160:352|160:288,2,280
224,64,19249,6,0,L|224:352|224:288,2,280
352,64,19249,6,0,L|352:352|352:288,2,280
416,64,19249,6,0,L|416:352|416:288,2,280
480,64,19249,6,0,L|480:352|480:288,2,280
288,64,19249,6,0,L|288:352|288:288,2,280
256,192,19489,12,0,19969,0:0:0:0:
0,0,19489,6,0,L|512:0,1,507.5
0,32,19489,6,0,L|512:32,1,507.5
0,64,19489,6,0,L|512:64,1,507.5
0,96,19489,6,0,L|512:96,1,507.5
0,128,19489,6,0,L|512:128,1,507.5
0,160,19489,6,0,L|512:160,1,507.5
0,192,19489,6,0,L|512:192,1,507.5
0,224,19489,6,0,L|512:224,1,507.5
0,256,19489,6,0,L|512:256,1,507.5
0,288,19489,6,0,L|512:288,1,507.5
0,320,19489,6,0,L|512:320,1,507.5
0,352,19489,6,0,L|512:352,1,507.5
0,384,19489,6,0,L|512:384,1,507.5
32,64,19729,6,0,L|32:352|32:288,2,280
96,64,19729,6,0,L|96:352|96:288,2,280
160,64,19729,6,0,L|160:352|160:288,2,280
224,64,19729,6,0,L|224:352|224:288,2,280
352,64,19729,6,0,L|352:352|352:288,2,280
416,64,19729,6,0,L|416:352|416:288,2,280
480,64,19729,6,0,L|480:352|480:288,2,280
288,64,19729,6,0,L|288:352|288:288,2,280
256,192,19969,12,0,20449,0:0:0:0:
0,0,19969,6,0,L|512:0,1,507.5
0,32,19969,6,0,L|512:32,1,507.5
0,64,19969,6,0,L|512:64,1,507.5
0,96,19969,6,0,L|512:96,1,507.5
0,128,19969,6,0,L|512:128,1,507.5
0,160,19969,6,0,L|512:160,1,507.5
0,192,19969,6,0,L|512:192,1,507.5
0,224,19969,6,0,L|512:224,1,507.5
0,256,19969,6,0,L|512:256,1,507.5
0,288,19969,6,0,L|512:288,1,507.5
0,320,19969,6,0,L|512:320,1,507.5
0,352,19969,6,0,L|512:352,1,507.5
0,384,19969,6,0,L|512:384,1,507.5
416,64,20209,6,0,L|416:352|416:288,2,280
352,64,20209,6,0,L|352:352|352:288,2,280
288,64,20209,6,0,L|288:352|288:288,2,280
480,64,20209,6,0,L|480:352|480:288,2,280
96,64,20209,6,0,L|96:352|96:288,2,280
32,64,20209,6,0,L|32:352|32:288,2,280
224,64,20209,6,0,L|224:352|224:288,2,280
160,64,20209,6,0,L|160:352|160:288,2,280
256,192,20449,12,0,20929,0:0:0:0:
0,0,20449,6,0,L|512:0,1,507.5
0,32,20449,6,0,L|512:32,1,507.5
0,64,20449,6,0,L|512:64,1,507.5
0,96,20449,6,0,L|512:96,1,507.5
0,128,20449,6,0,L|512:128,1,507.5
0,160,20449,6,0,L|512:160,1,507.5
0,192,20449,6,0,L|512:192,1,507.5
0,224,20449,6,0,L|512:224,1,507.5
0,256,20449,6,0,L|512:256,1,507.5
0,288,20449,6,0,L|512:288,1,507.5
0,320,20449,6,0,L|512:320,1,507.5
0,352,20449,6,0,L|512:352,1,507.5
0,384,20449,6,0,L|512:384,1,507.5
416,64,20689,6,0,L|416:352|416:288,2,280
352,64,20689,6,0,L|352:352|352:288,2,280
288,64,20689,6,0,L|288:352|288:288,2,280
480,64,20689,6,0,L|480:352|480:288,2,280
96,64,20689,6,0,L|96:352|96:288,2,280
32,64,20689,6,0,L|32:352|32:288,2,280
224,64,20689,6,0,L|224:352|224:288,2,280
160,64,20689,6,0,L|160:352|160:288,2,280
256,192,20929,12,0,21409,0:0:0:0:
0,0,20929,6,0,L|512:0,1,507.5
0,32,20929,6,0,L|512:32,1,507.5
0,64,20929,6,0,L|512:64,1,507.5
0,96,20929,6,0,L|512:96,1,507.5
0,128,20929,6,0,L|512:128,1,507.5
0,160,20929,6,0,L|512:160,1,507.5
0,192,20929,6,0,L|512:192,1,507.5
0,224,20929,6,0,L|512:224,1,507.5
0,256,20929,6,0,L|512:256,1,507.5
0,288,20929,6,0,L|512:288,1,507.5
0,320,20929,6,0,L|512:320,1,507.5
0,352,20929,6,0,L|512:352,1,507.5
0,384,20929,6,0,L|512:384,1,507.5
416,64,21169,6,0,L|416:352|416:288,2,280
352,64,21169,6,0,L|352:352|352:288,2,280
288,64,21169,6,0,L|288:352|288:288,2,280
480,64,21169,6,0,L|480:352|480:288,2,280
96,64,21169,6,0,L|96:352|96:288,2,280
32,64,21169,6,0,L|32:352|32:288,2,280
224,64,21169,6,0,L|224:352|224:288,2,280
160,64,21169,6,0,L|160:352|160:288,2,280
0,256,21409,6,0,L|512:256,1,507.5
0,224,21409,6,0,L|512:224,1,507.5
0,192,21409,6,0,L|512:192,1,507.5
0,288,21409,6,0,L|512:288,1,507.5
0,384,21409,6,0,L|512:384,1,507.5
0,352,21409,6,0,L|512:352,1,507.5
0,320,21409,6,0,L|512:320,1,507.5
0,32,21409,6,0,L|512:32,1,507.5
0,0,21409,6,0,L|512:0,1,507.5
256,192,21409,12,0,21889,0:0:0:0:
0,64,21409,6,0,L|512:64,1,507.5
0,160,21409,6,0,L|512:160,1,507.5
0,128,21409,6,0,L|512:128,1,507.5
0,96,21409,6,0,L|512:96,1,507.5
416,64,21649,6,0,L|416:352|416:288,2,280
352,64,21649,6,0,L|352:352|352:288,2,280
288,64,21649,6,0,L|288:352|288:288,2,280
480,64,21649,6,0,L|480:352|480:288,2,280
96,64,21649,6,0,L|96:352|96:288,2,280
32,64,21649,6,0,L|32:352|32:288,2,280
224,64,21649,6,0,L|224:352|224:288,2,280
160,64,21649,6,0,L|160:352|160:288,2,280
0,256,21889,6,0,L|512:256,1,507.5
0,224,21889,6,0,L|512:224,1,507.5
0,192,21889,6,0,L|512:192,1,507.5
0,288,21889,6,0,L|512:288,1,507.5
0,384,21889,6,0,L|512:384,1,507.5
0,352,21889,6,0,L|512:352,1,507.5
0,320,21889,6,0,L|512:320,1,507.5
0,32,21889,6,0,L|512:32,1,507.5
0,0,21889,6,0,L|512:0,1,507.5
256,192,21889,12,0,22369,0:0:0:0:
0,64,21889,6,0,L|512:64,1,507.5
0,160,21889,6,0,L|512:160,1,507.5
0,128,21889,6,0,L|512:128,1,507.5
0,96,21889,6,0,L|512:96,1,507.5
32,64,22129,6,0,L|32:352|32:288,2,280
96,64,22129,6,0,L|96:352|96:288,2,280
160,64,22129,6,0,L|160:352|160:288,2,280
224,64,22129,6,0,L|224:352|224:288,2,280
352,64,22129,6,0,L|352:352|352:288,2,280
416,64,22129,6,0,L|416:352|416:288,2,280
480,64,22129,6,0,L|480:352|480:288,2,280
288,64,22129,6,0,L|288:352|288:288,2,280
256,192,22369,12,0,22849,0:0:0:0:
0,0,22369,6,0,L|512:0,1,507.5
0,32,22369,6,0,L|512:32,1,507.5
0,64,22369,6,0,L|512:64,1,507.5
0,96,22369,6,0,L|512:96,1,507.5
0,128,22369,6,0,L|512:128,1,507.5
0,160,22369,6,0,L|512:160,1,507.5
0,192,22369,6,0,L|512:192,1,507.5
0,224,22369,6,0,L|512:224,1,507.5
0,256,22369,6,0,L|512:256,1,507.5
0,288,22369,6,0,L|512:288,1,507.5
0,320,22369,6,0,L|512:320,1,507.5
0,352,22369,6,0,L|512:352,1,507.5
0,384,22369,6,0,L|512:384,1,507.5
32,64,22609,6,0,L|32:352|32:288,2,280
96,64,22609,6,0,L|96:352|96:288,2,280
160,64,22609,6,0,L|160:352|160:288,2,280
224,64,22609,6,0,L|224:352|224:288,2,280
352,64,22609,6,0,L|352:352|352:288,2,280
416,64,22609,6,0,L|416:352|416:288,2,280
480,64,22609,6,0,L|480:352|480:288,2,280
288,64,22609,6,0,L|288:352|288:288,2,280
0,256,22849,6,0,L|512:256,1,507.5
0,224,22849,6,0,L|512:224,1,507.5
0,192,22849,6,0,L|512:192,1,507.5
0,288,22849,6,0,L|512:288,1,507.5
0,384,22849,6,0,L|512:384,1,507.5
0,352,22849,6,0,L|512:352,1,507.5
0,320,22849,6,0,L|512:320,1,507.5
0,32,22849,6,0,L|512:32,1,507.5
0,0,22849,6,0,L|512:0,1,507.5
256,192,22849,12,0,23329,0:0:0:0:
0,64,22849,6,0,L|512:64,1,507.5
0,160,22849,6,0,L|512:160,1,507.5
0,128,22849,6,0,L|512:128,1,507.5
0,96,22849,6,0,L|512:96,1,507.5
0,288,23329,6,0,L|512:288,1,507.5
0,256,23329,6,0,L|512:256,1,507.5
0,224,23329,6,0,L|512:224,1,507.5
0,320,23329,6,0,L|512:320,1,507.5
256,192,23329,12,0,23809,0:0:0:0:
0,384,23329,6,0,L|512:384,1,507.5
0,352,23329,6,0,L|512:352,1,507.5
0,64,23329,6,0,L|512:64,1,507.5
0,32,23329,6,0,L|512:32,1,507.5
0,0,23329,6,0,L|512:0,1,507.5
0,96,23329,6,0,L|512:96,1,507.5
0,192,23329,6,0,L|512:192,1,507.5
0,160,23329,6,0,L|512:160,1,507.5
0,128,23329,6,0,L|512:128,1,507.5
416,64,23569,6,0,L|416:352|416:288,2,280
352,64,23569,6,0,L|352:352|352:288,2,280
288,64,23569,6,0,L|288:352|288:288,2,280
480,64,23569,6,0,L|480:352|480:288,2,280
96,64,23569,6,0,L|96:352|96:288,2,280
32,64,23569,6,0,L|32:352|32:288,2,280
224,64,23569,6,0,L|224:352|224:288,2,280
160,64,23569,6,0,L|160:352|160:288,2,280
256,192,23809,12,0,24289,0:0:0:0:
0,0,23809,6,0,L|512:0,1,507.5
0,32,23809,6,0,L|512:32,1,507.5
0,64,23809,6,0,L|512:64,1,507.5
0,96,23809,6,0,L|512:96,1,507.5
0,128,23809,6,0,L|512:128,1,507.5
0,160,23809,6,0,L|512:160,1,507.5
0,192,23809,6,0,L|512:192,1,507.5
0,224,23809,6,0,L|512:224,1,507.5
0,256,23809,6,0,L|512:256,1,507.5
0,288,23809,6,0,L|512:288,1,507.5
0,320,23809,6,0,L|512:320,1,507.5
0,352,23809,6,0,L|512:352,1,507.5
0,384,23809,6,0,L|512:384,1,507.5
32,64,24049,6,0,L|32:352|32:288,2,280
96,64,24049,6,0,L|96:352|96:288,2,280
160,64,24049,6,0,L|160:352|160:288,2,280
224,64,24049,6,0,L|224:352|224:288,2,280
352,64,24049,6,0,L|352:352|352:288,2,280
416,64,24049,6,0,L|416:352|416:288,2,280
480,64,24049,6,0,L|480:352|480:288,2,280
288,64,24049,6,0,L|288:352|288:288,2,280
0,256,24289,6,0,L|512:256,1,507.5
0,224,24289,6,0,L|512:224,1,507.5
0,192,24289,6,0,L|512:192,1,507.5
0,288,24289,6,0,L|512:288,1,507.5
0,384,24289,6,0,L|512:384,1,507.5
0,352,24289,6,0,L|512:352,1,507.5
0,320,24289,6,0,L|512:320,1,507.5
0,32,24289,6,0,L|512:32,1,507.5
0,0,24289,6,0,L|512:0,1,507.5
256,192,24289,12,0,24769,0:0:0:0:
0,64,24289,6,0,L|512:64,1,507.5
0,160,24289,6,0,L|512:160,1,507.5
0,128,24289,6,0,L|512:128,1,507.5
0,96,24289,6,0,L|512:96,1,507.5
32,64,24529,6,0,L|32:352|32:288,2,280
96,64,24529,6,0,L|96:352|96:288,2,280
160,64,24529,6,0,L|160:352|160:288,2,280
224,64,24529,6,0,L|224:352|224:288,2,280
352,64,24529,6,0,L|352:352|352:288,2,280
416,64,24529,6,0,L|416:352|416:288,2,280
480,64,24529,6,0,L|480:352|480:288,2,280
288,64,24529,6,0,L|288:352|288:288,2,280
256,192,24769,12,0,25249,0:0:0:0:
0,0,24769,6,0,L|512:0,1,507.5
0,32,24769,6,0,L|512:32,1,507.5
0,64,24769,6,0,L|512:64,1,507.5
0,96,24769,6,0,L|512:96,1,507.5
0,128,24769,6,0,L|512:128,1,507.5
0,160,24769,6,0,L|512:160,1,507.5
0,192,24769,6,0,L|512:192,1,507.5
0,224,24769,6,0,L|512:224,1,507.5
0,256,24769,6,0,L|512:256,1,507.5
0,288,24769,6,0,L|512:288,1,507.5
0,320,24769,6,0,L|512:320,1,507.5
0,352,24769,6,0,L|512:352,1,507.5
0,384,24769,6,0,L|512:384,1,507.5
416,64,25009,6,0,L|416:352|416:288,2,280
352,64,25009,6,0,L|352:352|352:288,2,280
288,64,25009,6,0,L|288:352|288:288,2,280
480,64,25009,6,0,L|480:352|480:288,2,280
96,64,25009,6,0,L|96:352|96:288,2,280
32,64,25009,6,0,L|32:352|32:288,2,280
224,64,25009,6,0,L|224:352|224:288,2,280
160,64,25009,6,0,L|160:352|160:288,2,280
256,192,25249,12,0,25729,0:0:0:0:
0,0,25249,6,0,L|512:0,1,507.5
0,32,25249,6,0,L|512:32,1,507.5
0,64,25249,6,0,L|512:64,1,507.5
0,96,25249,6,0,L|512:96,1,507.5
0,128,25249,6,0,L|512:128,1,507.5
0,160,25249,6,0,L|512:160,1,507.5
0,192,25249,6,0,L|512:192,1,507.5
0,224,25249,6,0,L|512:224,1,507.5
0,256,25249,6,0,L|512:256,1,507.5
0,288,25249,6,0,L|512:288,1,507.5
0,320,25249,6,0,L|512:320,1,507.5
0,352,25249,6,0,L|512:352,1,507.5
0,384,25249,6,0,L|512:384,1,507.5
32,64,25489,6,0,L|32:352|32:288,2,280
96,64,25489,6,0,L|96:352|96:288,2,280
160,64,25489,6,0,L|160:352|160:288,2,280
224,64,25489,6,0,L|224:352|224:288,2,280
352,64,25489,6,0,L|352:352|352:288,2,280
416,64,25489,6,0,L|416:352|416:288,2,280
480,64,25489,6,0,L|480:352|480:288,2,280
288,64,25489,6,0,L|288:352|288:288,2,280
0,256,25729,6,0,L|512:256,1,507.5
0,224,25729,6,0,L|512:224,1,507.5
0,192,25729,6,0,L|512:192,1,507.5
0,288,25729,6,0,L|512:288,1,507.5
0,384,25729,6,0,L|512:384,1,507.5
0,352,25729,6,0,L|512:352,1,507.5
0,320,25729,6,0,L|512:320,1,507.5
0,32,25729,6,0,L|512:32,1,507.5
0,0,25729,6,0,L|512:0,1,507.5
256,192,25729,12,0,26209,0:0:0:0:
0,64,25729,6,0,L|512:64,1,507.5
0,160,25729,6,0,L|512:160,1,507.5
0,128,25729,6,0,L|512:128,1,507.5
0,96,25729,6,0,L|512:96,1,507.5
416,64,25969,6,0,L|416:352|416:288,2,280
352,64,25969,6,0,L|352:352|352:288,2,280
288,64,25969,6,0,L|288:352|288:288,2,280
480,64,25969,6,0,L|480:352|480:288,2,280
96,64,25969,6,0,L|96:352|96:288,2,280
32,64,25969,6,0,L|32:352|32:288,2,280
224,64,25969,6,0,L|224:352|224:288,2,280
160,64,25969,6,0,L|160:352|160:288,2,280
0,256,26209,6,0,L|512:256,1,507.5
0,224,26209,6,0,L|512:224,1,507.5
0,192,26209,6,0,L|512:192,1,507.5
0,288,26209,6,0,L|512:288,1,507.5
0,384,26209,6,0,L|512:384,1,507.5
0,352,26209,6,0,L|512:352,1,507.5
0,320,26209,6,0,L|512:320,1,507.5
0,32,26209,6,0,L|512:32,1,507.5
0,0,26209,6,0,L|512:0,1,507.5
256,192,26209,12,0,26689,0:0:0:0:
0,64,26209,6,0,L|512:64,1,507.5
0,160,26209,6,0,L|512:160,1,507.5
0,128,26209,6,0,L|512:128,1,507.5
0,96,26209,6,0,L|512:96,1,507.5
416,64,26449,6,0,L|416:352|416:288,2,280
352,64,26449,6,0,L|352:352|352:288,2,280
288,64,26449,6,0,L|288:352|288:288,2,280
480,64,26449,6,0,L|480:352|480:288,2,280
96,64,26449,6,0,L|96:352|96:288,2,280
32,64,26449,6,0,L|32:352|32:288,2,280
224,64,26449,6,0,L|224:352|224:288,2,280
160,64,26449,6,0,L|160:352|160:288,2,280
0,256,26689,6,0,L|512:256,1,507.5
0,224,26689,6,0,L|512:224,1,507.5
0,192,26689,6,0,L|512:192,1,507.5
0,288,26689,6,0,L|512:288,1,507.5
0,384,26689,6,0,L|512:384,1,507.5
0,352,26689,6,0,L|512:352,1,507.5
0,320,26689,6,0,L|512:320,1,507.5
0,32,26689,6,0,L|512:32,1,507.5
0,0,26689,6,0,L|512:0,1,507.5
256,192,26689,12,0,27169,0:0:0:0:
0,64,26689,6,0,L|512:64,1,507.5
0,160,26689,6,0,L|512:160,1,507.5
0,128,26689,6,0,L|512:128,1,507.5
0,96,26689,6,0,L|512:96,1,507.5
416,64,26929,6,0,L|416:352|416:288,2,280
352,64,26929,6,0,L|352:352|352:288,2,280
288,64,26929,6,0,L|288:352|288:288,2,280
480,64,26929,6,0,L|480:352|480:288,2,280
96,64,26929,6,0,L|96:352|96:288,2,280
32,64,26929,6,0,L|32:352|32:288,2,280
224,64,26929,6,0,L|224:352|224:288,2,280
160,64,26929,6,0,L|160:352|160:288,2,280
0,256,27169,6,0,L|512:256,1,507.5
0,224,27169,6,0,L|512:224,1,507.5
0,192,27169,6,0,L|512:192,1,507.5
0,288,27169,6,0,L|512:288,1,507.5
0,384,27169,6,0,L|512:384,1,507.5
0,352,27169,6,0,L|512:352,1,507.5
0,320,27169,6,0,L|512:320,1,507.5
0,32,27169,6,0,L|512:32,1,507.5
0,0,27169,6,0,L|512:0,1,507.5
256,192,27169,12,0,27649,0:0:0:0:
0,64,27169,6,0,L|512:64,1,507.5
0,160,27169,6,0,L|512:160,1,507.5
0,128,27169,6,0,L|512:128,1,507.5
0,96,27169,6,0,L|512:96,1,507.5
416,64,27409,6,0,L|416:352|416:288,2,280
352,64,27409,6,0,L|352:352|352:288,2,280
288,64,27409,6,0,L|288:352|288:288,2,280
480,64,27409,6,0,L|480:352|480:288,2,280
96,64,27409,6,0,L|96:352|96:288,2,280
32,64,27409,6,0,L|32:352|32:288,2,280
224,64,27409,6,0,L|224:352|224:288,2,280
160,64,27409,6,0,L|160:352|160:288,2,280
0,256,27649,6,0,L|512:256,1,507.5
0,224,27649,6,0,L|512:224,1,507.5
0,192,27649,6,0,L|512:192,1,507.5
0,288,27649,6,0,L|512:288,1,507.5
0,384,27649,6,0,L|512:384,1,507.5
0,352,27649,6,0,L|512:352,1,507.5
0,320,27649,6,0,L|512:320,1,507.5
0,32,27649,6,0,L|512:32,1,507.5
0,0,27649,6,0,L|512:0,1,507.5
256,192,27649,12,0,28129,0:0:0:0:
0,64,27649,6,0,L|512:64,1,507.5
0,160,27649,6,0,L|512:160,1,507.5
0,128,27649,6,0,L|512:128,1,507.5
0,96,27649,6,0,L|512:96,1,507.5
32,64,27889,6,0,L|32:352|32:288,2,280
96,64,27889,6,0,L|96:352|96:288,2,280
160,64,27889,6,0,L|160:352|160:288,2,280
224,64,27889,6,0,L|224:352|224:288,2,280
352,64,27889,6,0,L|352:352|352:288,2,280
416,64,27889,6,0,L|416:352|416:288,2,280
480,64,27889,6,0,L|480:352|480:288,2,280
288,64,27889,6,0,L|288:352|288:288,2,280
0,256,28129,6,0,L|512:256,1,507.5
0,224,28129,6,0,L|512:224,1,507.5
0,192,28129,6,0,L|512:192,1,507.5
0,288,28129,6,0,L|512:288,1,507.5
0,384,28129,6,0,L|512:384,1,507.5
0,352,28129,6,0,L|512:352,1,507.5
0,320,28129,6,0,L|512:320,1,507.5
0,32,28129,6,0,L|512:32,1,507.5
0,0,28129,6,0,L|512:0,1,507.5
256,192,28129,12,0,28609,0:0:0:0:
0,64,28129,6,0,L|512:64,1,507.5
0,160,28129,6,0,L|512:160,1,507.5
0,128,28129,6,0,L|512:128,1,507.5
0,96,28129,6,0,L|512:96,1,507.5
32,64,28369,6,0,L|32:352|32:288,2,280
96,64,28369,6,0,L|96:352|96:288,2,280
160,64,28369,6,0,L|160:352|160:288,2,280
224,64,28369,6,0,L|224:352|224:288,2,280
352,64,28369,6,0,L|352:352|352:288,2,280
416,64,28369,6,0,L|416:352|416:288,2,280
480,64,28369,6,0,L|480:352|480:288,2,280
288,64,28369,6,0,L|288:352|288:288,2,280
0,256,28609,6,0,L|512:256,1,507.5
0,224,28609,6,0,L|512:224,1,507.5
0,192,28609,6,0,L|512:192,1,507.5
0,288,28609,6,0,L|512:288,1,507.5
0,384,28609,6,0,L|512:384,1,507.5
0,352,28609,6,0,L|512:352,1,507.5
0,320,28609,6,0,L|512:320,1,507.5
0,32,28609,6,0,L|512:32,1,507.5
0,0,28609,6,0,L|512:0,1,507.5
256,192,28609,12,0,29089,0:0:0:0:
0,64,28609,6,0,L|512:64,1,507.5
0,160,28609,6,0,L|512:160,1,507.5
0,128,28609,6,0,L|512:128,1,507.5
0,96,28609,6,0,L|512:96,1,507.5
32,64,28849,6,0,L|32:352|32:288,2,280
96,64,28849,6,0,L|96:352|96:288,2,280
160,64,28849,6,0,L|160:352|160:288,2,280
224,64,28849,6,0,L|224:352|224:288,2,280
352,64,28849,6,0,L|352:352|352:288,2,280
416,64,28849,6,0,L|416:352|416:288,2,280
480,64,28849,6,0,L|480:352|480:288,2,280
288,64,28849,6,0,L|288:352|288:288,2,280
256,192,29089,12,0,29569,0:0:0:0:
0,0,29089,6,0,L|512:0,1,507.5
0,32,29089,6,0,L|512:32,1,507.5
0,64,29089,6,0,L|512:64,1,507.5
0,96,29089,6,0,L|512:96,1,507.5
0,128,29089,6,0,L|512:128,1,507.5
0,160,29089,6,0,L|512:160,1,507.5
0,192,29089,6,0,L|512:192,1,507.5
0,224,29089,6,0,L|512:224,1,507.5
0,256,29089,6,0,L|512:256,1,507.5
0,288,29089,6,0,L|512:288,1,507.5
0,320,29089,6,0,L|512:320,1,507.5
0,352,29089,6,0,L|512:352,1,507.5
0,384,29089,6,0,L|512:384,1,507.5
32,64,29329,6,0,L|32:352|32:288,2,280
96,64,29329,6,0,L|96:352|96:288,2,280
160,64,29329,6,0,L|160:352|160:288,2,280
224,64,29329,6,0,L|224:352|224:288,2,280
352,64,29329,6,0,L|352:352|352:288,2,280
416,64,29329,6,0,L|416:352|416:288,2,280
480,64,29329,6,0,L|480:352|480:288,2,280
288,64,29329,6,0,L|288:352|288:288,2,280
256,192,29569,12,0,30049,0:0:0:0:
0,0,29569,6,0,L|512:0,1,507.5
0,32,29569,6,0,L|512:32,1,507.5
0,64,29569,6,0,L|512:64,1,507.5
0,96,29569,6,0,L|512:96,1,507.5
0,128,29569,6,0,L|512:128,1,507.5
0,160,29569,6,0,L|512:160,1,507.5
0,192,29569,6,0,L|512:192,1,507.5
0,224,29569,6,0,L|512:224,1,507.5
0,256,29569,6,0,L|512:256,1,507.5
0,288,29569,6,0,L|512:288,1,507.5
0,320,29569,6,0,L|512:320,1,507.5
0,352,29569,6,0,L|512:352,1,507.5
0,384,29569,6,0,L|512:384,1,507.5
416,64,29809,6,0,L|416:352|416:288,2,280
352,64,29809,6,0,L|352:352|352:288,2,280
288,64,29809,6,0,L|288:352|288:288,2,280
480,64,29809,6,0,L|480:352|480:288,2,280
96,64,29809,6,0,L|96:352|96:288,2,280
32,64,29809,6,0,L|32:352|32:288,2,280
224,64,29809,6,0,L|224:352|224:288,2,280
160,64,29809,6,0,L|160:352|160:288,2,280
0,256,30049,6,0,L|512:256,1,507.5
0,224,30049,6,0,L|512:224,1,507.5
0,192,30049,6,0,L|512:192,1,507.5
0,288,30049,6,0,L|512:288,1,507.5
0,384,30049,6,0,L|512:384,1,507.5
0,352,30049,6,0,L|512:352,1,507.5
0,320,30049,6,0,L|512:320,1,507.5
0,32,30049,6,0,L|512:32,1,507.5
0,0,30049,6,0,L|512:0,1,507.5
256,192,30049,12,0,30529,0:0:0:0:
0,64,30049,6,0,L|512:64,1,507.5
0,160,30049,6,0,L|512:160,1,507.5
0,128,30049,6,0,L|512:128,1,507.5
0,96,30049,6,0,L|512:96,1,507.5
416,64,30289,6,0,L|416:352|416:288,2,280
352,64,30289,6,0,L|352:352|352:288,2,280
288,64,30289,6,0,L|288:352|288:288,2,280
480,64,30289,6,0,L|480:352|480:288,2,280
96,64,30289,6,0,L|96:352|96:288,2,280
32,64,30289,6,0,L|32:352|32:288,2,280
224,64,30289,6,0,L|224:352|224:288,2,280
160,64,30289,6,0,L|160:352|160:288,2,280
256,192,30529,12,0,31009,0:0:0:0:
0,0,30529,6,0,L|512:0,1,507.5
0,32,30529,6,0,L|512:32,1,507.5
0,64,30529,6,0,L|512:64,1,507.5
0,96,30529,6,0,L|512:96,1,507.5
0,128,30529,6,0,L|512:128,1,507.5
0,160,30529,6,0,L|512:160,1,507.5
0,192,30529,6,0,L|512:192,1,507.5
0,224,30529,6,0,L|512:224,1,507.5
0,256,30529,6,0,L|512:256,1,507.5
0,288,30529,6,0,L|512:288,1,507.5
0,320,30529,6,0,L|512:320,1,507.5
0,352,30529,6,0,L|512:352,1,507.5
0,384,30529,6,0,L|512:384,1,507.5
0,0,31009,6,0,L|512:0,1,507.5
0,32,31009,6,0,L|512:32,1,507.5
0,64,31009,6,0,L|512:64,1,507.5
0,96,31009,6,0,L|512:96,1,507.5
0,128,31009,6,0,L|512:128,1,507.5
0,160,31009,6,0,L|512:160,1,507.5
0,192,31009,6,0,L|512:192,1,507.5
0,224,31009,6,0,L|512:224,1,507.5
0,256,31009,6,0,L|512:256,1,507.5
0,288,31009,6,0,L|512:288,1,507.5
0,320,31009,6,0,L|512:320,1,507.5
0,352,31009,6,0,L|512:352,1,507.5
0,384,31009,6,0,L|512:384,1,507.5
256,192,31009,12,0,31489,0:0:0:0:
32,64,31249,6,0,L|32:352|32:288,2,280
96,64,31249,6,0,L|96:352|96:288,2,280
160,64,31249,6,0,L|160:352|160:288,2,280
224,64,31249,6,0,L|224:352|224:288,2,280
352,64,31249,6,0,L|352:352|352:288,2,280
416,64,31249,6,0,L|416:352|416:288,2,280
480,64,31249,6,0,L|480:352|480:288,2,280
288,64,31249,6,0,L|288:352|288:288,2,280
0,256,31489,6,0,L|512:256,1,507.5
0,224,31489,6,0,L|512:224,1,507.5
0,192,31489,6,0,L|512:192,1,507.5
0,288,31489,6,0,L|512:288,1,507.5
0,384,31489,6,0,L|512:384,1,507.5
0,352,31489,6,0,L|512:352,1,507.5
0,320,31489,6,0,L|512:320,1,507.5
0,32,31489,6,0,L|512:32,1,507.5
0,0,31489,6,0,L|512:0,1,507.5
256,192,31489,12,0,31969,0:0:0:0:
0,64,31489,6,0,L|512:64,1,507.5
0,160,31489,6,0,L|512:160,1,507.5
0,128,31489,6,0,L|512:128,1,507.5
0,96,31489,6,0,L|512:96,1,507.5
416,64,31729,6,0,L|416:352|416:288,2,280
352,64,31729,6,0,L|352:352|352:288,2,280
288,64,31729,6,0,L|288:352|288:288,2,280
480,64,31729,6,0,L|480:352|480:288,2,280
96,64,31729,6,0,L|96:352|96:288,2,280
32,64,31729,6,0,L|32:352|32:288,2,280
224,64,31729,6,0,L|224:352|224:288,2,280
160,64,31729,6,0,L|160:352|160:288,2,280
256,192,31969,12,0,32449,0:0:0:0:
0,0,31969,6,0,L|512:0,1,507.5
0,32,31969,6,0,L|512:32,1,507.5
0,64,31969,6,0,L|512:64,1,507.5
0,96,31969,6,0,L|512:96,1,507.5
0,128,31969,6,0,L|512:128,1,507.5
0,160,31969,6,0,L|512:160,1,507.5
0,192,31969,6,0,L|512:192,1,507.5
0,224,31969,6,0,L|512:224,1,507.5
0,256,31969,6,0,L|512:256,1,507.5
0,288,31969,6,0,L|512:288,1,507.5
0,320,31969,6,0,L|512:320,1,507.5
0,352,31969,6,0,L|512:352,1,507.5
0,384,31969,6,0,L|512:384,1,507.5
416,64,32209,6,0,L|416:352|416:288,2,280
352,64,32209,6,0,L|352:352|352:288,2,280
288,64,32209,6,0,L|288:352|288:288,2,280
480,64,32209,6,0,L|480:352|480:288,2,280
96,64,32209,6,0,L|96:352|96:288,2,280
32,64,32209,6,0,L|32:352|32:288,2,280
224,64,32209,6,0,L|224:352|224:288,2,280
160,64,32209,6,0,L|160:352|160:288,2,280
0,256,32449,6,0,L|512:256,1,507.5
0,224,32449,6,0,L|512:224,1,507.5
0,192,32449,6,0,L|512:192,1,507.5
0,288,32449,6,0,L|512:288,1,507.5
0,384,32449,6,0,L|512:384,1,507.5
0,352,32449,6,0,L|512:352,1,507.5
0,320,32449,6,0,L|512:320,1,507.5
0,32,32449,6,0,L|512:32,1,507.5
0,0,32449,6,0,L|512:0,1,507.5
256,192,32449,12,0,32929,0:0:0:0:
0,64,32449,6,0,L|512:64,1,507.5
0,160,32449,6,0,L|512:160,1,507.5
0,128,32449,6,0,L|512:128,1,507.5
0,96,32449,6,0,L|512:96,1,507.5
32,64,32689,6,0,L|32:352|32:288,2,280
96,64,32689,6,0,L|96:352|96:288,2,280
160,64,32689,6,0,L|160:352|160:288,2,280
224,64,32689,6,0,L|224:352|224:288,2,280
352,64,32689,6,0,L|352:352|352:288,2,280
416,64,32689,6,0,L|416:352|416:288,2,280
480,64,32689,6,0,L|480:352|480:288,2,280
288,64,32689,6,0,L|288:352|288:288,2,280
0,256,32929,6,0,L|512:256,1,507.5
0,224,32929,6,0,L|512:224,1,507.5
0,192,32929,6,0,L|512:192,1,507.5
0,288,32929,6,0,L|512:288,1,507.5
0,384,32929,6,0,L|512:384,1,507.5
0,352,32929,6,0,L|512:352,1,507.5
0,320,32929,6,0,L|512:320,1,507.5
0,32,32929,6,0,L|512:32,1,507.5
0,0,32929,6,0,L|512:0,1,507.5
256,192,32929,12,0,33409,0:0:0:0:
0,64,32929,6,0,L|512:64,1,507.5
0,160,32929,6,0,L|512:160,1,507.5
0,128,32929,6,0,L|512:128,1,507.5
0,96,32929,6,0,L|512:96,1,507.5
416,64,33169,6,0,L|416:352|416:288,2,280
352,64,33169,6,0,L|352:352|352:288,2,280
288,64,33169,6,0,L|288:352|288:288,2,280
480,64,33169,6,0,L|480:352|480:288,2,280
96,64,33169,6,0,L|96:352|96:288,2,280
32,64,33169,6,0,L|32:352|32:288,2,280
224,64,33169,6,0,L|224:352|224:288,2,280
160,64,33169,6,0,L|160:352|160:288,2,280
256,192,33409,12,0,33889,0:0:0:0:
0,0,33409,6,0,L|512:0,1,507.5
0,32,33409,6,0,L|512:32,1,507.5
0,64,33409,6,0,L|512:64,1,507.5
0,96,33409,6,0,L|512:96,1,507.5
0,128,33409,6,0,L|512:128,1,507.5
0,160,33409,6,0,L|512:160,1,507.5
0,192,33409,6,0,L|512:192,1,507.5
0,224,33409,6,0,L|512:224,1,507.5
0,256,33409,6,0,L|512:256,1,507.5
0,288,33409,6,0,L|512:288,1,507.5
0,320,33409,6,0,L|512:320,1,507.5
0,352,33409,6,0,L|512:352,1,507.5
0,384,33409,6,0,L|512:384,1,507.5
32,64,33649,6,0,L|32:352|32:288,2,280
96,64,33649,6,0,L|96:352|96:288,2,280
160,64,33649,6,0,L|160:352|160:288,2,280
224,64,33649,6,0,L|224:352|224:288,2,280
352,64,33649,6,0,L|352:352|352:288,2,280
416,64,33649,6,0,L|416:352|416:288,2,280
480,64,33649,6,0,L|480:352|480:288,2,280
288,64,33649,6,0,L|288:352|288:288,2,280
256,192,33889,12,0,34369,0:0:0:0:
0,0,33889,6,0,L|512:0,1,507.5
0,32,33889,6,0,L|512:32,1,507.5
0,64,33889,6,0,L|512:64,1,507.5
0,96,33889,6,0,L|512:96,1,507.5
0,128,33889,6,0,L|512:128,1,507.5
0,160,33889,6,0,L|512:160,1,507.5
0,192,33889,6,0,L|512:192,1,507.5
0,224,33889,6,0,L|512:224,1,507.5
0,256,33889,6,0,L|512:256,1,507.5
0,288,33889,6,0,L|512:288,1,507.5
0,320,33889,6,0,L|512:320,1,507.5
0,352,33889,6,0,L|512:352,1,507.5
0,384,33889,6,0,L|512:384,1,507.5
32,64,34129,6,0,L|32:352|32:288,2,280
96,64,34129,6,0,L|96:352|96:288,2,280
160,64,34129,6,0,L|160:352|160:288,2,280
224,64,34129,6,0,L|224:352|224:288,2,280
352,64,34129,6,0,L|352:352|352:288,2,280
416,64,34129,6,0,L|416:352|416:288,2,280
480,64,34129,6,0,L|480:352|480:288,2,280
288,64,34129,6,0,L|288:352|288:288,2,280
256,192,34369,12,0,34849,0:0:0:0:
0,0,34369,6,0,L|512:0,1,507.5
0,32,34369,6,0,L|512:32,1,507.5
0,64,34369,6,0,L|512:64,1,507.5
0,96,34369,6,0,L|512:96,1,507.5
0,128,34369,6,0,L|512:128,1,507.5
0,160,34369,6,0,L|512:160,1,507.5
0,192,34369,6,0,L|512:192,1,507.5
0,224,34369,6,0,L|512:224,1,507.5
0,256,34369,6,0,L|512:256,1,507.5
0,288,34369,6,0,L|512:288,1,507.5
0,320,34369,6,0,L|512:320,1,507.5
0,352,34369,6,0,L|512:352,1,507.5
0,384,34369,6,0,L|512:384,1,507.5
32,64,34609,6,0,L|32:352|32:288,2,280
96,64,34609,6,0,L|96:352|96:288,2,280
160,64,34609,6,0,L|160:352|160:288,2,280
224,64,34609,6,0,L|224:352|224:288,2,280
352,64,34609,6,0,L|352:352|352:288,2,280
416,64,34609,6,0,L|416:352|416:288,2,280
480,64,34609,6,0,L|480:352|480:288,2,280
288,64,34609,6,0,L|288:352|288:288,2,280
256,192,34849,12,0,35329,0:0:0:0:
0,0,34849,6,0,L|512:0,1,507.5
0,32,34849,6,0,L|512:32,1,507.5
0,64,34849,6,0,L|512:64,1,507.5
0,96,34849,6,0,L|512:96,1,507.5
0,128,34849,6,0,L|512:128,1,507.5
0,160,34849,6,0,L|512:160,1,507.5
0,192,34849,6,0,L|512:192,1,507.5
0,224,34849,6,0,L|512:224,1,507.5
0,256,34849,6,0,L|512:256,1,507.5
0,288,34849,6,0,L|512:288,1,507.5
0,320,34849,6,0,L|512:320,1,507.5
0,352,34849,6,0,L|512:352,1,507.5
0,384,34849,6,0,L|512:384,1,507.5
32,64,35089,6,0,L|32:352|32:288,2,280
96,64,35089,6,0,L|96:352|96:288,2,280
160,64,35089,6,0,L|160:352|160:288,2,280
224,64,35089,6,0,L|224:352|224:288,2,280
352,64,35089,6,0,L|352:352|352:288,2,280
416,64,35089,6,0,L|416:352|416:288,2,280
480,64,35089,6,0,L|480:352|480:288,2,280
288,64,35089,6,0,L|288:352|288:288,2,280
256,192,35329,12,0,35809,0:0:0:0:
0,0,35329,6,0,L|512:0,1,507.5
0,32,35329,6,0,L|512:32,1,507.5
0,64,35329,6,0,L|512:64,1,507.5
0,96,35329,6,0,L|512:96,1,507.5
0,128,35329,6,0,L|512:128,1,507.5
0,160,35329,6,0,L|512:160,1,507.5
0,192,35329,6,0,L|512:192,1,507.5
0,224,35329,6,0,L|512:224,1,507.5
0,256,35329,6,0,L|512:256,1,507.5
0,288,35329,6,0,L|512:288,1,507.5
0,320,35329,6,0,L|512:320,1,507.5
0,352,35329,6,0,L|512:352,1,507.5
0,384,35329,6,0,L|512:384,1,507.5
416,64,35569,6,0,L|416:352|416:288,2,280
352,64,35569,6,0,L|352:352|352:288,2,280
288,64,35569,6,0,L|288:352|288:288,2,280
480,64,35569,6,0,L|480:352|480:288,2,280
96,64,35569,6,0,L|96:352|96:288,2,280
32,64,35569,6,0,L|32:352|32:288,2,280
224,64,35569,6,0,L|224:352|224:288,2,280
160,64,35569,6,0,L|160:352|160:288,2,280
256,192,35809,12,0,36289,0:0:0:0:
0,0,35809,6,0,L|512:0,1,507.5
0,32,35809,6,0,L|512:32,1,507.5
0,64,35809,6,0,L|512:64,1,507.5
0,96,35809,6,0,L|512:96,1,507.5
0,128,35809,6,0,L|512:128,1,507.5
0,160,35809,6,0,L|512:160,1,507.5
0,192,35809,6,0,L|512:192,1,507.5
0,224,35809,6,0,L|512:224,1,507.5
0,256,35809,6,0,L|512:256,1,507.5
0,288,35809,6,0,L|512:288,1,507.5
0,320,35809,6,0,L|512:320,1,507.5
0,352,35809,6,0,L|512:352,1,507.5
0,384,35809,6,0,L|512:384,1,507.5
416,64,36049,6,0,L|416:352|416:288,2,280
352,64,36049,6,0,L|352:352|352:288,2,280
288,64,36049,6,0,L|288:352|288:288,2,280
480,64,36049,6,0,L|480:352|480:288,2,280
96,64,36049,6,0,L|96:352|96:288,2,280
32,64,36049,6,0,L|32:352|32:288,2,280
224,64,36049,6,0,L|224:352|224:288,2,280
160,64,36049,6,0,L|160:352|160:288,2,280
256,192,36289,12,0,36769,0:0:0:0:
0,0,36289,6,0,L|512:0,1,507.5
0,32,36289,6,0,L|512:32,1,507.5
0,64,36289,6,0,L|512:64,1,507.5
0,96,36289,6,0,L|512:96,1,507.5
0,128,36289,6,0,L|512:128,1,507.5
0,160,36289,6,0,L|512:160,1,507.5
0,192,36289,6,0,L|512:192,1,507.5
0,224,36289,6,0,L|512:224,1,507.5
0,256,36289,6,0,L|512:256,1,507.5
0,288,36289,6,0,L|512:288,1,507.5
0,320,36289,6,0,L|512:320,1,507.5
0,352,36289,6,0,L|512:352,1,507.5
0,384,36289,6,0,L|512:384,1,507.5
416,64,36529,6,0,L|416:352|416:288,2,280
352,64,36529,6,0,L|352:352|352:288,2,280
288,64,36529,6,0,L|288:352|288:288,2,280
480,64,36529,6,0,L|480:352|480:288,2,280
96,64,36529,6,0,L|96:352|96:288,2,280
32,64,36529,6,0,L|32:352|32:288,2,280
224,64,36529,6,0,L|224:352|224:288,2,280
160,64,36529,6,0,L|160:352|160:288,2,280
0,256,36769,6,0,L|512:256,1,507.5
0,224,36769,6,0,L|512:224,1,507.5
0,192,36769,6,0,L|512:192,1,507.5
0,288,36769,6,0,L|512:288,1,507.5
0,384,36769,6,0,L|512:384,1,507.5
0,352,36769,6,0,L|512:352,1,507.5
0,320,36769,6,0,L|512:320,1,507.5
0,32,36769,6,0,L|512:32,1,507.5
0,0,36769,6,0,L|512:0,1,507.5
256,192,36769,12,0,37249,0:0:0:0:
0,64,36769,6,0,L|512:64,1,507.5
0,160,36769,6,0,L|512:160,1,507.5
0,128,36769,6,0,L|512:128,1,507.5
0,96,36769,6,0,L|512:96,1,507.5
416,64,37009,6,0,L|416:352|416:288,2,280
352,64,37009,6,0,L|352:352|352:288,2,280
288,64,37009,6,0,L|288:352|288:288,2,280
480,64,37009,6,0,L|480:352|480:288,2,280
96,64,37009,6,0,L|96:352|96:288,2,280
32,64,37009,6,0,L|32:352|32:288,2,280
224,64,37009,6,0,L|224:352|224:288,2,280
160,64,37009,6,0,L|160:352|160:288,2,280
0,256,37249,6,0,L|512:256,1,507.5
0,224,37249,6,0,L|512:224,1,507.5
0,192,37249,6,0,L|512:192,1,507.5
0,288,37249,6,0,L|512:288,1,507.5
0,384,37249,6,0,L|512:384,1,507.5
0,352,37249,6,0,L|512:352,1,507.5
0,320,37249,6,0,L|512:320,1,507.5
0,32,37249,6,0,L|512:32,1,507.5
0,0,37249,6,0,L|512:0,1,507.5
256,192,37249,12,0,37729,0:0:0:0:
0,64,37249,6,0,L|512:64,1,507.5
0,160,37249,6,0,L|512:160,1,507.5
0,128,37249,6,0,L|512:128,1,507.5
0,96,37249,6,0,L|512:96,1,507.5
32,64,37489,6,0,L|32:352|32:288,2,280
96,64,37489,6,0,L|96:352|96:288,2,280
160,64,37489,6,0,L|160:352|160:288,2,280
224,64,37489,6,0,L|224:352|224:288,2,280
352,64,37489,6,0,L|352:352|352:288,2,280
416,64,37489,6,0,L|416:352|416:288,2,280
480,64,37489,6,0,L|480:352|480:288,2,280
288,64,37489,6,0,L|288:352|288:288,2,280
256,192,37729,12,0,38209,0:0:0:0:
0,0,37729,6,0,L|512:0,1,507.5
0,32,37729,6,0,L|512:32,1,507.5
0,64,37729,6,0,L|512:64,1,507.5
0,96,37729,6,0,L|512:96,1,507.5
0,128,37729,6,0,L|512:128,1,507.5
0,160,37729,6,0,L|512:160,1,507.5
0,192,37729,6,0,L|512:192,1,507.5
0,224,37729,6,0,L|512:224,1,507.5
0,256,37729,6,0,L|512:256,1,507.5
0,288,37729,6,0,L|512:288,1,507.5
0,320,37729,6,0,L|512:320,1,507.5
0,352,37729,6,0,L|512:352,1,507.5
0,384,37729,6,0,L|512:384,1,507.5
32,64,37969,6,0,L|32:352|32:288,2,280
96,64,37969,6,0,L|96:352|96:288,2,280
160,64,37969,6,0,L|160:352|160:288,2,280
224,64,37969,6,0,L|224:352|224:288,2,280
352,64,37969,6,0,L|352:352|352:288,2,280
416,64,37969,6,0,L|416:352|416:288,2,280
480,64,37969,6,0,L|480:352|480:288,2,280
288,64,37969,6,0,L|288:352|288:288,2,280
0,256,38209,6,0,L|512:256,1,507.5
0,224,38209,6,0,L|512:224,1,507.5
0,192,38209,6,0,L|512:192,1,507.5
0,288,38209,6,0,L|512:288,1,507.5
0,384,38209,6,0,L|512:384,1,507.5
0,352,38209,6,0,L|512:352,1,507.5
0,320,38209,6,0,L|512:320,1,507.5
0,32,38209,6,0,L|512:32,1,507.5
0,0,38209,6,0,L|512:0,1,507.5
256,192,38209,12,0,38689,0:0:0:0:
0,64,38209,6,0,L|512:64,1,507.5
0,160,38209,6,0,L|512:160,1,507.5
0,128,38209,6,0,L|512:128,1,507.5
0,96,38209,6,0,L|512:96,1,507.5
0,288,38689,6,0,L|512:288,1,507.5
0,256,38689,6,0,L|512:256,1,507.5
0,224,38689,6,0,L|512:224,1,507.5
0,320,38689,6,0,L|512:320,1,507.5
256,192,38689,12,0,39169,0:0:0:0:
0,384,38689,6,0,L|512:384,1,507.5
0,352,38689,6,0,L|512:352,1,507.5
0,64,38689,6,0,L|512:64,1,507.5
0,32,38689,6,0,L|512:32,1,507.5
0,0,38689,6,0,L|512:0,1,507.5
0,96,38689,6,0,L|512:96,1,507.5
0,192,38689,6,0,L|512:192,1,507.5
0,160,38689,6,0,L|512:160,1,507.5
0,128,38689,6,0,L|512:128,1,507.5
416,64,38929,6,0,L|416:352|416:288,2,280
352,64,38929,6,0,L|352:352|352:288,2,280
288,64,38929,6,0,L|288:352|288:288,2,280
480,64,38929,6,0,L|480:352|480:288,2,280
96,64,38929,6,0,L|96:352|96:288,2,280
32,64,38929,6,0,L|32:352|32:288,2,280
224,64,38929,6,0,L|224:352|224:288,2,280
160,64,38929,6,0,L|160:352|160:288,2,280
256,192,39169,12,0,39649,0:0:0:0:
0,0,39169,6,0,L|512:0,1,507.5
0,32,39169,6,0,L|512:32,1,507.5
0,64,39169,6,0,L|512:64,1,507.5
0,96,39169,6,0,L|512:96,1,507.5
0,128,39169,6,0,L|512:128,1,507.5
0,160,39169,6,0,L|512:160,1,507.5
0,192,39169,6,0,L|512:192,1,507.5
0,224,39169,6,0,L|512:224,1,507.5
0,256,39169,6,0,L|512:256,1,507.5
0,288,39169,6,0,L|512:288,1,507.5
0,320,39169,6,0,L|512:320,1,507.5
0,352,39169,6,0,L|512:352,1,507.5
0,384,39169,6,0,L|512:384,1,507.5
32,64,39409,6,0,L|32:352|32:288,2,280
96,64,39409,6,0,L|96:352|96:288,2,280
160,64,39409,6,0,L|160:352|160:288,2,280
224,64,39409,6,0,L|224:352|224:288,2,280
352,64,39409,6,0,L|352:352|352:288,2,280
416,64,39409,6,0,L|416:352|416:288,2,280
480,64,39409,6,0,L|480:352|480:288,2,280
288,64,39409,6,0,L|288:352|288:288,2,280
0,256,39649,6,0,L|512:256,1,507.5
0,224,39649,6,0,L|512:224,1,507.5
0,192,39649,6,0,L|512:192,1,507.5
0,288,39649,6,0,L|512:288,1,507.5
0,384,39649,6,0,L|512:384,1,507.5
0,352,39649,6,0,L|512:352,1,507.5
0,320,39649,6,0,L|512:320,1,507.5
0,32,39649,6,0,L|512:32,1,507.5
0,0,39649,6,0,L|512:0,1,507.5
256,192,39649,12,0,40129,0:0:0:0:
0,64,39649,6,0,L|512:64,1,507.5
0,160,39649,6,0,L|512:160,1,507.5
0,128,39649,6,0,L|512:128,1,507.5
0,96,39649,6,0,L|512:96,1,507.5
32,64,39889,6,0,L|32:352|32:288,2,280
96,64,39889,6,0,L|96:352|96:288,2,280
160,64,39889,6,0,L|160:352|160:288,2,280
224,64,39889,6,0,L|224:352|224:288,2,280
352,64,39889,6,0,L|352:352|352:288,2,280
416,64,39889,6,0,L|416:352|416:288,2,280
480,64,39889,6,0,L|480:352|480:288,2,280
288,64,39889,6,0,L|288:352|288:288,2,280
256,192,40129,12,0,40609,0:0:0:0:
0,0,40129,6,0,L|512:0,1,507.5
0,32,40129,6,0,L|512:32,1,507.5
0,64,40129,6,0,L|512:64,1,507.5
0,96,40129,6,0,L|512:96,1,507.5
0,128,40129,6,0,L|512:128,1,507.5
0,160,40129,6,0,L|512:160,1,507.5
0,192,40129,6,0,L|512:192,1,507.5
0,224,40129,6,0,L|512:224,1,507.5
0,256,40129,6,0,L|512:256,1,507.5
0,288,40129,6,0,L|512:288,1,507.5
0,320,40129,6,0,L|512:320,1,507.5
0,352,40129,6,0,L|512:352,1,507.5
0,384,40129,6,0,L|512:384,1,507.5
416,64,40369,6,0,L|416:352|416:288,2,280
352,64,40369,6,0,L|352:352|352:288,2,280
288,64,40369,6,0,L|288:352|288:288,2,280
480,64,40369,6,0,L|480:352|480:288,2,280
96,64,40369,6,0,L|96:352|96:288,2,280
32,64,40369,6,0,L|32:352|32:288,2,280
224,64,40369,6,0,L|224:352|224:288,2,280
160,64,40369,6,0,L|160:352|160:288,2,280
256,192,40609,12,0,41089,0:0:0:0:
0,0,40609,6,0,L|512:0,1,507.5
0,32,40609,6,0,L|512:32,1,507.5
0,64,40609,6,0,L|512:64,1,507.5
0,96,40609,6,0,L|512:96,1,507.5
0,128,40609,6,0,L|512:128,1,507.5
0,160,40609,6,0,L|512:160,1,507.5
0,192,40609,6,0,L|512:192,1,507.5
0,224,40609,6,0,L|512:224,1,507.5
0,256,40609,6,0,L|512:256,1,507.5
0,288,40609,6,0,L|512:288,1,507.5
0,320,40609,6,0,L|512:320,1,507.5
0,352,40609,6,0,L|512:352,1,507.5
0,384,40609,6,0,L|512:384,1,507.5
32,64,40849,6,0,L|32:352|32:288,2,280
96,64,40849,6,0,L|96:352|96:288,2,280
160,64,40849,6,0,L|160:352|160:288,2,280
224,64,40849,6,0,L|224:352|224:288,2,280
352,64,40849,6,0,L|352:352|352:288,2,280
416,64,40849,6,0,L|416:352|416:288,2,280
480,64,40849,6,0,L|480:352|480:288,2,280
288,64,40849,6,0,L|288:352|288:288,2,280
0,256,41089,6,0,L|512:256,1,507.5
0,224,41089,6,0,L|512:224,1,507.5
0,192,41089,6,0,L|512:192,1,507.5
0,288,41089,6,0,L|512:288,1,507.5
0,384,41089,6,0,L|512:384,1,507.5
0,352,41089,6,0,L|512:352,1,507.5
0,320,41089,6,0,L|512:320,1,507.5
0,32,41089,6,0,L|512:32,1,507.5
0,0,41089,6,0,L|512:0,1,507.5
256,192,41089,12,0,41569,0:0:0:0:
0,64,41089,6,0,L|512:64,1,507.5
0,160,41089,6,0,L|512:160,1,507.5
0,128,41089,6,0,L|512:128,1,507.5
0,96,41089,6,0,L|512:96,1,507.5
416,64,41329,6,0,L|416:352|416:288,2,280
352,64,41329,6,0,L|352:352|352:288,2,280
288,64,41329,6,0,L|288:352|288:288,2,280
480,64,41329,6,0,L|480:352|480:288,2,280
96,64,41329,6,0,L|96:352|96:288,2,280
32,64,41329,6,0,L|32:352|32:288,2,280
224,64,41329,6,0,L|224:352|224:288,2,280
160,64,41329,6,0,L|160:352|160:288,2,280
0,256,41569,6,0,L|512:256,1,507.5
0,224,41569,6,0,L|512:224,1,507.5
0,192,41569,6,0,L|512:192,1,507.5
0,288,41569,6,0,L|512:288,1,507.5
0,384,41569,6,0,L|512:384,1,507.5
0,352,41569,6,0,L|512:352,1,507.5
0,320,41569,6,0,L|512:320,1,507.5
0,32,41569,6,0,L|512:32,1,507.5
0,0,41569,6,0,L|512:0,1,507.5
256,192,41569,12,0,42049,0:0:0:0:
0,64,41569,6,0,L|512:64,1,507.5
0,160,41569,6,0,L|512:160,1,507.5
0,128,41569,6,0,L|512:128,1,507.5
0,96,41569,6,0,L|512:96,1,507.5
416,64,41809,6,0,L|416:352|416:288,2,280
352,64,41809,6,0,L|352:352|352:288,2,280
288,64,41809,6,0,L|288:352|288:288,2,280
480,64,41809,6,0,L|480:352|480:288,2,280
96,64,41809,6,0,L|96:352|96:288,2,280
32,64,41809,6,0,L|32:352|32:288,2,280
224,64,41809,6,0,L|224:352|224:288,2,280
160,64,41809,6,0,L|160:352|160:288,2,280
0,256,42049,6,0,L|512:256,1,507.5
0,224,42049,6,0,L|512:224,1,507.5
0,192,42049,6,0,L|512:192,1,507.5
0,288,42049,6,0,L|512:288,1,507.5
0,384,42049,6,0,L|512:384,1,507.5
0,352,42049,6,0,L|512:352,1,507.5
0,320,42049,6,0,L|512:320,1,507.5
0,32,42049,6,0,L|512:32,1,507.5
0,0,42049,6,0,L|512:0,1,507.5
256,192,42049,12,0,42529,0:0:0:0:
0,64,42049,6,0,L|512:64,1,507.5
0,160,42049,6,0,L|512:160,1,507.5
0,128,42049,6,0,L|512:128,1,507.5
0,96,42049,6,0,L|512:96,1,507.5
416,64,42289,6,0,L|416:352|416:288,2,280
352,64,42289,6,0,L|352:352|352:288,2,280
288,64,42289,6,0,L|288:352|288:288,2,280
480,64,42289,6,0,L|480:352|480:288,2,280
96,64,42289,6,0,L|96:352|96:288,2,280
32,64,42289,6,0,L|32:352|32:288,2,280
224,64,42289,6,0,L|224:352|224:288,2,280
160,64,42289,6,0,L|160:352|160:288,2,280
0,256,42529,6,0,L|512:256,1,507.5
0,224,42529,6,0,L|512:224,1,507.5
0,192,42529,6,0,L|512:192,1,507.5
0,288,42529,6,0,L|512:288,1,507.5
0,384,42529,6,0,L|512:384,1,507.5
0,352,42529,6,0,L|512:352,1,507.5
0,320,42529,6,0,L|512:320,1,507.5
0,32,42529,6,0,L|512:32,1,507.5
0,0,42529,6,0,L|512:0,1,507.5
256,192,42529,12,0,43009,0:0:0:0:
0,64,42529,6,0,L|512:64,1,507.5
0,160,42529,6,0,L|512:160,1,507.5
0,128,42529,6,0,L|512:128,1,507.5
0,96,42529,6,0,L|512:96,1,507.5
416,64,42769,6,0,L|416:352|416:288,2,280
352,64,42769,6,0,L|352:352|352:288,2,280
288,64,42769,6,0,L|288:352|288:288,2,280
480,64,42769,6,0,L|480:352|480:288,2,280
96,64,42769,6,0,L|96:352|96:288,2,280
32,64,42769,6,0,L|32:352|32:288,2,280
224,64,42769,6,0,L|224:352|224:288,2,280
160,64,42769,6,0,L|160:352|160:288,2,280
0,256,43009,6,0,L|512:256,1,507.5
0,224,43009,6,0,L|512:224,1,507.5
0,192,43009,6,0,L|512:192,1,507.5
0,288,43009,6,0,L|512:288,1,507.5
0,384,43009,6,0,L|512:384,1,507.5
0,352,43009,6,0,L|512:352,1,507.5
0,320,43009,6,0,L|512:320,1,507.5
0,32,43009,6,0,L|512:32,1,507.5
0,0,43009,6,0,L|512:0,1,507.5
256,192,43009,12,0,43489,0:0:0:0:
0,64,43009,6,0,L|512:64,1,507.5
0,160,43009,6,0,L|512:160,1,507.5
0,128,43009,6,0,L|512:128,1,507.5
0,96,43009,6,0,L|512:96,1,507.5
32,64,43249,6,0,L|32:352|32:288,2,280
96,64,43249,6,0,L|96:352|96:288,2,280
160,64,43249,6,0,L|160:352|160:288,2,280
224,64,43249,6,0,L|224:352|224:288,2,280
352,64,43249,6,0,L|352:352|352:288,2,280
416,64,43249,6,0,L|416:352|416:288,2,280
480,64,43249,6,0,L|480:352|480:288,2,280
288,64,43249,6,0,L|288:352|288:288,2,280
0,256,43489,6,0,L|512:256,1,507.5
0,224,43489,6,0,L|512:224,1,507.5
0,192,43489,6,0,L|512:192,1,507.5
0,288,43489,6,0,L|512:288,1,507.5
0,384,43489,6,0,L|512:384,1,507.5
0,352,43489,6,0,L|512:352,1,507.5
0,320,43489,6,0,L|512:320,1,507.5
0,32,43489,6,0,L|512:32,1,507.5
0,0,43489,6,0,L|512:0,1,507.5
256,192,43489,12,0,43969,0:0:0:0:
0,64,43489,6,0,L|512:64,1,507.5
0,160,43489,6,0,L|512:160,1,507.5
0,128,43489,6,0,L|512:128,1,507.5
0,96,43489,6,0,L|512:96,1,507.5
32,64,43729,6,0,L|32:352|32:288,2,280
96,64,43729,6,0,L|96:352|96:288,2,280
160,64,43729,6,0,L|160:352|160:288,2,280
224,64,43729,6,0,L|224:352|224:288,2,280
352,64,43729,6,0,L|352:352|352:288,2,280
416,64,43729,6,0,L|416:352|416:288,2,280
480,64,43729,6,0,L|480:352|480:288,2,280
288,64,43729,6,0,L|288:352|288:288,2,280
0,256,43969,6,0,L|512:256,1,507.5
0,224,43969,6,0,L|512:224,1,507.5
0,192,43969,6,0,L|512:192,1,507.5
0,288,43969,6,0,L|512:288,1,507.5
0,384,43969,6,0,L|512:384,1,507.5
0,352,43969,6,0,L|512:352,1,507.5
0,320,43969,6,0,L|512:320,1,507.5
0,32,43969,6,0,L|512:32,1,507.5
0,0,43969,6,0,L|512:0,1,507.5
256,192,43969,12,0,44449,0:0:0:0:
0,64,43969,6,0,L|512:64,1,507.5
0,160,43969,6,0,L|512:160,1,507.5
0,128,43969,6,0,L|512:128,1,507.5
0,96,43969,6,0,L|512:96,1,507.5
32,64,44209,6,0,L|32:352|32:288,2,280
96,64,44209,6,0,L|96:352|96:288,2,280
160,64,44209,6,0,L|160:352|160:288,2,280
224,64,44209,6,0,L|224:352|224:288,2,280
352,64,44209,6,0,L|352:352|352:288,2,280
416,64,44209,6,0,L|416:352|416:288,2,280
480,64,44209,6,0,L|480:352|480:288,2,280
288,64,44209,6,0,L|288:352|288:288,2,280
256,192,44449,12,0,44929,0:0:0:0:
0,0,44449,6,0,L|512:0,1,507.5
0,32,44449,6,0,L|512:32,1,507.5
0,64,44449,6,0,L|512:64,1,507.5
0,96,44449,6,0,L|512:96,1,507.5
0,128,44449,6,0,L|512:128,1,507.5
0,160,44449,6,0,L|512:160,1,507.5
0,192,44449,6,0,L|512:192,1,507.5
0,224,44449,6,0,L|512:224,1,507.5
0,256,44449,6,0,L|512:256,1,507.5
0,288,44449,6,0,L|512:288,1,507.5
0,320,44449,6,0,L|512:320,1,507.5
0,352,44449,6,0,L|512:352,1,507.5
0,384,44449,6,0,L|512:384,1,507.5
32,64,44689,6,0,L|32:352|32:288,2,280
96,64,44689,6,0,L|96:352|96:288,2,280
160,64,44689,6,0,L|160:352|160:288,2,280
224,64,44689,6,0,L|224:352|224:288,2,280
352,64,44689,6,0,L|352:352|352:288,2,280
416,64,44689,6,0,L|416:352|416:288,2,280
480,64,44689,6,0,L|480:352|480:288,2,280
288,64,44689,6,0,L|288:352|288:288,2,280
256,192,44929,12,0,45409,0:0:0:0:
0,0,44929,6,0,L|512:0,1,507.5
0,32,44929,6,0,L|512:32,1,507.5
0,64,44929,6,0,L|512:64,1,507.5
0,96,44929,6,0,L|512:96,1,507.5
0,128,44929,6,0,L|512:128,1,507.5
0,160,44929,6,0,L|512:160,1,507.5
0,192,44929,6,0,L|512:192,1,507.5
0,224,44929,6,0,L|512:224,1,507.5
0,256,44929,6,0,L|512:256,1,507.5
0,288,44929,6,0,L|512:288,1,507.5
0,320,44929,6,0,L|512:320,1,507.5
0,352,44929,6,0,L|512:352,1,507.5
0,384,44929,6,0,L|512:384,1,507.5
416,64,45169,6,0,L|416:352|416:288,2,280
352,64,45169,6,0,L|352:352|352:288,2,280
288,64,45169,6,0,L|288:352|288:288,2,280
480,64,45169,6,0,L|480:352|480:288,2,280
96,64,45169,6,0,L|96:352|96:288,2,280
32,64,45169,6,0,L|32:352|32:288,2,280
224,64,45169,6,0,L|224:352|224:288,2,280
160,64,45169,6,0,L|160:352|160:288,2,280
0,256,45409,6,0,L|512:256,1,507.5
0,224,45409,6,0,L|512:224,1,507.5
0,192,45409,6,0,L|512:192,1,507.5
0,288,45409,6,0,L|512:288,1,507.5
0,384,45409,6,0,L|512:384,1,507.5
0,352,45409,6,0,L|512:352,1,507.5
0,320,45409,6,0,L|512:320,1,507.5
0,32,45409,6,0,L|512:32,1,507.5
0,0,45409,6,0,L|512:0,1,507.5
256,192,45409,12,0,45889,0:0:0:0:
0,64,45409,6,0,L|512:64,1,507.5
0,160,45409,6,0,L|512:160,1,507.5
0,128,45409,6,0,L|512:128,1,507.5
0,96,45409,6,0,L|512:96,1,507.5
416,64,45649,6,0,L|416:352|416:288,2,280
352,64,45649,6,0,L|352:352|352:288,2,280
288,64,45649,6,0,L|288:352|288:288,2,280
480,64,45649,6,0,L|480:352|480:288,2,280
96,64,45649,6,0,L|96:352|96:288,2,280
32,64,45649,6,0,L|32:352|32:288,2,280
224,64,45649,6,0,L|224:352|224:288,2,280
160,64,45649,6,0,L|160:352|160:288,2,280
256,192,45889,12,0,46369,0:0:0:0:
0,0,45889,6,0,L|512:0,1,507.5
0,32,45889,6,0,L|512:32,1,507.5
0,64,45889,6,0,L|512:64,1,507.5
0,96,45889,6,0,L|512:96,1,507.5
0,128,45889,6,0,L|512:128,1,507.5
0,160,45889,6,0,L|512:160,1,507.5
0,192,45889,6,0,L|512:192,1,507.5
0,224,45889,6,0,L|512:224,1,507.5
0,256,45889,6,0,L|512:256,1,507.5
0,288,45889,6,0,L|512:288,1,507.5
0,320,45889,6,0,L|512:320,1,507.5
0,352,45889,6,0,L|512:352,1,507.5
0,384,45889,6,0,L|512:384,1,507.5
0,0,46369,6,0,L|512:0,1,507.5
0,32,46369,6,0,L|512:32,1,507.5
0,64,46369,6,0,L|512:64,1,507.5
0,96,46369,6,0,L|512:96,1,507.5
0,128,46369,6,0,L|512:128,1,507.5
0,160,46369,6,0,L|512:160,1,507.5
0,192,46369,6,0,L|512:192,1,507.5
0,224,46369,6,0,L|512:224,1,507.5
0,256,46369,6,0,L|512:256,1,507.5
0,288,46369,6,0,L|512:288,1,507.5
0,320,46369,6,0,L|512:320,1,507.5
0,352,46369,6,0,L|512:352,1,507.5
0,384,46369,6,0,L|512:384,1,507.5
256,192,46369,12,0,46849,0:0:0:0:
32,64,46609,6,0,L|32:352|32:288,2,280
96,64,46609,6,0,L|96:352|96:288,2,280
160,64,46609,6,0,L|160:352|160:288,2,280
224,64,46609,6,0,L|224:352|224:288,2,280
352,64,46609,6,0,L|352:352|352:288,2,280
416,64,46609,6,0,L|416:352|416:288,2,280
480,64,46609,6,0,L|480:352|480:288,2,280
288,64,46609,6,0,L|288:352|288:288,2,280
0,256,46849,6,0,L|512:256,1,507.5
0,224,46849,6,0,L|512:224,1,507.5
0,192,46849,6,0,L|512:192,1,507.5
0,288,46849,6,0,L|512:288,1,507.5
0,384,46849,6,0,L|512:384,1,507.5
0,352,46849,6,0,L|512:352,1,507.5
0,320,46849,6,0,L|512:320,1,507.5
0,32,46849,6,0,L|512:32,1,507.5
0,0,46849,6,0,L|512:0,1,507.5
256,192,46849,12,0,47329,0:0:0:0:
0,64,46849,6,0,L|512:64,1,507.5
0,160,46849,6,0,L|512:160,1,507.5
0,128,46849,6,0,L|512:128,1,507.5
0,96,46849,6,0,L|512:96,1,507.5
416,64,47089,6,0,L|416:352|416:288,2,280
352,64,47089,6,0,L|352:352|352:288,2,280
288,64,47089,6,0,L|288:352|288:288,2,280
480,64,47089,6,0,L|480:352|480:288,2,280
96,64,47089,6,0,L|96:352|96:288,2,280
32,64,47089,6,0,L|32:352|32:288,2,280
224,64,47089,6,0,L|224:352|224:288,2,280
160,64,47089,6,0,L|160:352|160:288,2,280
256,192,47329,12,0,47809,0:0:0:0:
0,0,47329,6,0,L|512:0,1,507.5
0,32,47329,6,0,L|512:32,1,507.5
0,64,47329,6,0,L|512:64,1,507.5
0,96,47329,6,0,L|512:96,1,507.5
0,128,47329,6,0,L|512:128,1,507.5
0,160,47329,6,0,L|512:160,1,507.5
0,192,47329,6,0,L|512:192,1,507.5
0,224,47329,6,0,L|512:224,1,507.5
0,256,47329,6,0,L|512:256,1,507.5
0,288,47329,6,0,L|512:288,1,507.5
0,320,47329,6,0,L|512:320,1,507.5
0,352,47329,6,0,L|512:352,1,507.5
0,384,47329,6,0,L|512:384,1,507.5
416,64,47569,6,0,L|416:352|416:288,2,280
352,64,47569,6,0,L|352:352|352:288,2,280
288,64,47569,6,0,L|288:352|288:288,2,280
480,64,47569,6,0,L|480:352|480:288,2,280
96,64,47569,6,0,L|96:352|96:288,2,280
32,64,47569,6,0,L|32:352|32:288,2,280
224,64,47569,6,0,L|224:352|224:288,2,280
160,64,47569,6,0,L|160:352|160:288,2,280
0,256,47809,6,0,L|512:256,1,507.5
0,224,47809,6,0,L|512:224,1,507.5
0,192,47809,6,0,L|512:192,1,507.5
0,288,47809,6,0,L|512:288,1,507.5
0,384,47809,6,0,L|512:384,1,507.5
0,352,47809,6,0,L|512:352,1,507.5
0,320,47809,6,0,L|512:320,1,507.5
0,32,47809,6,0,L|512:32,1,507.5
0,0,47809,6,0,L|512:0,1,507.5
256,192,47809,12,0,48289,0:0:0:0:
0,64,47809,6,0,L|512:64,1,507.5
0,160,47809,6,0,L|512:160,1,507.5
0,128,47809,6,0,L|512:128,1,507.5
0,96,47809,6,0,L|512:96,1,507.5
32,64,48049,6,0,L|32:352|32:288,2,280
96,64,48049,6,0,L|96:352|96:288,2,280
160,64,48049,6,0,L|160:352|160:288,2,280
224,64,48049,6,0,L|224:352|224:288,2,280
352,64,48049,6,0,L|352:352|352:288,2,280
416,64,48049,6,0,L|416:352|416:288,2,280
480,64,48049,6,0,L|480:352|480:288,2,280
288,64,48049,6,0,L|288:352|288:288,2,280
0,256,48289,6,0,L|512:256,1,507.5
0,224,48289,6,0,L|512:224,1,507.5
0,192,48289,6,0,L|512:192,1,507.5
0,288,48289,6,0,L|512:288,1,507.5
0,384,48289,6,0,L|512:384,1,507.5
0,352,48289,6,0,L|512:352,1,507.5
0,320,48289,6,0,L|512:320,1,507.5
0,32,48289,6,0,L|512:32,1,507.5
0,0,48289,6,0,L|512:0,1,507.5
256,192,48289,12,0,48769,0:0:0:0:
0,64,48289,6,0,L|512:64,1,507.5
0,160,48289,6,0,L|512:160,1,507.5
0,128,48289,6,0,L|512:128,1,507.5
0,96,48289,6,0,L|512:96,1,507.5
416,64,48529,6,0,L|416:352|416:288,2,280
352,64,48529,6,0,L|352:352|352:288,2,280
288,64,48529,6,0,L|288:352|288:288,2,280
480,64,48529,6,0,L|480:352|480:288,2,280
96,64,48529,6,0,L|96:352|96:288,2,280
32,64,48529,6,0,L|32:352|32:288,2,280
224,64,48529,6,0,L|224:352|224:288,2,280
160,64,48529,6,0,L|160:352|160:288,2,280
256,192,48769,12,0,49249,0:0:0:0:
0,0,48769,6,0,L|512:0,1,507.5
0,32,48769,6,0,L|512:32,1,507.5
0,64,48769,6,0,L|512:64,1,507.5
0,96,48769,6,0,L|512:96,1,507.5
0,128,48769,6,0,L|512:128,1,507.5
0,160,48769,6,0,L|512:160,1,507.5
0,192,48769,6,0,L|512:192,1,507.5
0,224,48769,6,0,L|512:224,1,507.5
0,256,48769,6,0,L|512:256,1,507.5
0,288,48769,6,0,L|512:288,1,507.5
0,320,48769,6,0,L|512:320,1,507.5
0,352,48769,6,0,L|512:352,1,507.5
0,384,48769,6,0,L|512:384,1,507.5
32,64,49009,6,0,L|32:352|32:288,2,280
96,64,49009,6,0,L|96:352|96:288,2,280
160,64,49009,6,0,L|160:352|160:288,2,280
224,64,49009,6,0,L|224:352|224:288,2,280
352,64,49009,6,0,L|352:352|352:288,2,280
416,64,49009,6,0,L|416:352|416:288,2,280
480,64,49009,6,0,L|480:352|480:288,2,280
288,64,49009,6,0,L|288:352|288:288,2,280
256,192,49249,12,0,49729,0:0:0:0:
0,0,49249,6,0,L|512:0,1,507.5
0,32,49249,6,0,L|512:32,1,507.5
0,64,49249,6,0,L|512:64,1,507.5
0,96,49249,6,0,L|512:96,1,507.5
0,128,49249,6,0,L|512:128,1,507.5
0,160,49249,6,0,L|512:160,1,507.5
0,192,49249,6,0,L|512:192,1,507.5
0,224,49249,6,0,L|512:224,1,507.5
0,256,49249,6,0,L|512:256,1,507.5
0,288,49249,6,0,L|512:288,1,507.5
0,320,49249,6,0,L|512:320,1,507.5
0,352,49249,6,0,L|512:352,1,507.5
0,384,49249,6,0,L|512:384,1,507.5
32,64,49489,6,0,L|32:352|32:288,2,280
96,64,49489,6,0,L|96:352|96:288,2,280
160,64,49489,6,0,L|160:352|160:288,2,280
224,64,49489,6,0,L|224:352|224:288,2,280
352,64,49489,6,0,L|352:352|352:288,2,280
416,64,49489,6,0,L|416:352|416:288,2,280
480,64,49489,6,0,L|480:352|480:288,2,280
288,64,49489,6,0,L|288:352|288:288,2,280
256,192,49729,12,0,50209,0:0:0:0:
0,0,49729,6,0,L|512:0,1,507.5
0,32,49729,6,0,L|512:32,1,507.5
0,64,49729,6,0,L|512:64,1,507.5
0,96,49729,6,0,L|512:96,1,507.5
0,128,49729,6,0,L|512:128,1,507.5
0,160,49729,6,0,L|512:160,1,507.5
0,192,49729,6,0,L|512:192,1,507.5
0,224,49729,6,0,L|512:224,1,507.5
0,256,49729,6,0,L|512:256,1,507.5
0,288,49729,6,0,L|512:288,1,507.5
0,320,49729,6,0,L|512:320,1,507.5
0,352,49729,6,0,L|512:352,1,507.5
0,384,49729,6,0,L|512:384,1,507.5
32,64,49969,6,0,L|32:352|32:288,2,280
96,64,49969,6,0,L|96:352|96:288,2,280
160,64,49969,6,0,L|160:352|160:288,2,280
224,64,49969,6,0,L|224:352|224:288,2,280
352,64,49969,6,0,L|352:352|352:288,2,280
416,64,49969,6,0,L|416:352|416:288,2,280
480,64,49969,6,0,L|480:352|480:288,2,280
288,64,49969,6,0,L|288:352|288:288,2,280
256,192,50209,12,0,50689,0:0:0:0:
0,0,50209,6,0,L|512:0,1,507.5
0,32,50209,6,0,L|512:32,1,507.5
0,64,50209,6,0,L|512:64,1,507.5
0,96,50209,6,0,L|512:96,1,507.5
0,128,50209,6,0,L|512:128,1,507.5
0,160,50209,6,0,L|512:160,1,507.5
0,192,50209,6,0,L|512:192,1,507.5
0,224,50209,6,0,L|512:224,1,507.5
0,256,50209,6,0,L|512:256,1,507.5
0,288,50209,6,0,L|512:288,1,507.5
0,320,50209,6,0,L|512:320,1,507.5
0,352,50209,6,0,L|512:352,1,507.5
0,384,50209,6,0,L|512:384,1,507.5
32,64,50449,6,0,L|32:352|32:288,2,280
96,64,50449,6,0,L|96:352|96:288,2,280
160,64,50449,6,0,L|160:352|160:288,2,280
224,64,50449,6,0,L|224:352|224:288,2,280
352,64,50449,6,0,L|352:352|352:288,2,280
416,64,50449,6,0,L|416:352|416:288,2,280
480,64,50449,6,0,L|480:352|480:288,2,280
288,64,50449,6,0,L|288:352|288:288,2,280
256,192,50689,12,0,51169,0:0:0:0:
0,0,50689,6,0,L|512:0,1,507.5
0,32,50689,6,0,L|512:32,1,507.5
0,64,50689,6,0,L|512:64,1,507.5
0,96,50689,6,0,L|512:96,1,507.5
0,128,50689,6,0,L|512:128,1,507.5
0,160,50689,6,0,L|512:160,1,507.5
0,192,50689,6,0,L|512:192,1,507.5
0,224,50689,6,0,L|512:224,1,507.5
0,256,50689,6,0,L|512:256,1,507.5
0,288,50689,6,0,L|512:288,1,507.5
0,320,50689,6,0,L|512:320,1,507.5
0,352,50689,6,0,L|512:352,1,507.5
0,384,50689,6,0,L|512:384,1,507.5
416,64,50929,6,0,L|416:352|416:288,2,280
352,64,50929,6,0,L|352:352|352:288,2,280
288,64,50929,6,0,L|288:352|288:288,2,280
480,64,50929,6,0,L|480:352|480:288,2,280
96,64,50929,6,0,L|96:352|96:288,2,280
32,64,50929,6,0,L|32:352|32:288,2,280
224,64,50929,6,0,L|224:352|224:288,2,280
160,64,50929,6,0,L|160:352|160:288,2,280
256,192,51169,12,0,51649,0:0:0:0:
0,0,51169,6,0,L|512:0,1,507.5
0,32,51169,6,0,L|512:32,1,507.5
0,64,51169,6,0,L|512:64,1,507.5
0,96,51169,6,0,L|512:96,1,507.5
0,128,51169,6,0,L|512:128,1,507.5
0,160,51169,6,0,L|512:160,1,507.5
0,192,51169,6,0,L|512:192,1,507.5
0,224,51169,6,0,L|512:224,1,507.5
0,256,51169,6,0,L|512:256,1,507.5
0,288,51169,6,0,L|512:288,1,507.5
0,320,51169,6,0,L|512:320,1,507.5
0,352,51169,6,0,L|512:352,1,507.5
0,384,51169,6,0,L|512:384,1,507.5
416,64,51409,6,0,L|416:352|416:288,2,280
352,64,51409,6,0,L|352:352|352:288,2,280
288,64,51409,6,0,L|288:352|288:288,2,280
480,64,51409,6,0,L|480:352|480:288,2,280
96,64,51409,6,0,L|96:352|96:288,2,280
32,64,51409,6,0,L|32:352|32:288,2,280
224,64,51409,6,0,L|224:352|224:288,2,280
160,64,51409,6,0,L|160:352|160:288,2,280
256,192,51649,12,0,52129,0:0:0:0:
0,0,51649,6,0,L|512:0,1,507.5
0,32,51649,6,0,L|512:32,1,507.5
0,64,51649,6,0,L|512:64,1,507.5
0,96,51649,6,0,L|512:96,1,507.5
0,128,51649,6,0,L|512:128,1,507.5
0,160,51649,6,0,L|512:160,1,507.5
0,192,51649,6,0,L|512:192,1,507.5
0,224,51649,6,0,L|512:224,1,507.5
0,256,51649,6,0,L|512:256,1,507.5
0,288,51649,6,0,L|512:288,1,507.5
0,320,51649,6,0,L|512:320,1,507.5
0,352,51649,6,0,L|512:352,1,507.5
0,384,51649,6,0,L|512:384,1,507.5
416,64,51889,6,0,L|416:352|416:288,2,280
352,64,51889,6,0,L|352:352|352:288,2,280
288,64,51889,6,0,L|288:352|288:288,2,280
480,64,51889,6,0,L|480:352|480:288,2,280
96,64,51889,6,0,L|96:352|96:288,2,280
32,64,51889,6,0,L|32:352|32:288,2,280
224,64,51889,6,0,L|224:352|224:288,2,280
160,64,51889,6,0,L|160:352|160:288,2,280
0,256,52129,6,0,L|512:256,1,507.5
0,224,52129,6,0,L|512:224,1,507.5
0,192,52129,6,0,L|512:192,1,507.5
0,288,52129,6,0,L|512:288,1,507.5
0,384,52129,6,0,L|512:384,1,507.5
0,352,52129,6,0,L|512:352,1,507.5
0,320,52129,6,0,L|512:320,1,507.5
0,32,52129,6,0,L|512:32,1,507.5
0,0,52129,6,0,L|512:0,1,507.5
256,192,52129,12,0,52609,0:0:0:0:
0,64,52129,6,0,L|512:64,1,507.5
0,160,52129,6,0,L|512:160,1,507.5
0,128,52129,6,0,L|512:128,1,507.5
0,96,52129,6,0,L|512:96,1,507.5
416,64,52369,6,0,L|416:352|416:288,2,280
352,64,52369,6,0,L|352:352|352:288,2,280
288,64,52369,6,0,L|288:352|288:288,2,280
480,64,52369,6,0,L|480:352|480:288,2,280
96,64,52369,6,0,L|96:352|96:288,2,280
32,64,52369,6,0,L|32:352|32:288,2,280
224,64,52369,6,0,L|224:352|224:288,2,280
160,64,52369,6,0,L|160:352|160:288,2,280
0,256,52609,6,0,L|512:256,1,507.5
0,224,52609,6,0,L|512:224,1,507.5
0,192,52609,6,0,L|512:192,1,507.5
0,288,52609,6,0,L|512:288,1,507.5
0,384,52609,6,0,L|512:384,1,507.5
0,352,52609,6,0,L|512:352,1,507.5
0,320,52609,6,0,L|512:320,1,507.5
0,32,52609,6,0,L|512:32,1,507.5
0,0,52609,6,0,L|512:0,1,507.5
256,192,52609,12,0,53089,0:0:0:0:
0,64,52609,6,0,L|512:64,1,507.5
0,160,52609,6,0,L|512:160,1,507.5
0,128,52609,6,0,L|512:128,1,507.5
0,96,52609,6,0,L|512:96,1,507.5
32,64,52849,6,0,L|32:352|32:288,2,280
96,64,52849,6,0,L|96:352|96:288,2,280
160,64,52849,6,0,L|160:352|160:288,2,280
224,64,52849,6,0,L|224:352|224:288,2,280
352,64,52849,6,0,L|352:352|352:288,2,280
416,64,52849,6,0,L|416:352|416:288,2,280
480,64,52849,6,0,L|480:352|480:288,2,280
288,64,52849,6,0,L|288:352|288:288,2,280
256,192,53089,12,0,53569,0:0:0:0:
0,0,53089,6,0,L|512:0,1,507.5
0,32,53089,6,0,L|512:32,1,507.5
0,64,53089,6,0,L|512:64,1,507.5
0,96,53089,6,0,L|512:96,1,507.5
0,128,53089,6,0,L|512:128,1,507.5
0,160,53089,6,0,L|512:160,1,507.5
0,192,53089,6,0,L|512:192,1,507.5
0,224,53089,6,0,L|512:224,1,507.5
0,256,53089,6,0,L|512:256,1,507.5
0,288,53089,6,0,L|512:288,1,507.5
0,320,53089,6,0,L|512:320,1,507.5
0,352,53089,6,0,L|512:352,1,507.5
0,384,53089,6,0,L|512:384,1,507.5
32,64,53329,6,0,L|32:352|32:288,2,280
96,64,53329,6,0,L|96:352|96:288,2,280
160,64,53329,6,0,L|160:352|160:288,2,280
224,64,53329,6,0,L|224:352|224:288,2,280
352,64,53329,6,0,L|352:352|352:288,2,280
416,64,53329,6,0,L|416:352|416:288,2,280
480,64,53329,6,0,L|480:352|480:288,2,280
288,64,53329,6,0,L|288:352|288:288,2,280
0,256,53569,6,0,L|512:256,1,507.5
0,224,53569,6,0,L|512:224,1,507.5
0,192,53569,6,0,L|512:192,1,507.5
0,288,53569,6,0,L|512:288,1,507.5
0,384,53569,6,0,L|512:384,1,507.5
0,352,53569,6,0,L|512:352,1,507.5
0,320,53569,6,0,L|512:320,1,507.5
0,32,53569,6,0,L|512:32,1,507.5
0,0,53569,6,0,L|512:0,1,507.5
256,192,53569,12,0,54049,0:0:0:0:
0,64,53569,6,0,L|512:64,1,507.5
0,160,53569,6,0,L|512:160,1,507.5
0,128,53569,6,0,L|512:128,1,507.5
0,96,53569,6,0,L|512:96,1,507.5
0,288,54049,6,0,L|512:288,1,507.5
0,256,54049,6,0,L|512:256,1,507.5
0,224,54049,6,0,L|512:224,1,507.5
0,320,54049,6,0,L|512:320,1,507.5
256,192,54049,12,0,54529,0:0:0:0:
0,384,54049,6,0,L|512:384,1,507.5
0,352,54049,6,0,L|512:352,1,507.5
0,64,54049,6,0,L|512:64,1,507.5
0,32,54049,6,0,L|512:32,1,507.5
0,0,54049,6,0,L|512:0,1,507.5
0,96,54049,6,0,L|512:96,1,507.5
0,192,54049,6,0,L|512:192,1,507.5
0,160,54049,6,0,L|512:160,1,507.5
0,128,54049,6,0,L|512:128,1,507.5
416,64,54289,6,0,L|416:352|416:288,2,280
352,64,54289,6,0,L|352:352|352:288,2,280
288,64,54289,6,0,L|288:352|288:288,2,280
480,64,54289,6,0,L|480:352|480:288,2,280
96,64,54289,6,0,L|96:352|96:288,2,280
32,64,54289,6,0,L|32:352|32:288,2,280
224,64,54289,6,0,L|224:352|224:288,2,280
160,64,54289,6,0,L|160:352|160:288,2,280
0,256,54529,6,0,L|512:256,1,507.5
0,224,54529,6,0,L|512:224,1,507.5
0,192,54529,6,0,L|512:192,1,507.5
0,288,54529,6,0,L|512:288,1,507.5
0,384,54529,6,0,L|512:384,1,507.5
0,352,54529,6,0,L|512:352,1,507.5
0,320,54529,6,0,L|512:320,1,507.5
0,32,54529,6,0,L|512:32,1,507.5
0,0,54529,6,0,L|512:0,1,507.5
256,192,54529,12,0,55009,0:0:0:0:
0,64,54529,6,0,L|512:64,1,507.5
0,160,54529,6,0,L|512:160,1,507.5
0,128,54529,6,0,L|512:128,1,507.5
0,96,54529,6,0,L|512:96,1,507.5
32,64,54769,6,0,L|32:352|32:288,2,280
96,64,54769,6,0,L|96:352|96:288,2,280
160,64,54769,6,0,L|160:352|160:288,2,280
224,64,54769,6,0,L|224:352|224:288,2,280
352,64,54769,6,0,L|352:352|352:288,2,280
416,64,54769,6,0,L|416:352|416:288,2,280
480,64,54769,6,0,L|480:352|480:288,2,280
288,64,54769,6,0,L|288:352|288:288,2,280
256,192,55009,12,0,55489,0:0:0:0:
0,0,55009,6,0,L|512:0,1,507.5
0,32,55009,6,0,L|512:32,1,507.5
0,64,55009,6,0,L|512:64,1,507.5
0,96,55009,6,0,L|512:96,1,507.5
0,128,55009,6,0,L|512:128,1,507.5
0,160,55009,6,0,L|512:160,1,507.5
0,192,55009,6,0,L|512:192,1,507.5
0,224,55009,6,0,L|512:224,1,507.5
0,256,55009,6,0,L|512:256,1,507.5
0,288,55009,6,0,L|512:288,1,507.5
0,320,55009,6,0,L|512:320,1,507.5
0,352,55009,6,0,L|512:352,1,507.5
0,384,55009,6,0,L|512:384,1,507.5
416,64,55249,6,0,L|416:352|416:288,2,280
352,64,55249,6,0,L|352:352|352:288,2,280
288,64,55249,6,0,L|288:352|288:288,2,280
480,64,55249,6,0,L|480:352|480:288,2,280
96,64,55249,6,0,L|96:352|96:288,2,280
32,64,55249,6,0,L|32:352|32:288,2,280
224,64,55249,6,0,L|224:352|224:288,2,280
160,64,55249,6,0,L|160:352|160:288,2,280
0,256,55489,6,0,L|512:256,1,507.5
0,224,55489,6,0,L|512:224,1,507.5
0,192,55489,6,0,L|512:192,1,507.5
0,288,55489,6,0,L|512:288,1,507.5
0,384,55489,6,0,L|512:384,1,507.5
0,352,55489,6,0,L|512:352,1,507.5
0,320,55489,6,0,L|512:320,1,507.5
0,32,55489,6,0,L|512:32,1,507.5
0,0,55489,6,0,L|512:0,1,507.5
256,192,55489,12,0,55969,0:0:0:0:
0,64,55489,6,0,L|512:64,1,507.5
0,160,55489,6,0,L|512:160,1,507.5
0,128,55489,6,0,L|512:128,1,507.5
0,96,55489,6,0,L|512:96,1,507.5
32,64,55729,6,0,L|32:352|32:288,2,280
96,64,55729,6,0,L|96:352|96:288,2,280
160,64,55729,6,0,L|160:352|160:288,2,280
224,64,55729,6,0,L|224:352|224:288,2,280
352,64,55729,6,0,L|352:352|352:288,2,280
416,64,55729,6,0,L|416:352|416:288,2,280
480,64,55729,6,0,L|480:352|480:288,2,280
288,64,55729,6,0,L|288:352|288:288,2,280
256,192,55969,12,0,56449,0:0:0:0:
0,0,55969,6,0,L|512:0,1,507.5
0,32,55969,6,0,L|512:32,1,507.5
0,64,55969,6,0,L|512:64,1,507.5
0,96,55969,6,0,L|512:96,1,507.5
0,128,55969,6,0,L|512:128,1,507.5
0,160,55969,6,0,L|512:160,1,507.5
0,192,55969,6,0,L|512:192,1,507.5
0,224,55969,6,0,L|512:224,1,507.5
0,256,55969,6,0,L|512:256,1,507.5
0,288,55969,6,0,L|512:288,1,507.5
0,320,55969,6,0,L|512:320,1,507.5
0,352,55969,6,0,L|512:352,1,507.5
0,384,55969,6,0,L|512:384,1,507.5
416,64,56209,6,0,L|416:352|416:288,2,280
352,64,56209,6,0,L|352:352|352:288,2,280
288,64,56209,6,0,L|288:352|288:288,2,280
480,64,56209,6,0,L|480:352|480:288,2,280
96,64,56209,6,0,L|96:352|96:288,2,280
32,64,56209,6,0,L|32:352|32:288,2,280
224,64,56209,6,0,L|224:352|224:288,2,280
160,64,56209,6,0,L|160:352|160:288,2,280
0,256,56449,6,0,L|512:256,1,507.5
0,224,56449,6,0,L|512:224,1,507.5
0,192,56449,6,0,L|512:192,1,507.5
0,288,56449,6,0,L|512:288,1,507.5
0,384,56449,6,0,L|512:384,1,507.5
0,352,56449,6,0,L|512:352,1,507.5
0,320,56449,6,0,L|512:320,1,507.5
0,32,56449,6,0,L|512:32,1,507.5
0,0,56449,6,0,L|512:0,1,507.5
256,192,56449,12,0,56929,0:0:0:0:
0,64,56449,6,0,L|512:64,1,507.5
0,160,56449,6,0,L|512:160,1,507.5
0,128,56449,6,0,L|512:128,1,507.5
0,96,56449,6,0,L|512:96,1,507.5
32,64,56689,6,0,L|32:352|32:288,2,280
96,64,56689,6,0,L|96:352|96:288,2,280
160,64,56689,6,0,L|160:352|160:288,2,280
224,64,56689,6,0,L|224:352|224:288,2,280
352,64,56689,6,0,L|352:352|352:288,2,280
416,64,56689,6,0,L|416:352|416:288,2,280
480,64,56689,6,0,L|480:352|480:288,2,280
288,64,56689,6,0,L|288:352|288:288,2,280
256,192,56929,12,0,57409,0:0:0:0:
0,0,56929,6,0,L|512:0,1,507.5
0,32,56929,6,0,L|512:32,1,507.5
0,64,56929,6,0,L|512:64,1,507.5
0,96,56929,6,0,L|512:96,1,507.5
0,128,56929,6,0,L|512:128,1,507.5
0,160,56929,6,0,L|512:160,1,507.5
0,192,56929,6,0,L|512:192,1,507.5
0,224,56929,6,0,L|512:224,1,507.5
0,256,56929,6,0,L|512:256,1,507.5
0,288,56929,6,0,L|512:288,1,507.5
0,320,56929,6,0,L|512:320,1,507.5
0,352,56929,6,0,L|512:352,1,507.5
0,384,56929,6,0,L|512:384,1,507.5
416,64,57169,6,0,L|416:352|416:288,2,280
352,64,57169,6,0,L|352:352|352:288,2,280
288,64,57169,6,0,L|288:352|288:288,2,280
480,64,57169,6,0,L|480:352|480:288,2,280
96,64,57169,6,0,L|96:352|96:288,2,280
32,64,57169,6,0,L|32:352|32:288,2,280
224,64,57169,6,0,L|224:352|224:288,2,280
160,64,57169,6,0,L|160:352|160:288,2,280
256,192,57409,12,0,57889,0:0:0:0:
0,0,57409,6,0,L|512:0,1,507.5
0,32,57409,6,0,L|512:32,1,507.5
0,64,57409,6,0,L|512:64,1,507.5
0,96,57409,6,0,L|512:96,1,507.5
0,128,57409,6,0,L|512:128,1,507.5
0,160,57409,6,0,L|512:160,1,507.5
0,192,57409,6,0,L|512:192,1,507.5
0,224,57409,6,0,L|512:224,1,507.5
0,256,57409,6,0,L|512:256,1,507.5
0,288,57409,6,0,L|512:288,1,507.5
0,320,57409,6,0,L|512:320,1,507.5
0,352,57409,6,0,L|512:352,1,507.5
0,384,57409,6,0,L|512:384,1,507.5
32,64,57649,6,0,L|32:352|32:288,2,280
96,64,57649,6,0,L|96:352|96:288,2,280
160,64,57649,6,0,L|160:352|160:288,2,280
224,64,57649,6,0,L|224:352|224:288,2,280
352,64,57649,6,0,L|352:352|352:288,2,280
416,64,57649,6,0,L|416:352|416:288,2,280
480,64,57649,6,0,L|480:352|480:288,2,280
288,64,57649,6,0,L|288:352|288:288,2,280
0,256,57889,6,0,L|512:256,1,507.5
0,224,57889,6,0,L|512:224,1,507.5
0,192,57889,6,0,L|512:192,1,507.5
0,288,57889,6,0,L|512:288,1,507.5
0,384,57889,6,0,L|512:384,1,507.5
0,352,57889,6,0,L|512:352,1,507.5
0,320,57889,6,0,L|512:320,1,507.5
0,32,57889,6,0,L|512:32,1,507.5
0,0,57889,6,0,L|512:0,1,507.5
256,192,57889,12,0,58369,0:0:0:0:
0,64,57889,6,0,L|512:64,1,507.5
0,160,57889,6,0,L|512:160,1,507.5
0,128,57889,6,0,L|512:128,1,507.5
0,96,57889,6,0,L|512:96,1,507.5
416,64,58129,6,0,L|416:352|416:288,2,280
352,64,58129,6,0,L|352:352|352:288,2,280
288,64,58129,6,0,L|288:352|288:288,2,280
480,64,58129,6,0,L|480:352|480:288,2,280
96,64,58129,6,0,L|96:352|96:288,2,280
32,64,58129,6,0,L|32:352|32:288,2,280
224,64,58129,6,0,L|224:352|224:288,2,280
160,64,58129,6,0,L|160:352|160:288,2,280
256,192,58369,12,0,58849,0:0:0:0:
0,0,58369,6,0,L|512:0,1,507.5
0,32,58369,6,0,L|512:32,1,507.5
0,64,58369,6,0,L|512:64,1,507.5
0,96,58369,6,0,L|512:96,1,507.5
0,128,58369,6,0,L|512:128,1,507.5
0,160,58369,6,0,L|512:160,1,507.5
0,192,58369,6,0,L|512:192,1,507.5
0,224,58369,6,0,L|512:224,1,507.5
0,256,58369,6,0,L|512:256,1,507.5
0,288,58369,6,0,L|512:288,1,507.5
0,320,58369,6,0,L|512:320,1,507.5
0,352,58369,6,0,L|512:352,1,507.5
0,384,58369,6,0,L|512:384,1,507.5
32,64,58609,6,0,L|32:352|32:288,2,280
96,64,58609,6,0,L|96:352|96:288,2,280
160,64,58609,6,0,L|160:352|160:288,2,280
224,64,58609,6,0,L|224:352|224:288,2,280
352,64,58609,6,0,L|352:352|352:288,2,280
416,64,58609,6,0,L|416:352|416:288,2,280
480,64,58609,6,0,L|480:352|480:288,2,280
288,64,58609,6,0,L|288:352|288:288,2,280
0,256,58849,6,0,L|512:256,1,507.5
0,224,58849,6,0,L|512:224,1,507.5
0,192,58849,6,0,L|512:192,1,507.5
0,288,58849,6,0,L|512:288,1,507.5
0,384,58849,6,0,L|512:384,1,507.5
0,352,58849,6,0,L|512:352,1,507.5
0,320,58849,6,0,L|512:320,1,507.5
0,32,58849,6,0,L|512:32,1,507.5
0,0,58849,6,0,L|512:0,1,507.5
256,192,58849,12,0,59329,0:0:0:0:
0,64,58849,6,0,L|512:64,1,507.5
0,160,58849,6,0,L|512:160,1,507.5
0,128,58849,6,0,L|512:128,1,507.5
0,96,58849,6,0,L|512:96,1,507.5
416,64,59089,6,0,L|416:352|416:288,2,280
352,64,59089,6,0,L|352:352|352:288,2,280
288,64,59089,6,0,L|288:352|288:288,2,280
480,64,59089,6,0,L|480:352|480:288,2,280
96,64,59089,6,0,L|96:352|96:288,2,280
32,64,59089,6,0,L|32:352|32:288,2,280
224,64,59089,6,0,L|224:352|224:288,2,280
160,64,59089,6,0,L|160:352|160:288,2,280
256,192,59329,12,0,59809,0:0:0:0:
0,0,59329,6,0,L|512:0,1,507.5
0,32,59329,6,0,L|512:32,1,507.5
0,64,59329,6,0,L|512:64,1,507.5
0,96,59329,6,0,L|512:96,1,507.5
0,128,59329,6,0,L|512:128,1,507.5
0,160,59329,6,0,L|512:160,1,507.5
0,192,59329,6,0,L|512:192,1,507.5
0,224,59329,6,0,L|512:224,1,507.5
0,256,59329,6,0,L|512:256,1,507.5
0,288,59329,6,0,L|512:288,1,507.5
0,320,59329,6,0,L|512:320,1,507.5
0,352,59329,6,0,L|512:352,1,507.5
0,384,59329,6,0,L|512:384,1,507.5
32,64,59569,6,0,L|32:352|32:288,2,280
96,64,59569,6,0,L|96:352|96:288,2,280
160,64,59569,6,0,L|160:352|160:288,2,280
224,64,59569,6,0,L|224:352|224:288,2,280
352,64,59569,6,0,L|352:352|352:288,2,280
416,64,59569,6,0,L|416:352|416:288,2,280
480,64,59569,6,0,L|480:352|480:288,2,280
288,64,59569,6,0,L|288:352|288:288,2,280
0,256,59809,6,0,L|512:256,1,507.5
0,224,59809,6,0,L|512:224,1,507.5
0,192,59809,6,0,L|512:192,1,507.5
0,288,59809,6,0,L|512:288,1,507.5
0,384,59809,6,0,L|512:384,1,507.5
0,352,59809,6,0,L|512:352,1,507.5
0,320,59809,6,0,L|512:320,1,507.5
0,32,59809,6,0,L|512:32,1,507.5
0,0,59809,6,0,L|512:0,1,507.5
256,192,59809,12,0,60289,0:0:0:0:
0,64,59809,6,0,L|512:64,1,507.5
0,160,59809,6,0,L|512:160,1,507.5
0,128,59809,6,0,L|512:128,1,507.5
0,96,59809,6,0,L|512:96,1,507.5
416,64,60049,6,0,L|416:352|416:288,2,280
352,64,60049,6,0,L|352:352|352:288,2,280
288,64,60049,6,0,L|288:352|288:288,2,280
480,64,60049,6,0,L|480:352|480:288,2,280
96,64,60049,6,0,L|96:352|96:288,2,280
32,64,60049,6,0,L|32:352|32:288,2,280
224,64,60049,6,0,L|224:352|224:288,2,280
160,64,60049,6,0,L|160:352|160:288,2,280
256,192,60289,12,0,60769,0:0:0:0:
0,0,60289,6,0,L|512:0,1,507.5
0,32,60289,6,0,L|512:32,1,507.5
0,64,60289,6,0,L|512:64,1,507.5
0,96,60289,6,0,L|512:96,1,507.5
0,128,60289,6,0,L|512:128,1,507.5
0,160,60289,6,0,L|512:160,1,507.5
0,192,60289,6,0,L|512:192,1,507.5
0,224,60289,6,0,L|512:224,1,507.5
0,256,60289,6,0,L|512:256,1,507.5
0,288,60289,6,0,L|512:288,1,507.5
0,320,60289,6,0,L|512:320,1,507.5
0,352,60289,6,0,L|512:352,1,507.5
0,384,60289,6,0,L|512:384,1,507.5
32,64,60529,6,0,L|32:352|32:288,2,280
96,64,60529,6,0,L|96:352|96:288,2,280
160,64,60529,6,0,L|160:352|160:288,2,280
224,64,60529,6,0,L|224:352|224:288,2,280
352,64,60529,6,0,L|352:352|352:288,2,280
416,64,60529,6,0,L|416:352|416:288,2,280
480,64,60529,6,0,L|480:352|480:288,2,280
288,64,60529,6,0,L|288:352|288:288,2,280
256,192,60769,12,0,61249,0:0:0:0:
0,0,60769,6,0,L|512:0,1,507.5
0,32,60769,6,0,L|512:32,1,507.5
0,64,60769,6,0,L|512:64,1,507.5
0,96,60769,6,0,L|512:96,1,507.5
0,128,60769,6,0,L|512:128,1,507.5
0,160,60769,6,0,L|512:160,1,507.5
0,192,60769,6,0,L|512:192,1,507.5
0,224,60769,6,0,L|512:224,1,507.5
0,256,60769,6,0,L|512:256,1,507.5
0,288,60769,6,0,L|512:288,1,507.5
0,320,60769,6,0,L|512:320,1,507.5
0,352,60769,6,0,L|512:352,1,507.5
0,384,60769,6,0,L|512:384,1,507.5
416,64,61009,6,0,L|416:352|416:288,2,280
352,64,61009,6,0,L|352:352|352:288,2,280
288,64,61009,6,0,L|288:352|288:288,2,280
480,64,61009,6,0,L|480:352|480:288,2,280
96,64,61009,6,0,L|96:352|96:288,2,280
32,64,61009,6,0,L|32:352|32:288,2,280
224,64,61009,6,0,L|224:352|224:288,2,280
160,64,61009,6,0,L|160:352|160:288,2,280
0,256,61249,6,0,L|512:256,1,507.5
0,224,61249,6,0,L|512:224,1,507.5
0,192,61249,6,0,L|512:192,1,507.5
0,288,61249,6,0,L|512:288,1,507.5
0,384,61249,6,0,L|512:384,1,507.5
0,352,61249,6,0,L|512:352,1,507.5
0,320,61249,6,0,L|512:320,1,507.5
0,32,61249,6,0,L|512:32,1,507.5
0,0,61249,6,0,L|512:0,1,507.5
256,192,61249,12,0,61729,0:0:0:0:
0,64,61249,6,0,L|512:64,1,507.5
0,160,61249,6,0,L|512:160,1,507.5
0,128,61249,6,0,L|512:128,1,507.5
0,96,61249,6,0,L|512:96,1,507.5
0,0,61729,6,0,L|512:0,1,507.5
0,32,61729,6,0,L|512:32,1,507.5
0,64,61729,6,0,L|512:64,1,507.5
0,96,61729,6,0,L|512:96,1,507.5
0,128,61729,6,0,L|512:128,1,507.5
0,160,61729,6,0,L|512:160,1,507.5
0,192,61729,6,0,L|512:192,1,507.5
0,224,61729,6,0,L|512:224,1,507.5
0,256,61729,6,0,L|512:256,1,507.5
0,288,61729,6,0,L|512:288,1,507.5
0,320,61729,6,0,L|512:320,1,507.5
0,352,61729,6,0,L|512:352,1,507.5
0,384,61729,6,0,L|512:384,1,507.5
256,192,61729,12,0,62209,0:0:0:0:
32,64,61969,6,0,L|32:352|32:288,2,280
96,64,61969,6,0,L|96:352|96:288,2,280
160,64,61969,6,0,L|160:352|160:288,2,280
224,64,61969,6,0,L|224:352|224:288,2,280
352,64,61969,6,0,L|352:352|352:288,2,280
416,64,61969,6,0,L|416:352|416:288,2,280
480,64,61969,6,0,L|480:352|480:288,2,280
288,64,61969,6,0,L|288:352|288:288,2,280
0,256,62209,6,0,L|512:256,1,507.5
0,224,62209,6,0,L|512:224,1,507.5
0,192,62209,6,0,L|512:192,1,507.5
0,288,62209,6,0,L|512:288,1,507.5
0,384,62209,6,0,L|512:384,1,507.5
0,352,62209,6,0,L|512:352,1,507.5
0,320,62209,6,0,L|512:320,1,507.5
0,32,62209,6,0,L|512:32,1,507.5
0,0,62209,6,0,L|512:0,1,507.5
256,192,62209,12,0,62689,0:0:0:0:
0,64,62209,6,0,L|512:64,1,507.5
0,160,62209,6,0,L|512:160,1,507.5
0,128,62209,6,0,L|512:128,1,507.5
0,96,62209,6,0,L|512:96,1,507.5
416,64,62449,6,0,L|416:352|416:288,2,280
352,64,62449,6,0,L|352:352|352:288,2,280
288,64,62449,6,0,L|288:352|288:288,2,280
480,64,62449,6,0,L|480:352|480:288,2,280
96,64,62449,6,0,L|96:352|96:288,2,280
32,64,62449,6,0,L|32:352|32:288,2,280
224,64,62449,6,0,L|224:352|224:288,2,280
160,64,62449,6,0,L|160:352|160:288,2,280
256,192,62689,12,0,63169,0:0:0:0:
0,0,62689,6,0,L|512:0,1,507.5
0,32,62689,6,0,L|512:32,1,507.5
0,64,62689,6,0,L|512:64,1,507.5
0,96,62689,6,0,L|512:96,1,507.5
0,128,62689,6,0,L|512:128,1,507.5
0,160,62689,6,0,L|512:160,1,507.5
0,192,62689,6,0,L|512:192,1,507.5
0,224,62689,6,0,L|512:224,1,507.5
0,256,62689,6,0,L|512:256,1,507.5
0,288,62689,6,0,L|512:288,1,507.5
0,320,62689,6,0,L|512:320,1,507.5
0,352,62689,6,0,L|512:352,1,507.5
0,384,62689,6,0,L|512:384,1,507.5
416,64,62929,6,0,L|416:352|416:288,2,280
352,64,62929,6,0,L|352:352|352:288,2,280
288,64,62929,6,0,L|288:352|288:288,2,280
480,64,62929,6,0,L|480:352|480:288,2,280
96,64,62929,6,0,L|96:352|96:288,2,280
32,64,62929,6,0,L|32:352|32:288,2,280
224,64,62929,6,0,L|224:352|224:288,2,280
160,64,62929,6,0,L|160:352|160:288,2,280
0,256,63169,6,0,L|512:256,1,507.5
0,224,63169,6,0,L|512:224,1,507.5
0,192,63169,6,0,L|512:192,1,507.5
0,288,63169,6,0,L|512:288,1,507.5
0,384,63169,6,0,L|512:384,1,507.5
0,352,63169,6,0,L|512:352,1,507.5
0,320,63169,6,0,L|512:320,1,507.5
0,32,63169,6,0,L|512:32,1,507.5
0,0,63169,6,0,L|512:0,1,507.5
256,192,63169,12,0,63649,0:0:0:0:
0,64,63169,6,0,L|512:64,1,507.5
0,160,63169,6,0,L|512:160,1,507.5
0,128,63169,6,0,L|512:128,1,507.5
0,96,63169,6,0,L|512:96,1,507.5
32,64,63409,6,0,L|32:352|32:288,2,280
96,64,63409,6,0,L|96:352|96:288,2,280
160,64,63409,6,0,L|160:352|160:288,2,280
224,64,63409,6,0,L|224:352|224:288,2,280
352,64,63409,6,0,L|352:352|352:288,2,280
416,64,63409,6,0,L|416:352|416:288,2,280
480,64,63409,6,0,L|480:352|480:288,2,280
288,64,63409,6,0,L|288:352|288:288,2,280
0,256,63649,6,0,L|512:256,1,507.5
0,224,63649,6,0,L|512:224,1,507.5
0,192,63649,6,0,L|512:192,1,507.5
0,288,63649,6,0,L|512:288,1,507.5
0,384,63649,6,0,L|512:384,1,507.5
0,352,63649,6,0,L|512:352,1,507.5
0,320,63649,6,0,L|512:320,1,507.5
0,32,63649,6,0,L|512:32,1,507.5
0,0,63649,6,0,L|512:0,1,507.5
256,192,63649,12,0,64129,0:0:0:0:
0,64,63649,6,0,L|512:64,1,507.5
0,160,63649,6,0,L|512:160,1,507.5
0,128,63649,6,0,L|512:128,1,507.5
0,96,63649,6,0,L|512:96,1,507.5
416,64,63889,6,0,L|416:352|416:288,2,280
352,64,63889,6,0,L|352:352|352:288,2,280
288,64,63889,6,0,L|288:352|288:288,2,280
480,64,63889,6,0,L|480:352|480:288,2,280
96,64,63889,6,0,L|96:352|96:288,2,280
32,64,63889,6,0,L|32:352|32:288,2,280
224,64,63889,6,0,L|224:352|224:288,2,280
160,64,63889,6,0,L|160:352|160:288,2,280
256,192,64129,12,0,64609,0:0:0:0:
0,0,64129,6,0,L|512:0,1,507.5
0,32,64129,6,0,L|512:32,1,507.5
0,64,64129,6,0,L|512:64,1,507.5
0,96,64129,6,0,L|512:96,1,507.5
0,128,64129,6,0,L|512:128,1,507.5
0,160,64129,6,0,L|512:160,1,507.5
0,192,64129,6,0,L|512:192,1,507.5
0,224,64129,6,0,L|512:224,1,507.5
0,256,64129,6,0,L|512:256,1,507.5
0,288,64129,6,0,L|512:288,1,507.5
0,320,64129,6,0,L|512:320,1,507.5
0,352,64129,6,0,L|512:352,1,507.5
0,384,64129,6,0,L|512:384,1,507.5
32,64,64369,6,0,L|32:352|32:288,2,280
96,64,64369,6,0,L|96:352|96:288,2,280
160,64,64369,6,0,L|160:352|160:288,2,280
224,64,64369,6,0,L|224:352|224:288,2,280
352,64,64369,6,0,L|352:352|352:288,2,280
416,64,64369,6,0,L|416:352|416:288,2,280
480,64,64369,6,0,L|480:352|480:288,2,280
288,64,64369,6,0,L|288:352|288:288,2,280
256,192,64609,12,0,65089,0:0:0:0:
0,0,64609,6,0,L|512:0,1,507.5
0,32,64609,6,0,L|512:32,1,507.5
0,64,64609,6,0,L|512:64,1,507.5
0,96,64609,6,0,L|512:96,1,507.5
0,128,64609,6,0,L|512:128,1,507.5
0,160,64609,6,0,L|512:160,1,507.5
0,192,64609,6,0,L|512:192,1,507.5
0,224,64609,6,0,L|512:224,1,507.5
0,256,64609,6,0,L|512:256,1,507.5
0,288,64609,6,0,L|512:288,1,507.5
0,320,64609,6,0,L|512:320,1,507.5
0,352,64609,6,0,L|512:352,1,507.5
0,384,64609,6,0,L|512:384,1,507.5
32,64,64849,6,0,L|32:352|32:288,2,280
96,64,64849,6,0,L|96:352|96:288,2,280
160,64,64849,6,0,L|160:352|160:288,2,280
224,64,64849,6,0,L|224:352|224:288,2,280
352,64,64849,6,0,L|352:352|352:288,2,280
416,64,64849,6,0,L|416:352|416:288,2,280
480,64,64849,6,0,L|480:352|480:288,2,280
288,64,64849,6,0,L|288:352|288:288,2,280
256,192,65089,12,0,65569,0:0:0:0:
0,0,65089,6,0,L|512:0,1,507.5
0,32,65089,6,0,L|512:32,1,507.5
0,64,65089,6,0,L|512:64,1,507.5
0,96,65089,6,0,L|512:96,1,507.5
0,128,65089,6,0,L|512:128,1,507.5
0,160,65089,6,0,L|512:160,1,507.5
0,192,65089,6,0,L|512:192,1,507.5
0,224,65089,6,0,L|512:224,1,507.5
0,256,65089,6,0,L|512:256,1,507.5
0,288,65089,6,0,L|512:288,1,507.5
0,320,65089,6,0,L|512:320,1,507.5
0,352,65089,6,0,L|512:352,1,507.5
0,384,65089,6,0,L|512:384,1,507.5
32,64,65329,6,0,L|32:352|32:288,2,280
96,64,65329,6,0,L|96:352|96:288,2,280
160,64,65329,6,0,L|160:352|160:288,2,280
224,64,65329,6,0,L|224:352|224:288,2,280
352,64,65329,6,0,L|352:352|352:288,2,280
416,64,65329,6,0,L|416:352|416:288,2,280
480,64,65329,6,0,L|480:352|480:288,2,280
288,64,65329,6,0,L|288:352|288:288,2,280
256,192,65569,12,0,66049,0:0:0:0:
0,0,65569,6,0,L|512:0,1,507.5
0,32,65569,6,0,L|512:32,1,507.5
0,64,65569,6,0,L|512:64,1,507.5
0,96,65569,6,0,L|512:96,1,507.5
0,128,65569,6,0,L|512:128,1,507.5
0,160,65569,6,0,L|512:160,1,507.5
0,192,65569,6,0,L|512:192,1,507.5
0,224,65569,6,0,L|512:224,1,507.5
0,256,65569,6,0,L|512:256,1,507.5
0,288,65569,6,0,L|512:288,1,507.5
0,320,65569,6,0,L|512:320,1,507.5
0,352,65569,6,0,L|512:352,1,507.5
0,384,65569,6,0,L|512:384,1,507.5
32,64,65809,6,0,L|32:352|32:288,2,280
96,64,65809,6,0,L|96:352|96:288,2,280
160,64,65809,6,0,L|160:352|160:288,2,280
224,64,65809,6,0,L|224:352|224:288,2,280
352,64,65809,6,0,L|352:352|352:288,2,280
416,64,65809,6,0,L|416:352|416:288,2,280
480,64,65809,6,0,L|480:352|480:288,2,280
288,64,65809,6,0,L|288:352|288:288,2,280
256,192,66049,12,0,66529,0:0:0:0:
0,0,66049,6,0,L|512:0,1,507.5
0,32,66049,6,0,L|512:32,1,507.5
0,64,66049,6,0,L|512:64,1,507.5
0,96,66049,6,0,L|512:96,1,507.5
0,128,66049,6,0,L|512:128,1,507.5
0,160,66049,6,0,L|512:160,1,507.5
0,192,66049,6,0,L|512:192,1,507.5
0,224,66049,6,0,L|512:224,1,507.5
0,256,66049,6,0,L|512:256,1,507.5
0,288,66049,6,0,L|512:288,1,507.5
0,320,66049,6,0,L|512:320,1,507.5
0,352,66049,6,0,L|512:352,1,507.5
0,384,66049,6,0,L|512:384,1,507.5
416,64,66289,6,0,L|416:352|416:288,2,280
352,64,66289,6,0,L|352:352|352:288,2,280
288,64,66289,6,0,L|288:352|288:288,2,280
480,64,66289,6,0,L|480:352|480:288,2,280
96,64,66289,6,0,L|96:352|96:288,2,280
32,64,66289,6,0,L|32:352|32:288,2,280
224,64,66289,6,0,L|224:352|224:288,2,280
160,64,66289,6,0,L|160:352|160:288,2,280
256,192,66529,12,0,67009,0:0:0:0:
0,0,66529,6,0,L|512:0,1,507.5
0,32,66529,6,0,L|512:32,1,507.5
0,64,66529,6,0,L|512:64,1,507.5
0,96,66529,6,0,L|512:96,1,507.5
0,128,66529,6,0,L|512:128,1,507.5
0,160,66529,6,0,L|512:160,1,507.5
0,192,66529,6,0,L|512:192,1,507.5
0,224,66529,6,0,L|512:224,1,507.5
0,256,66529,6,0,L|512:256,1,507.5
0,288,66529,6,0,L|512:288,1,507.5
0,320,66529,6,0,L|512:320,1,507.5
0,352,66529,6,0,L|512:352,1,507.5
0,384,66529,6,0,L|512:384,1,507.5
416,64,66769,6,0,L|416:352|416:288,2,280
352,64,66769,6,0,L|352:352|352:288,2,280
288,64,66769,6,0,L|288:352|288:288,2,280
480,64,66769,6,0,L|480:352|480:288,2,280
96,64,66769,6,0,L|96:352|96:288,2,280
32,64,66769,6,0,L|32:352|32:288,2,280
224,64,66769,6,0,L|224:352|224:288,2,280
160,64,66769,6,0,L|160:352|160:288,2,280
256,192,67009,12,0,67489,0:0:0:0:
0,0,67009,6,0,L|512:0,1,507.5
0,32,67009,6,0,L|512:32,1,507.5
0,64,67009,6,0,L|512:64,1,507.5
0,96,67009,6,0,L|512:96,1,507.5
0,128,67009,6,0,L|512:128,1,507.5
0,160,67009,6,0,L|512:160,1,507.5
0,192,67009,6,0,L|512:192,1,507.5
0,224,67009,6,0,L|512:224,1,507.5
0,256,67009,6,0,L|512:256,1,507.5
0,288,67009,6,0,L|512:288,1,507.5
0,320,67009,6,0,L|512:320,1,507.5
0,352,67009,6,0,L|512:352,1,507.5
0,384,67009,6,0,L|512:384,1,507.5
416,64,67249,6,0,L|416:352|416:288,2,280
352,64,67249,6,0,L|352:352|352:288,2,280
288,64,67249,6,0,L|288:352|288:288,2,280
480,64,67249,6,0,L|480:352|480:288,2,280
96,64,67249,6,0,L|96:352|96:288,2,280
32,64,67249,6,0,L|32:352|32:288,2,280
224,64,67249,6,0,L|224:352|224:288,2,280
160,64,67249,6,0,L|160:352|160:288,2,280
0,256,67489,6,0,L|512:256,1,507.5
0,224,67489,6,0,L|512:224,1,507.5
0,192,67489,6,0,L|512:192,1,507.5
0,288,67489,6,0,L|512:288,1,507.5
0,384,67489,6,0,L|512:384,1,507.5
0,352,67489,6,0,L|512:352,1,507.5
0,320,67489,6,0,L|512:320,1,507.5
0,32,67489,6,0,L|512:32,1,507.5
0,0,67489,6,0,L|512:0,1,507.5
256,192,67489,12,0,67969,0:0:0:0:
0,64,67489,6,0,L|512:64,1,507.5
0,160,67489,6,0,L|512:160,1,507.5
0,128,67489,6,0,L|512:128,1,507.5
0,96,67489,6,0,L|512:96,1,507.5
416,64,67729,6,0,L|416:352|416:288,2,280
352,64,67729,6,0,L|352:352|352:288,2,280
288,64,67729,6,0,L|288:352|288:288,2,280
480,64,67729,6,0,L|480:352|480:288,2,280
96,64,67729,6,0,L|96:352|96:288,2,280
32,64,67729,6,0,L|32:352|32:288,2,280
224,64,67729,6,0,L|224:352|224:288,2,280
160,64,67729,6,0,L|160:352|160:288,2,280
0,256,67969,6,0,L|512:256,1,507.5
0,224,67969,6,0,L|512:224,1,507.5
0,192,67969,6,0,L|512:192,1,507.5
0,288,67969,6,0,L|512:288,1,507.5
0,384,67969,6,0,L|512:384,1,507.5
0,352,67969,6,0,L|512:352,1,507.5
0,320,67969,6,0,L|512:320,1,507.5
0,32,67969,6,0,L|512:32,1,507.5
0,0,67969,6,0,L|512:0,1,507.5
256,192,67969,12,0,68449,0:0:0:0:
0,64,67969,6,0,L|512:64,1,507.5
0,160,67969,6,0,L|512:160,1,507.5
0,128,67969,6,0,L|512:128,1,507.5
0,96,67969,6,0,L|512:96,1,507.5
32,64,68209,6,0,L|32:352|32:288,2,280
96,64,68209,6,0,L|96:352|96:288,2,280
160,64,68209,6,0,L|160:352|160:288,2,280
224,64,68209,6,0,L|224:352|224:288,2,280
352,64,68209,6,0,L|352:352|352:288,2,280
416,64,68209,6,0,L|416:352|416:288,2,280
480,64,68209,6,0,L|480:352|480:288,2,280
288,64,68209,6,0,L|288:352|288:288,2,280
256,192,68449,12,0,68929,0:0:0:0:
0,0,68449,6,0,L|512:0,1,507.5
0,32,68449,6,0,L|512:32,1,507.5
0,64,68449,6,0,L|512:64,1,507.5
0,96,68449,6,0,L|512:96,1,507.5
0,128,68449,6,0,L|512:128,1,507.5
0,160,68449,6,0,L|512:160,1,507.5
0,192,68449,6,0,L|512:192,1,507.5
0,224,68449,6,0,L|512:224,1,507.5
0,256,68449,6,0,L|512:256,1,507.5
0,288,68449,6,0,L|512:288,1,507.5
0,320,68449,6,0,L|512:320,1,507.5
0,352,68449,6,0,L|512:352,1,507.5
0,384,68449,6,0,L|512:384,1,507.5
32,64,68689,6,0,L|32:352|32:288,2,280
96,64,68689,6,0,L|96:352|96:288,2,280
160,64,68689,6,0,L|160:352|160:288,2,280
224,64,68689,6,0,L|224:352|224:288,2,280
352,64,68689,6,0,L|352:352|352:288,2,280
416,64,68689,6,0,L|416:352|416:288,2,280
480,64,68689,6,0,L|480:352|480:288,2,280
288,64,68689,6,0,L|288:352|288:288,2,280
0,256,68929,6,0,L|512:256,1,507.5
0,224,68929,6,0,L|512:224,1,507.5
0,192,68929,6,0,L|512:192,1,507.5
0,288,68929,6,0,L|512:288,1,507.5
0,384,68929,6,0,L|512:384,1,507.5
0,352,68929,6,0,L|512:352,1,507.5
0,320,68929,6,0,L|512:320,1,507.5
0,32,68929,6,0,L|512:32,1,507.5
0,0,68929,6,0,L|512:0,1,507.5
256,192,68929,12,0,69409,0:0:0:0:
0,64,68929,6,0,L|512:64,1,507.5
0,160,68929,6,0,L|512:160,1,507.5
0,128,68929,6,0,L|512:128,1,507.5
0,96,68929,6,0,L|512:96,1,507.5
0,288,69409,6,0,L|512:288,1,507.5
0,256,69409,6,0,L|512:256,1,507.5
0,224,69409,6,0,L|512:224,1,507.5
0,320,69409,6,0,L|512:320,1,507.5
256,192,69409,12,0,69889,0:0:0:0:
0,384,69409,6,0,L|512:384,1,507.5
0,352,69409,6,0,L|512:352,1,507.5
0,64,69409,6,0,L|512:64,1,507.5
0,32,69409,6,0,L|512:32,1,507.5
0,0,69409,6,0,L|512:0,1,507.5
0,96,69409,6,0,L|512:96,1,507.5
0,192,69409,6,0,L|512:192,1,507.5
0,160,69409,6,0,L|512:160,1,507.5
0,128,69409,6,0,L|512:128,1,507.5
416,64,69649,6,0,L|416:352|416:288,2,280
352,64,69649,6,0,L|352:352|352:288,2,280
288,64,69649,6,0,L|288:352|288:288,2,280
480,64,69649,6,0,L|480:352|480:288,2,280
96,64,69649,6,0,L|96:352|96:288,2,280
32,64,69649,6,0,L|32:352|32:288,2,280
224,64,69649,6,0,L|224:352|224:288,2,280
160,64,69649,6,0,L|160:352|160:288,2,280
256,192,69889,12,0,70369,0:0:0:0:
0,0,69889,6,0,L|512:0,1,507.5
0,32,69889,6,0,L|512:32,1,507.5
0,64,69889,6,0,L|512:64,1,507.5
0,96,69889,6,0,L|512:96,1,507.5
0,128,69889,6,0,L|512:128,1,507.5
0,160,69889,6,0,L|512:160,1,507.5
0,192,69889,6,0,L|512:192,1,507.5
0,224,69889,6,0,L|512:224,1,507.5
0,256,69889,6,0,L|512:256,1,507.5
0,288,69889,6,0,L|512:288,1,507.5
0,320,69889,6,0,L|512:320,1,507.5
0,352,69889,6,0,L|512:352,1,507.5
0,384,69889,6,0,L|512:384,1,507.5
32,64,70129,6,0,L|32:352|32:288,2,280
96,64,70129,6,0,L|96:352|96:288,2,280
160,64,70129,6,0,L|160:352|160:288,2,280
224,64,70129,6,0,L|224:352|224:288,2,280
352,64,70129,6,0,L|352:352|352:288,2,280
416,64,70129,6,0,L|416:352|416:288,2,280
480,64,70129,6,0,L|480:352|480:288,2,280
288,64,70129,6,0,L|288:352|288:288,2,280
0,256,70369,6,0,L|512:256,1,507.5
0,224,70369,6,0,L|512:224,1,507.5
0,192,70369,6,0,L|512:192,1,507.5
0,288,70369,6,0,L|512:288,1,507.5
0,384,70369,6,0,L|512:384,1,507.5
0,352,70369,6,0,L|512:352,1,507.5
0,320,70369,6,0,L|512:320,1,507.5
0,32,70369,6,0,L|512:32,1,507.5
0,0,70369,6,0,L|512:0,1,507.5
256,192,70369,12,0,70849,0:0:0:0:
0,64,70369,6,0,L|512:64,1,507.5
0,160,70369,6,0,L|512:160,1,507.5
0,128,70369,6,0,L|512:128,1,507.5
0,96,70369,6,0,L|512:96,1,507.5
32,64,70609,6,0,L|32:352|32:288,2,280
96,64,70609,6,0,L|96:352|96:288,2,280
160,64,70609,6,0,L|160:352|160:288,2,280
224,64,70609,6,0,L|224:352|224:288,2,280
352,64,70609,6,0,L|352:352|352:288,2,280
416,64,70609,6,0,L|416:352|416:288,2,280
480,64,70609,6,0,L|480:352|480:288,2,280
288,64,70609,6,0,L|288:352|288:288,2,280
256,192,70849,12,0,71329,0:0:0:0:
0,0,70849,6,0,L|512:0,1,507.5
0,32,70849,6,0,L|512:32,1,507.5
0,64,70849,6,0,L|512:64,1,507.5
0,96,70849,6,0,L|512:96,1,507.5
0,128,70849,6,0,L|512:128,1,507.5
0,160,70849,6,0,L|512:160,1,507.5
0,192,70849,6,0,L|512:192,1,507.5
0,224,70849,6,0,L|512:224,1,507.5
0,256,70849,6,0,L|512:256,1,507.5
0,288,70849,6,0,L|512:288,1,507.5
0,320,70849,6,0,L|512:320,1,507.5
0,352,70849,6,0,L|512:352,1,507.5
0,384,70849,6,0,L|512:384,1,507.5
416,64,71089,6,0,L|416:352|416:288,2,280
352,64,71089,6,0,L|352:352|352:288,2,280
288,64,71089,6,0,L|288:352|288:288,2,280
480,64,71089,6,0,L|480:352|480:288,2,280
96,64,71089,6,0,L|96:352|96:288,2,280
32,64,71089,6,0,L|32:352|32:288,2,280
224,64,71089,6,0,L|224:352|224:288,2,280
160,64,71089,6,0,L|160:352|160:288,2,280
256,192,71329,12,0,71809,0:0:0:0:
0,0,71329,6,0,L|512:0,1,507.5
0,32,71329,6,0,L|512:32,1,507.5
0,64,71329,6,0,L|512:64,1,507.5
0,96,71329,6,0,L|512:96,1,507.5
0,128,71329,6,0,L|512:128,1,507.5
0,160,71329,6,0,L|512:160,1,507.5
0,192,71329,6,0,L|512:192,1,507.5
0,224,71329,6,0,L|512:224,1,507.5
0,256,71329,6,0,L|512:256,1,507.5
0,288,71329,6,0,L|512:288,1,507.5
0,320,71329,6,0,L|512:320,1,507.5
0,352,71329,6,0,L|512:352,1,507.5
0,384,71329,6,0,L|512:384,1,507.5
32,64,71569,6,0,L|32:352|32:288,2,280
96,64,71569,6,0,L|96:352|96:288,2,280
160,64,71569,6,0,L|160:352|160:288,2,280
224,64,71569,6,0,L|224:352|224:288,2,280
352,64,71569,6,0,L|352:352|352:288,2,280
416,64,71569,6,0,L|416:352|416:288,2,280
480,64,71569,6,0,L|480:352|480:288,2,280
288,64,71569,6,0,L|288:352|288:288,2,280
0,256,71809,6,0,L|512:256,1,507.5
0,224,71809,6,0,L|512:224,1,507.5
0,192,71809,6,0,L|512:192,1,507.5
0,288,71809,6,0,L|512:288,1,507.5
0,384,71809,6,0,L|512:384,1,507.5
0,352,71809,6,0,L|512:352,1,507.5
0,320,71809,6,0,L|512:320,1,507.5
0,32,71809,6,0,L|512:32,1,507.5
0,0,71809,6,0,L|512:0,1,507.5
256,192,71809,12,0,72289,0:0:0:0:
0,64,71809,6,0,L|512:64,1,507.5
0,160,71809,6,0,L|512:160,1,507.5
0,128,71809,6,0,L|512:128,1,507.5
0,96,71809,6,0,L|512:96,1,507.5
416,64,72049,6,0,L|416:352|416:288,2,280
352,64,72049,6,0,L|352:352|352:288,2,280
288,64,72049,6,0,L|288:352|288:288,2,280
480,64,72049,6,0,L|480:352|480:288,2,280
96,64,72049,6,0,L|96:352|96:288,2,280
32,64,72049,6,0,L|32:352|32:288,2,280
224,64,72049,6,0,L|224:352|224:288,2,280
160,64,72049,6,0,L|160:352|160:288,2,280
0,256,72289,6,0,L|512:256,1,507.5
0,224,72289,6,0,L|512:224,1,507.5
0,192,72289,6,0,L|512:192,1,507.5
0,288,72289,6,0,L|512:288,1,507.5
0,384,72289,6,0,L|512:384,1,507.5
0,352,72289,6,0,L|512:352,1,507.5
0,320,72289,6,0,L|512:320,1,507.5
0,32,72289,6,0,L|512:32,1,507.5
0,0,72289,6,0,L|512:0,1,507.5
256,192,72289,12,0,72769,0:0:0:0:
0,64,72289,6,0,L|512:64,1,507.5
0,160,72289,6,0,L|512:160,1,507.5
0,128,72289,6,0,L|512:128,1,507.5
0,96,72289,6,0,L|512:96,1,507.5
416,64,72529,6,0,L|416:352|416:288,2,280
352,64,72529,6,0,L|352:352|352:288,2,280
288,64,72529,6,0,L|288:352|288:288,2,280
480,64,72529,6,0,L|480:352|480:288,2,280
96,64,72529,6,0,L|96:352|96:288,2,280
32,64,72529,6,0,L|32:352|32:288,2,280
224,64,72529,6,0,L|224:352|224:288,2,280
160,64,72529,6,0,L|160:352|160:288,2,280
0,256,72769,6,0,L|512:256,1,507.5
0,224,72769,6,0,L|512:224,1,507.5
0,192,72769,6,0,L|512:192,1,507.5
0,288,72769,6,0,L|512:288,1,507.5
0,384,72769,6,0,L|512:384,1,507.5
0,352,72769,6,0,L|512:352,1,507.5
0,320,72769,6,0,L|512:320,1,507.5
0,32,72769,6,0,L|512:32,1,507.5
0,0,72769,6,0,L|512:0,1,507.5
256,192,72769,12,0,73249,0:0:0:0:
0,64,72769,6,0,L|512:64,1,507.5
0,160,72769,6,0,L|512:160,1,507.5
0,128,72769,6,0,L|512:128,1,507.5
0,96,72769,6,0,L|512:96,1,507.5
416,64,73009,6,0,L|416:352|416:288,2,280
352,64,73009,6,0,L|352:352|352:288,2,280
288,64,73009,6,0,L|288:352|288:288,2,280
480,64,73009,6,0,L|480:352|480:288,2,280
96,64,73009,6,0,L|96:352|96:288,2,280
32,64,73009,6,0,L|32:352|32:288,2,280
224,64,73009,6,0,L|224:352|224:288,2,280
160,64,73009,6,0,L|160:352|160:288,2,280
0,256,73249,6,0,L|512:256,1,507.5
0,224,73249,6,0,L|512:224,1,507.5
0,192,73249,6,0,L|512:192,1,507.5
0,288,73249,6,0,L|512:288,1,507.5
0,384,73249,6,0,L|512:384,1,507.5
0,352,73249,6,0,L|512:352,1,507.5
0,320,73249,6,0,L|512:320,1,507.5
0,32,73249,6,0,L|512:32,1,507.5
0,0,73249,6,0,L|512:0,1,507.5
256,192,73249,12,0,73729,0:0:0:0:
0,64,73249,6,0,L|512:64,1,507.5
0,160,73249,6,0,L|512:160,1,507.5
0,128,73249,6,0,L|512:128,1,507.5
0,96,73249,6,0,L|512:96,1,507.5
416,64,73489,6,0,L|416:352|416:288,2,280
352,64,73489,6,0,L|352:352|352:288,2,280
288,64,73489,6,0,L|288:352|288:288,2,280
480,64,73489,6,0,L|480:352|480:288,2,280
96,64,73489,6,0,L|96:352|96:288,2,280
32,64,73489,6,0,L|32:352|32:288,2,280
224,64,73489,6,0,L|224:352|224:288,2,280
160,64,73489,6,0,L|160:352|160:288,2,280
0,256,73729,6,0,L|512:256,1,507.5
0,224,73729,6,0,L|512:224,1,507.5
0,192,73729,6,0,L|512:192,1,507.5
0,288,73729,6,0,L|512:288,1,507.5
0,384,73729,6,0,L|512:384,1,507.5
0,352,73729,6,0,L|512:352,1,507.5
0,320,73729,6,0,L|512:320,1,507.5
0,32,73729,6,0,L|512:32,1,507.5
0,0,73729,6,0,L|512:0,1,507.5
256,192,73729,12,0,74209,0:0:0:0:
0,64,73729,6,0,L|512:64,1,507.5
0,160,73729,6,0,L|512:160,1,507.5
0,128,73729,6,0,L|512:128,1,507.5
0,96,73729,6,0,L|512:96,1,507.5
32,64,73969,6,0,L|32:352|32:288,2,280
96,64,73969,6,0,L|96:352|96:288,2,280
160,64,73969,6,0,L|160:352|160:288,2,280
224,64,73969,6,0,L|224:352|224:288,2,280
352,64,73969,6,0,L|352:352|352:288,2,280
416,64,73969,6,0,L|416:352|416:288,2,280
480,64,73969,6,0,L|480:352|480:288,2,280
288,64,73969,6,0,L|288:352|288:288,2,280
0,256,74209,6,0,L|512:256,1,507.5
0,224,74209,6,0,L|512:224,1,507.5
0,192,74209,6,0,L|512:192,1,507.5
0,288,74209,6,0,L|512:288,1,507.5
0,384,74209,6,0,L|512:384,1,507.5
0,352,74209,6,0,L|512:352,1,507.5
0,320,74209,6,0,L|512:320,1,507.5
0,32,74209,6,0,L|512:32,1,507.5
0,0,74209,6,0,L|512:0,1,507.5
256,192,74209,12,0,74689,0:0:0:0:
0,64,74209,6,0,L|512:64,1,507.5
0,160,74209,6,0,L|512:160,1,507.5
0,128,74209,6,0,L|512:128,1,507.5
0,96,74209,6,0,L|512:96,1,507.5
32,64,74449,6,0,L|32:352|32:288,2,280
96,64,74449,6,0,L|96:352|96:288,2,280
160,64,74449,6,0,L|160:352|160:288,2,280
224,64,74449,6,0,L|224:352|224:288,2,280
352,64,74449,6,0,L|352:352|352:288,2,280
416,64,74449,6,0,L|416:352|416:288,2,280
480,64,74449,6,0,L|480:352|480:288,2,280
288,64,74449,6,0,L|288:352|288:288,2,280
0,256,74689,6,0,L|512:256,1,507.5
0,224,74689,6,0,L|512:224,1,507.5
0,192,74689,6,0,L|512:192,1,507.5
0,288,74689,6,0,L|512:288,1,507.5
0,384,74689,6,0,L|512:384,1,507.5
0,352,74689,6,0,L|512:352,1,507.5
0,320,74689,6,0,L|512:320,1,507.5
0,32,74689,6,0,L|512:32,1,507.5
0,0,74689,6,0,L|512:0,1,507.5
256,192,74689,12,0,75169,0:0:0:0:
0,64,74689,6,0,L|512:64,1,507.5
0,160,74689,6,0,L|512:160,1,507.5
0,128,74689,6,0,L|512:128,1,507.5
0,96,74689,6,0,L|512:96,1,507.5
32,64,74929,6,0,L|32:352|32:288,2,280
96,64,74929,6,0,L|96:352|96:288,2,280
160,64,74929,6,0,L|160:352|160:288,2,280
224,64,74929,6,0,L|224:352|224:288,2,280
352,64,74929,6,0,L|352:352|352:288,2,280
416,64,74929,6,0,L|416:352|416:288,2,280
480,64,74929,6,0,L|480:352|480:288,2,280
288,64,74929,6,0,L|288:352|288:288,2,280
256,192,75169,12,0,75649,0:0:0:0:
0,0,75169,6,0,L|512:0,1,507.5
0,32,75169,6,0,L|512:32,1,507.5
0,64,75169,6,0,L|512:64,1,507.5
0,96,75169,6,0,L|512:96,1,507.5
0,128,75169,6,0,L|512:128,1,507.5
0,160,75169,6,0,L|512:160,1,507.5
0,192,75169,6,0,L|512:192,1,507.5
0,224,75169,6,0,L|512:224,1,507.5
0,256,75169,6,0,L|512:256,1,507.5
0,288,75169,6,0,L|512:288,1,507.5
0,320,75169,6,0,L|512:320,1,507.5
0,352,75169,6,0,L|512:352,1,507.5
0,384,75169,6,0,L|512:384,1,507.5
32,64,75409,6,0,L|32:352|32:288,2,280
96,64,75409,6,0,L|96:352|96:288,2,280
160,64,75409,6,0,L|160:352|160:288,2,280
224,64,75409,6,0,L|224:352|224:288,2,280
352,64,75409,6,0,L|352:352|352:288,2,280
416,64,75409,6,0,L|416:352|416:288,2,280
480,64,75409,6,0,L|480:352|480:288,2,280
288,64,75409,6,0,L|288:352|288:288,2,280
256,192,75649,12,0,76129,0:0:0:0:
0,0,75649,6,0,L|512:0,1,507.5
0,32,75649,6,0,L|512:32,1,507.5
0,64,75649,6,0,L|512:64,1,507.5
0,96,75649,6,0,L|512:96,1,507.5
0,128,75649,6,0,L|512:128,1,507.5
0,160,75649,6,0,L|512:160,1,507.5
0,192,75649,6,0,L|512:192,1,507.5
0,224,75649,6,0,L|512:224,1,507.5
0,256,75649,6,0,L|512:256,1,507.5
0,288,75649,6,0,L|512:288,1,507.5
0,320,75649,6,0,L|512:320,1,507.5
0,352,75649,6,0,L|512:352,1,507.5
0,384,75649,6,0,L|512:384,1,507.5
416,64,75889,6,0,L|416:352|416:288,2,280
352,64,75889,6,0,L|352:352|352:288,2,280
288,64,75889,6,0,L|288:352|288:288,2,280
480,64,75889,6,0,L|480:352|480:288,2,280
96,64,75889,6,0,L|96:352|96:288,2,280
32,64,75889,6,0,L|32:352|32:288,2,280
224,64,75889,6,0,L|224:352|224:288,2,280
160,64,75889,6,0,L|160:352|160:288,2,280
0,256,76129,6,0,L|512:256,1,507.5
0,224,76129,6,0,L|512:224,1,507.5
0,192,76129,6,0,L|512:192,1,507.5
0,288,76129,6,0,L|512:288,1,507.5
0,384,76129,6,0,L|512:384,1,507.5
0,352,76129,6,0,L|512:352,1,507.5
0,320,76129,6,0,L|512:320,1,507.5
0,32,76129,6,0,L|512:32,1,507.5
0,0,76129,6,0,L|512:0,1,507.5
256,192,76129,12,0,76609,0:0:0:0:
0,64,76129,6,0,L|512:64,1,507.5
0,160,76129,6,0,L|512:160,1,507.5
0,128,76129,6,0,L|512:128,1,507.5
0,96,76129,6,0,L|512:96,1,507.5
416,64,76369,6,0,L|416:352|416:288,2,280
352,64,76369,6,0,L|352:352|352:288,2,280
288,64,76369,6,0,L|288:352|288:288,2,280
480,64,76369,6,0,L|480:352|480:288,2,280
96,64,76369,6,0,L|96:352|96:288,2,280
32,64,76369,6,0,L|32:352|32:288,2,280
224,64,76369,6,0,L|224:352|224:288,2,280
160,64,76369,6,0,L|160:352|160:288,2,280
256,192,76609,12,0,77089,0:0:0:0:
0,0,76609,6,0,L|512:0,1,507.5
0,32,76609,6,0,L|512:32,1,507.5
0,64,76609,6,0,L|512:64,1,507.5
0,96,76609,6,0,L|512:96,1,507.5
0,128,76609,6,0,L|512:128,1,507.5
0,160,76609,6,0,L|512:160,1,507.5
0,192,76609,6,0,L|512:192,1,507.5
0,224,76609,6,0,L|512:224,1,507.5
0,256,76609,6,0,L|512:256,1,507.5
0,288,76609,6,0,L|512:288,1,507.5
0,320,76609,6,0,L|512:320,1,507.5
0,352,76609,6,0,L|512:352,1,507.5
0,384,76609,6,0,L|512:384,1,507.5
0,0,77089,6,0,L|512:0,1,507.5
0,32,77089,6,0,L|512:32,1,507.5
0,64,77089,6,0,L|512:64,1,507.5
0,96,77089,6,0,L|512:96,1,507.5
0,128,77089,6,0,L|512:128,1,507.5
0,160,77089,6,0,L|512:160,1,507.5
0,192,77089,6,0,L|512:192,1,507.5
0,224,77089,6,0,L|512:224,1,507.5
0,256,77089,6,0,L|512:256,1,507.5
0,288,77089,6,0,L|512:288,1,507.5
0,320,77089,6,0,L|512:320,1,507.5
0,352,77089,6,0,L|512:352,1,507.5
0,384,77089,6,0,L|512:384,1,507.5
256,192,77089,12,0,77569,0:0:0:0:
32,64,77329,6,0,L|32:352|32:288,2,280
96,64,77329,6,0,L|96:352|96:288,2,280
160,64,77329,6,0,L|160:352|160:288,2,280
224,64,77329,6,0,L|224:352|224:288,2,280
352,64,77329,6,0,L|352:352|352:288,2,280
416,64,77329,6,0,L|416:352|416:288,2,280
480,64,77329,6,0,L|480:352|480:288,2,280
288,64,77329,6,0,L|288:352|288:288,2,280
0,256,77569,6,0,L|512:256,1,507.5
0,224,77569,6,0,L|512:224,1,507.5
0,192,77569,6,0,L|512:192,1,507.5
0,288,77569,6,0,L|512:288,1,507.5
0,384,77569,6,0,L|512:384,1,507.5
0,352,77569,6,0,L|512:352,1,507.5
0,320,77569,6,0,L|512:320,1,507.5
0,32,77569,6,0,L|512:32,1,507.5
0,0,77569,6,0,L|512:0,1,507.5
256,192,77569,12,0,78049,0:0:0:0:
0,64,77569,6,0,L|512:64,1,507.5
0,160,77569,6,0,L|512:160,1,507.5
0,128,77569,6,0,L|512:128,1,507.5
0,96,77569,6,0,L|512:96,1,507.5
416,64,77809,6,0,L|416:352|416:288,2,280
352,64,77809,6,0,L|352:352|352:288,2,280
288,64,77809,6,0,L|288:352|288:288,2,280
480,64,77809,6,0,L|480:352|480:288,2,280
96,64,77809,6,0,L|96:352|96:288,2,280
32,64,77809,6,0,L|32:352|32:288,2,280
224,64,77809,6,0,L|224:352|224:288,2,280
160,64,77809,6,0,L|160:352|160:288,2,280
256,192,78049,12,0,78529,0:0:0:0:
0,0,78049,6,0,L|512:0,1,507.5
0,32,78049,6,0,L|512:32,1,507.5
0,64,78049,6,0,L|512:64,1,507.5
0,96,78049,6,0,L|512:96,1,507.5
0,128,78049,6,0,L|512:128,1,507.5
0,160,78049,6,0,L|512:160,1,507.5
0,192,78049,6,0,L|512:192,1,507.5
0,224,78049,6,0,L|512:224,1,507.5
0,256,78049,6,0,L|512:256,1,507.5
0,288,78049,6,0,L|512:288,1,507.5
0,320,78049,6,0,L|512:320,1,507.5
0,352,78049,6,0,L|512:352,1,507.5
0,384,78049,6,0,L|512:384,1,507.5
416,64,78289,6,0,L|416:352|416:288,2,280
352,64,78289,6,0,L|352:352|352:288,2,280
288,64,78289,6,0,L|288:352|288:288,2,280
480,64,78289,6,0,L|480:352|480:288,2,280
96,64,78289,6,0,L|96:352|96:288,2,280
32,64,78289,6,0,L|32:352|32:288,2,280
224,64,78289,6,0,L|224:352|224:288,2,280
160,64,78289,6,0,L|160:352|160:288,2,280
0,256,78529,6,0,L|512:256,1,507.5
0,224,78529,6,0,L|512:224,1,507.5
0,192,78529,6,0,L|512:192,1,507.5
0,288,78529,6,0,L|512:288,1,507.5
0,384,78529,6,0,L|512:384,1,507.5
0,352,78529,6,0,L|512:352,1,507.5
0,320,78529,6,0,L|512:320,1,507.5
0,32,78529,6,0,L|512:32,1,507.5
0,0,78529,6,0,L|512:0,1,507.5
256,192,78529,12,0,79009,0:0:0:0:
0,64,78529,6,0,L|512:64,1,507.5
0,160,78529,6,0,L|512:160,1,507.5
0,128,78529,6,0,L|512:128,1,507.5
0,96,78529,6,0,L|512:96,1,507.5
32,64,78769,6,0,L|32:352|32:288,2,280
96,64,78769,6,0,L|96:352|96:288,2,280
160,64,78769,6,0,L|160:352|160:288,2,280
224,64,78769,6,0,L|224:352|224:288,2,280
352,64,78769,6,0,L|352:352|352:288,2,280
416,64,78769,6,0,L|416:352|416:288,2,280
480,64,78769,6,0,L|480:352|480:288,2,280
288,64,78769,6,0,L|288:352|288:288,2,280
0,256,79009,6,0,L|512:256,1,507.5
0,224,79009,6,0,L|512:224,1,507.5
0,192,79009,6,0,L|512:192,1,507.5
0,288,79009,6,0,L|512:288,1,507.5
0,384,79009,6,0,L|512:384,1,507.5
0,352,79009,6,0,L|512:352,1,507.5
0,320,79009,6,0,L|512:320,1,507.5
0,32,79009,6,0,L|512:32,1,507.5
0,0,79009,6,0,L|512:0,1,507.5
256,192,79009,12,0,79489,0:0:0:0:
0,64,79009,6,0,L|512:64,1,507.5
0,160,79009,6,0,L|512:160,1,507.5
0,128,79009,6,0,L|512:128,1,507.5
0,96,79009,6,0,L|512:96,1,507.5
416,64,79249,6,0,L|416:352|416:288,2,280
352,64,79249,6,0,L|352:352|352:288,2,280
288,64,79249,6,0,L|288:352|288:288,2,280
480,64,79249,6,0,L|480:352|480:288,2,280
96,64,79249,6,0,L|96:352|96:288,2,280
32,64,79249,6,0,L|32:352|32:288,2,280
224,64,79249,6,0,L|224:352|224:288,2,280
160,64,79249,6,0,L|160:352|160:288,2,280
256,192,79489,12,0,79969,0:0:0:0:
0,0,79489,6,0,L|512:0,1,507.5
0,32,79489,6,0,L|512:32,1,507.5
0,64,79489,6,0,L|512:64,1,507.5
0,96,79489,6,0,L|512:96,1,507.5
0,128,79489,6,0,L|512:128,1,507.5
0,160,79489,6,0,L|512:160,1,507.5
0,192,79489,6,0,L|512:192,1,507.5
0,224,79489,6,0,L|512:224,1,507.5
0,256,79489,6,0,L|512:256,1,507.5
0,288,79489,6,0,L|512:288,1,507.5
0,320,79489,6,0,L|512:320,1,507.5
0,352,79489,6,0,L|512:352,1,507.5
0,384,79489,6,0,L|512:384,1,507.5
32,64,79729,6,0,L|32:352|32:288,2,280
96,64,79729,6,0,L|96:352|96:288,2,280
160,64,79729,6,0,L|160:352|160:288,2,280
224,64,79729,6,0,L|224:352|224:288,2,280
352,64,79729,6,0,L|352:352|352:288,2,280
416,64,79729,6,0,L|416:352|416:288,2,280
480,64,79729,6,0,L|480:352|480:288,2,280
288,64,79729,6,0,L|288:352|288:288,2,280
256,192,79969,12,0,80449,0:0:0:0:
0,0,79969,6,0,L|512:0,1,507.5
0,32,79969,6,0,L|512:32,1,507.5
0,64,79969,6,0,L|512:64,1,507.5
0,96,79969,6,0,L|512:96,1,507.5
0,128,79969,6,0,L|512:128,1,507.5
0,160,79969,6,0,L|512:160,1,507.5
0,192,79969,6,0,L|512:192,1,507.5
0,224,79969,6,0,L|512:224,1,507.5
0,256,79969,6,0,L|512:256,1,507.5
0,288,79969,6,0,L|512:288,1,507.5
0,320,79969,6,0,L|512:320,1,507.5
0,352,79969,6,0,L|512:352,1,507.5
0,384,79969,6,0,L|512:384,1,507.5
32,64,80209,6,0,L|32:352|32:288,2,280
96,64,80209,6,0,L|96:352|96:288,2,280
160,64,80209,6,0,L|160:352|160:288,2,280
224,64,80209,6,0,L|224:352|224:288,2,280
352,64,80209,6,0,L|352:352|352:288,2,280
416,64,80209,6,0,L|416:352|416:288,2,280
480,64,80209,6,0,L|480:352|480:288,2,280
288,64,80209,6,0,L|288:352|288:288,2,280
256,192,80449,12,0,80929,0:0:0:0:
0,0,80449,6,0,L|512:0,1,507.5
0,32,80449,6,0,L|512:32,1,507.5
0,64,80449,6,0,L|512:64,1,507.5
0,96,80449,6,0,L|512:96,1,507.5
0,128,80449,6,0,L|512:128,1,507.5
0,160,80449,6,0,L|512:160,1,507.5
0,192,80449,6,0,L|512:192,1,507.5
0,224,80449,6,0,L|512:224,1,507.5
0,256,80449,6,0,L|512:256,1,507.5
0,288,80449,6,0,L|512:288,1,507.5
0,320,80449,6,0,L|512:320,1,507.5
0,352,80449,6,0,L|512:352,1,507.5
0,384,80449,6,0,L|512:384,1,507.5
32,64,80689,6,0,L|32:352|32:288,2,280
96,64,80689,6,0,L|96:352|96:288,2,280
160,64,80689,6,0,L|160:352|160:288,2,280
224,64,80689,6,0,L|224:352|224:288,2,280
352,64,80689,6,0,L|352:352|352:288,2,280
416,64,80689,6,0,L|416:352|416:288,2,280
480,64,80689,6,0,L|480:352|480:288,2,280
288,64,80689,6,0,L|288:352|288:288,2,280
256,192,80929,12,0,81409,0:0:0:0:
0,0,80929,6,0,L|512:0,1,507.5
0,32,80929,6,0,L|512:32,1,507.5
0,64,80929,6,0,L|512:64,1,507.5
0,96,80929,6,0,L|512:96,1,507.5
0,128,80929,6,0,L|512:128,1,507.5
0,160,80929,6,0,L|512:160,1,507.5
0,192,80929,6,0,L|512:192,1,507.5
0,224,80929,6,0,L|512:224,1,507.5
0,256,80929,6,0,L|512:256,1,507.5
0,288,80929,6,0,L|512:288,1,507.5
0,320,80929,6,0,L|512:320,1,507.5
0,352,80929,6,0,L|512:352,1,507.5
0,384,80929,6,0,L|512:384,1,507.5
32,64,81169,6,0,L|32:352|32:288,2,280
96,64,81169,6,0,L|96:352|96:288,2,280
160,64,81169,6,0,L|160:352|160:288,2,280
224,64,81169,6,0,L|224:352|224:288,2,280
352,64,81169,6,0,L|352:352|352:288,2,280
416,64,81169,6,0,L|416:352|416:288,2,280
480,64,81169,6,0,L|480:352|480:288,2,280
288,64,81169,6,0,L|288:352|288:288,2,280
256,192,81409,12,0,81889,0:0:0:0:
0,0,81409,6,0,L|512:0,1,507.5
0,32,81409,6,0,L|512:32,1,507.5
0,64,81409,6,0,L|512:64,1,507.5
0,96,81409,6,0,L|512:96,1,507.5
0,128,81409,6,0,L|512:128,1,507.5
0,160,81409,6,0,L|512:160,1,507.5
0,192,81409,6,0,L|512:192,1,507.5
0,224,81409,6,0,L|512:224,1,507.5
0,256,81409,6,0,L|512:256,1,507.5
0,288,81409,6,0,L|512:288,1,507.5
0,320,81409,6,0,L|512:320,1,507.5
0,352,81409,6,0,L|512:352,1,507.5
0,384,81409,6,0,L|512:384,1,507.5
416,64,81649,6,0,L|416:352|416:288,2,280
352,64,81649,6,0,L|352:352|352:288,2,280
288,64,81649,6,0,L|288:352|288:288,2,280
480,64,81649,6,0,L|480:352|480:288,2,280
96,64,81649,6,0,L|96:352|96:288,2,280
32,64,81649,6,0,L|32:352|32:288,2,280
224,64,81649,6,0,L|224:352|224:288,2,280
160,64,81649,6,0,L|160:352|160:288,2,280
256,192,81889,12,0,82369,0:0:0:0:
0,0,81889,6,0,L|512:0,1,507.5
0,32,81889,6,0,L|512:32,1,507.5
0,64,81889,6,0,L|512:64,1,507.5
0,96,81889,6,0,L|512:96,1,507.5
0,128,81889,6,0,L|512:128,1,507.5
0,160,81889,6,0,L|512:160,1,507.5
0,192,81889,6,0,L|512:192,1,507.5
0,224,81889,6,0,L|512:224,1,507.5
0,256,81889,6,0,L|512:256,1,507.5
0,288,81889,6,0,L|512:288,1,507.5
0,320,81889,6,0,L|512:320,1,507.5
0,352,81889,6,0,L|512:352,1,507.5
0,384,81889,6,0,L|512:384,1,507.5
416,64,82129,6,0,L|416:352|416:288,2,280
352,64,82129,6,0,L|352:352|352:288,2,280
288,64,82129,6,0,L|288:352|288:288,2,280
480,64,82129,6,0,L|480:352|480:288,2,280
96,64,82129,6,0,L|96:352|96:288,2,280
32,64,82129,6,0,L|32:352|32:288,2,280
224,64,82129,6,0,L|224:352|224:288,2,280
160,64,82129,6,0,L|160:352|160:288,2,280
256,192,82369,12,0,82849,0:0:0:0:
0,0,82369,6,0,L|512:0,1,507.5
0,32,82369,6,0,L|512:32,1,507.5
0,64,82369,6,0,L|512:64,1,507.5
0,96,82369,6,0,L|512:96,1,507.5
0,128,82369,6,0,L|512:128,1,507.5
0,160,82369,6,0,L|512:160,1,507.5
0,192,82369,6,0,L|512:192,1,507.5
0,224,82369,6,0,L|512:224,1,507.5
0,256,82369,6,0,L|512:256,1,507.5
0,288,82369,6,0,L|512:288,1,507.5
0,320,82369,6,0,L|512:320,1,507.5
0,352,82369,6,0,L|512:352,1,507.5
0,384,82369,6,0,L|512:384,1,507.5
416,64,82609,6,0,L|416:352|416:288,2,280
352,64,82609,6,0,L|352:352|352:288,2,280
288,64,82609,6,0,L|288:352|288:288,2,280
480,64,82609,6,0,L|480:352|480:288,2,280
96,64,82609,6,0,L|96:352|96:288,2,280
32,64,82609,6,0,L|32:352|32:288,2,280
224,64,82609,6,0,L|224:352|224:288,2,280
160,64,82609,6,0,L|160:352|160:288,2,280
0,256,82849,6,0,L|512:256,1,507.5
0,224,82849,6,0,L|512:224,1,507.5
0,192,82849,6,0,L|512:192,1,507.5
0,288,82849,6,0,L|512:288,1,507.5
0,384,82849,6,0,L|512:384,1,507.5
0,352,82849,6,0,L|512:352,1,507.5
0,320,82849,6,0,L|512:320,1,507.5
0,32,82849,6,0,L|512:32,1,507.5
0,0,82849,6,0,L|512:0,1,507.5
256,192,82849,12,0,83329,0:0:0:0:
0,64,82849,6,0,L|512:64,1,507.5
0,160,82849,6,0,L|512:160,1,507.5
0,128,82849,6,0,L|512:128,1,507.5
0,96,82849,6,0,L|512:96,1,507.5
416,64,83089,6,0,L|416:352|416:288,2,280
352,64,83089,6,0,L|352:352|352:288,2,280
288,64,83089,6,0,L|288:352|288:288,2,280
480,64,83089,6,0,L|480:352|480:288,2,280
96,64,83089,6,0,L|96:352|96:288,2,280
32,64,83089,6,0,L|32:352|32:288,2,280
224,64,83089,6,0,L|224:352|224:288,2,280
160,64,83089,6,0,L|160:352|160:288,2,280
0,256,83329,6,0,L|512:256,1,507.5
0,224,83329,6,0,L|512:224,1,507.5
0,192,83329,6,0,L|512:192,1,507.5
0,288,83329,6,0,L|512:288,1,507.5
0,384,83329,6,0,L|512:384,1,507.5
0,352,83329,6,0,L|512:352,1,507.5
0,320,83329,6,0,L|512:320,1,507.5
0,32,83329,6,0,L|512:32,1,507.5
0,0,83329,6,0,L|512:0,1,507.5
256,192,83329,12,0,83809,0:0:0:0:
0,64,83329,6,0,L|512:64,1,507.5
0,160,83329,6,0,L|512:160,1,507.5
0,128,83329,6,0,L|512:128,1,507.5
0,96,83329,6,0,L|512:96,1,507.5
32,64,83569,6,0,L|32:352|32:288,2,280
96,64,83569,6,0,L|96:352|96:288,2,280
160,64,83569,6,0,L|160:352|160:288,2,280
224,64,83569,6,0,L|224:352|224:288,2,280
352,64,83569,6,0,L|352:352|352:288,2,280
416,64,83569,6,0,L|416:352|416:288,2,280
480,64,83569,6,0,L|480:352|480:288,2,280
288,64,83569,6,0,L|288:352|288:288,2,280
256,192,83809,12,0,84289,0:0:0:0:
0,0,83809,6,0,L|512:0,1,507.5
0,32,83809,6,0,L|512:32,1,507.5
0,64,83809,6,0,L|512:64,1,507.5
0,96,83809,6,0,L|512:96,1,507.5
0,128,83809,6,0,L|512:128,1,507.5
0,160,83809,6,0,L|512:160,1,507.5
0,192,83809,6,0,L|512:192,1,507.5
0,224,83809,6,0,L|512:224,1,507.5
0,256,83809,6,0,L|512:256,1,507.5
0,288,83809,6,0,L|512:288,1,507.5
0,320,83809,6,0,L|512:320,1,507.5
0,352,83809,6,0,L|512:352,1,507.5
0,384,83809,6,0,L|512:384,1,507.5
32,64,84049,6,0,L|32:352|32:288,2,280
96,64,84049,6,0,L|96:352|96:288,2,280
160,64,84049,6,0,L|160:352|160:288,2,280
224,64,84049,6,0,L|224:352|224:288,2,280
352,64,84049,6,0,L|352:352|352:288,2,280
416,64,84049,6,0,L|416:352|416:288,2,280
480,64,84049,6,0,L|480:352|480:288,2,280
288,64,84049,6,0,L|288:352|288:288,2,280
0,256,84289,6,0,L|512:256,1,507.5
0,224,84289,6,0,L|512:224,1,507.5
0,192,84289,6,0,L|512:192,1,507.5
0,288,84289,6,0,L|512:288,1,507.5
0,384,84289,6,0,L|512:384,1,507.5
0,352,84289,6,0,L|512:352,1,507.5
0,320,84289,6,0,L|512:320,1,507.5
0,32,84289,6,0,L|512:32,1,507.5
0,0,84289,6,0,L|512:0,1,507.5
256,192,84289,12,0,84769,0:0:0:0:
0,64,84289,6,0,L|512:64,1,507.5
0,160,84289,6,0,L|512:160,1,507.5
0,128,84289,6,0,L|512:128,1,507.5
0,96,84289,6,0,L|512:96,1,507.5
0,288,84769,6,0,L|512:288,1,507.5
0,256,84769,6,0,L|512:256,1,507.5
0,224,84769,6,0,L|512:224,1,507.5
0,320,84769,6,0,L|512:320,1,507.5
256,192,84769,12,0,85249,0:0:0:0:
0,384,84769,6,0,L|512:384,1,507.5
0,352,84769,6,0,L|512:352,1,507.5
0,64,84769,6,0,L|512:64,1,507.5
0,32,84769,6,0,L|512:32,1,507.5
0,0,84769,6,0,L|512:0,1,507.5
0,96,84769,6,0,L|512:96,1,507.5
0,192,84769,6,0,L|512:192,1,507.5
0,160,84769,6,0,L|512:160,1,507.5
0,128,84769,6,0,L|512:128,1,507.5
416,64,85009,6,0,L|416:352|416:288,2,280
352,64,85009,6,0,L|352:352|352:288,2,280
288,64,85009,6,0,L|288:352|288:288,2,280
480,64,85009,6,0,L|480:352|480:288,2,280
96,64,85009,6,0,L|96:352|96:288,2,280
32,64,85009,6,0,L|32:352|32:288,2,280
224,64,85009,6,0,L|224:352|224:288,2,280
160,64,85009,6,0,L|160:352|160:288,2,280
256,192,85249,12,0,85729,0:0:0:0:
0,0,85249,6,0,L|512:0,1,507.5
0,32,85249,6,0,L|512:32,1,507.5
0,64,85249,6,0,L|512:64,1,507.5
0,96,85249,6,0,L|512:96,1,507.5
0,128,85249,6,0,L|512:128,1,507.5
0,160,85249,6,0,L|512:160,1,507.5
0,192,85249,6,0,L|512:192,1,507.5
0,224,85249,6,0,L|512:224,1,507.5
0,256,85249,6,0,L|512:256,1,507.5
0,288,85249,6,0,L|512:288,1,507.5
0,320,85249,6,0,L|512:320,1,507.5
0,352,85249,6,0,L|512:352,1,507.5
0,384,85249,6,0,L|512:384,1,507.5
32,64,85489,6,0,L|32:352|32:288,2,280
96,64,85489,6,0,L|96:352|96:288,2,280
160,64,85489,6,0,L|160:352|160:288,2,280
224,64,85489,6,0,L|224:352|224:288,2,280
352,64,85489,6,0,L|352:352|352:288,2,280
416,64,85489,6,0,L|416:352|416:288,2,280
480,64,85489,6,0,L|480:352|480:288,2,280
288,64,85489,6,0,L|288:352|288:288,2,280
0,256,85729,6,0,L|512:256,1,507.5
0,224,85729,6,0,L|512:224,1,507.5
0,192,85729,6,0,L|512:192,1,507.5
0,288,85729,6,0,L|512:288,1,507.5
0,384,85729,6,0,L|512:384,1,507.5
0,352,85729,6,0,L|512:352,1,507.5
0,320,85729,6,0,L|512:320,1,507.5
0,32,85729,6,0,L|512:32,1,507.5
0,0,85729,6,0,L|512:0,1,507.5
256,192,85729,12,0,86209,0:0:0:0:
0,64,85729,6,0,L|512:64,1,507.5
0,160,85729,6,0,L|512:160,1,507.5
0,128,85729,6,0,L|512:128,1,507.5
0,96,85729,6,0,L|512:96,1,507.5
32,64,85969,6,0,L|32:352|32:288,2,280
96,64,85969,6,0,L|96:352|96:288,2,280
160,64,85969,6,0,L|160:352|160:288,2,280
224,64,85969,6,0,L|224:352|224:288,2,280
352,64,85969,6,0,L|352:352|352:288,2,280
416,64,85969,6,0,L|416:352|416:288,2,280
480,64,85969,6,0,L|480:352|480:288,2,280
288,64,85969,6,0,L|288:352|288:288,2,280
256,192,86209,12,0,86689,0:0:0:0:
0,0,86209,6,0,L|512:0,1,507.5
0,32,86209,6,0,L|512:32,1,507.5
0,64,86209,6,0,L|512:64,1,507.5
0,96,86209,6,0,L|512:96,1,507.5
0,128,86209,6,0,L|512:128,1,507.5
0,160,86209,6,0,L|512:160,1,507.5
0,192,86209,6,0,L|512:192,1,507.5
0,224,86209,6,0,L|512:224,1,507.5
0,256,86209,6,0,L|512:256,1,507.5
0,288,86209,6,0,L|512:288,1,507.5
0,320,86209,6,0,L|512:320,1,507.5
0,352,86209,6,0,L|512:352,1,507.5
0,384,86209,6,0,L|512:384,1,507.5
416,64,86449,6,0,L|416:352|416:288,2,280
352,64,86449,6,0,L|352:352|352:288,2,280
288,64,86449,6,0,L|288:352|288:288,2,280
480,64,86449,6,0,L|480:352|480:288,2,280
96,64,86449,6,0,L|96:352|96:288,2,280
32,64,86449,6,0,L|32:352|32:288,2,280
224,64,86449,6,0,L|224:352|224:288,2,280
160,64,86449,6,0,L|160:352|160:288,2,280
256,192,86689,12,0,87169,0:0:0:0:
0,0,86689,6,0,L|512:0,1,507.5
0,32,86689,6,0,L|512:32,1,507.5
0,64,86689,6,0,L|512:64,1,507.5
0,96,86689,6,0,L|512:96,1,507.5
0,128,86689,6,0,L|512:128,1,507.5
0,160,86689,6,0,L|512:160,1,507.5
0,192,86689,6,0,L|512:192,1,507.5
0,224,86689,6,0,L|512:224,1,507.5
0,256,86689,6,0,L|512:256,1,507.5
0,288,86689,6,0,L|512:288,1,507.5
0,320,86689,6,0,L|512:320,1,507.5
0,352,86689,6,0,L|512:352,1,507.5
0,384,86689,6,0,L|512:384,1,507.5
32,64,86929,6,0,L|32:352|32:288,2,280
96,64,86929,6,0,L|96:352|96:288,2,280
160,64,86929,6,0,L|160:352|160:288,2,280
224,64,86929,6,0,L|224:352|224:288,2,280
352,64,86929,6,0,L|352:352|352:288,2,280
416,64,86929,6,0,L|416:352|416:288,2,280
480,64,86929,6,0,L|480:352|480:288,2,280
288,64,86929,6,0,L|288:352|288:288,2,280
0,256,87169,6,0,L|512:256,1,507.5
0,224,87169,6,0,L|512:224,1,507.5
0,192,87169,6,0,L|512:192,1,507.5
0,288,87169,6,0,L|512:288,1,507.5
0,384,87169,6,0,L|512:384,1,507.5
0,352,87169,6,0,L|512:352,1,507.5
0,320,87169,6,0,L|512:320,1,507.5
0,32,87169,6,0,L|512:32,1,507.5
0,0,87169,6,0,L|512:0,1,507.5
256,192,87169,12,0,87649,0:0:0:0:
0,64,87169,6,0,L|512:64,1,507.5
0,160,87169,6,0,L|512:160,1,507.5
0,128,87169,6,0,L|512:128,1,507.5
0,96,87169,6,0,L|512:96,1,507.5
416,64,87409,6,0,L|416:352|416:288,2,280
352,64,87409,6,0,L|352:352|352:288,2,280
288,64,87409,6,0,L|288:352|288:288,2,280
480,64,87409,6,0,L|480:352|480:288,2,280
96,64,87409,6,0,L|96:352|96:288,2,280
32,64,87409,6,0,L|32:352|32:288,2,280
224,64,87409,6,0,L|224:352|224:288,2,280
160,64,87409,6,0,L|160:352|160:288,2,280
0,256,87649,6,0,L|512:256,1,507.5
0,224,87649,6,0,L|512:224,1,507.5
0,192,87649,6,0,L|512:192,1,507.5
0,288,87649,6,0,L|512:288,1,507.5
0,384,87649,6,0,L|512:384,1,507.5
0,352,87649,6,0,L|512:352,1,507.5
0,320,87649,6,0,L|512:320,1,507.5
0,32,87649,6,0,L|512:32,1,507.5
0,0,87649,6,0,L|512:0,1,507.5
256,192,87649,12,0,88129,0:0:0:0:
0,64,87649,6,0,L|512:64,1,507.5
0,160,87649,6,0,L|512:160,1,507.5
0,128,87649,6,0,L|512:128,1,507.5
0,96,87649,6,0,L|512:96,1,507.5
416,64,87889,6,0,L|416:352|416:288,2,280
352,64,87889,6,0,L|352:352|352:288,2,280
288,64,87889,6,0,L|288:352|288:288,2,280
480,64,87889,6,0,L|480:352|480:288,2,280
96,64,87889,6,0,L|96:352|96:288,2,280
32,64,87889,6,0,L|32:352|32:288,2,280
224,64,87889,6,0,L|224:352|224:288,2,280
160,64,87889,6,0,L|160:352|160:288,2,280
0,256,88129,6,0,L|512:256,1,507.5
0,224,88129,6,0,L|512:224,1,507.5
0,192,88129,6,0,L|512:192,1,507.5
0,288,88129,6,0,L|512:288,1,507.5
0,384,88129,6,0,L|512:384,1,507.5
0,352,88129,6,0,L|512:352,1,507.5
0,320,88129,6,0,L|512:320,1,507.5
0,32,88129,6,0,L|512:32,1,507.5
0,0,88129,6,0,L|512:0,1,507.5
256,192,88129,12,0,88609,0:0:0:0:
0,64,88129,6,0,L|512:64,1,507.5
0,160,88129,6,0,L|512:160,1,507.5
0,128,88129,6,0,L|512:128,1,507.5
0,96,88129,6,0,L|512:96,1,507.5
416,64,88369,6,0,L|416:352|416:288,2,280
352,64,88369,6,0,L|352:352|352:288,2,280
288,64,88369,6,0,L|288:352|288:288,2,280
480,64,88369,6,0,L|480:352|480:288,2,280
96,64,88369,6,0,L|96:352|96:288,2,280
32,64,88369,6,0,L|32:352|32:288,2,280
224,64,88369,6,0,L|224:352|224:288,2,280
160,64,88369,6,0,L|160:352|160:288,2,280
0,256,88609,6,0,L|512:256,1,507.5
0,224,88609,6,0,L|512:224,1,507.5
0,192,88609,6,0,L|512:192,1,507.5
0,288,88609,6,0,L|512:288,1,507.5
0,384,88609,6,0,L|512:384,1,507.5
0,352,88609,6,0,L|512:352,1,507.5
0,320,88609,6,0,L|512:320,1,507.5
0,32,88609,6,0,L|512:32,1,507.5
0,0,88609,6,0,L|512:0,1,507.5
256,192,88609,12,0,89089,0:0:0:0:
0,64,88609,6,0,L|512:64,1,507.5
0,160,88609,6,0,L|512:160,1,507.5
0,128,88609,6,0,L|512:128,1,507.5
0,96,88609,6,0,L|512:96,1,507.5
416,64,88849,6,0,L|416:352|416:288,2,280
352,64,88849,6,0,L|352:352|352:288,2,280
288,64,88849,6,0,L|288:352|288:288,2,280
480,64,88849,6,0,L|480:352|480:288,2,280
96,64,88849,6,0,L|96:352|96:288,2,280
32,64,88849,6,0,L|32:352|32:288,2,280
224,64,88849,6,0,L|224:352|224:288,2,280
160,64,88849,6,0,L|160:352|160:288,2,280
0,256,89089,6,0,L|512:256,1,507.5
0,224,89089,6,0,L|512:224,1,507.5
0,192,89089,6,0,L|512:192,1,507.5
0,288,89089,6,0,L|512:288,1,507.5
0,384,89089,6,0,L|512:384,1,507.5
0,352,89089,6,0,L|512:352,1,507.5
0,320,89089,6,0,L|512:320,1,507.5
0,32,89089,6,0,L|512:32,1,507.5
0,0,89089,6,0,L|512:0,1,507.5
256,192,89089,12,0,89569,0:0:0:0:
0,64,89089,6,0,L|512:64,1,507.5
0,160,89089,6,0,L|512:160,1,507.5
0,128,89089,6,0,L|512:128,1,507.5
0,96,89089,6,0,L|512:96,1,507.5
32,64,89329,6,0,L|32:352|32:288,2,280
96,64,89329,6,0,L|96:352|96:288,2,280
160,64,89329,6,0,L|160:352|160:288,2,280
224,64,89329,6,0,L|224:352|224:288,2,280
352,64,89329,6,0,L|352:352|352:288,2,280
416,64,89329,6,0,L|416:352|416:288,2,280
480,64,89329,6,0,L|480:352|480:288,2,280
288,64,89329,6,0,L|288:352|288:288,2,280
0,256,89569,6,0,L|512:256,1,507.5
0,224,89569,6,0,L|512:224,1,507.5
0,192,89569,6,0,L|512:192,1,507.5
0,288,89569,6,0,L|512:288,1,507.5
0,384,89569,6,0,L|512:384,1,507.5
0,352,89569,6,0,L|512:352,1,507.5
0,320,89569,6,0,L|512:320,1,507.5
0,32,89569,6,0,L|512:32,1,507.5
0,0,89569,6,0,L|512:0,1,507.5
256,192,89569,12,0,90049,0:0:0:0:
0,64,89569,6,0,L|512:64,1,507.5
0,160,89569,6,0,L|512:160,1,507.5
0,128,89569,6,0,L|512:128,1,507.5
0,96,89569,6,0,L|512:96,1,507.5
32,64,89809,6,0,L|32:352|32:288,2,280
96,64,89809,6,0,L|96:352|96:288,2,280
160,64,89809,6,0,L|160:352|160:288,2,280
224,64,89809,6,0,L|224:352|224:288,2,280
352,64,89809,6,0,L|352:352|352:288,2,280
416,64,89809,6,0,L|416:352|416:288,2,280
480,64,89809,6,0,L|480:352|480:288,2,280
288,64,89809,6,0,L|288:352|288:288,2,280
0,256,90049,6,0,L|512:256,1,507.5
0,224,90049,6,0,L|512:224,1,507.5
0,192,90049,6,0,L|512:192,1,507.5
0,288,90049,6,0,L|512:288,1,507.5
0,384,90049,6,0,L|512:384,1,507.5
0,352,90049,6,0,L|512:352,1,507.5
0,320,90049,6,0,L|512:320,1,507.5
0,32,90049,6,0,L|512:32,1,507.5
0,0,90049,6,0,L|512:0,1,507.5
256,192,90049,12,0,90529,0:0:0:0:
0,64,90049,6,0,L|512:64,1,507.5
0,160,90049,6,0,L|512:160,1,507.5
0,128,90049,6,0,L|512:128,1,507.5
0,96,90049,6,0,L|512:96,1,507.5
32,64,90289,6,0,L|32:352|32:288,2,280
96,64,90289,6,0,L|96:352|96:288,2,280
160,64,90289,6,0,L|160:352|160:288,2,280
224,64,90289,6,0,L|224:352|224:288,2,280
352,64,90289,6,0,L|352:352|352:288,2,280
416,64,90289,6,0,L|416:352|416:288,2,280
480,64,90289,6,0,L|480:352|480:288,2,280
288,64,90289,6,0,L|288:352|288:288,2,280
256,192,90529,12,0,91009,0:0:0:0:
0,0,90529,6,0,L|512:0,1,507.5
0,32,90529,6,0,L|512:32,1,507.5
0,64,90529,6,0,L|512:64,1,507.5
0,96,90529,6,0,L|512:96,1,507.5
0,128,90529,6,0,L|512:128,1,507.5
0,160,90529,6,0,L|512:160,1,507.5
0,192,90529,6,0,L|512:192,1,507.5
0,224,90529,6,0,L|512:224,1,507.5
0,256,90529,6,0,L|512:256,1,507.5
0,288,90529,6,0,L|512:288,1,507.5
0,320,90529,6,0,L|512:320,1,507.5
0,352,90529,6,0,L|512:352,1,507.5
0,384,90529,6,0,L|512:384,1,507.5
32,64,90769,6,0,L|32:352|32:288,2,280
96,64,90769,6,0,L|96:352|96:288,2,280
160,64,90769,6,0,L|160:352|160:288,2,280
224,64,90769,6,0,L|224:352|224:288,2,280
352,64,90769,6,0,L|352:352|352:288,2,280
416,64,90769,6,0,L|416:352|416:288,2,280
480,64,90769,6,0,L|480:352|480:288,2,280
288,64,90769,6,0,L|288:352|288:288,2,280
256,192,91009,12,0,91489,0:0:0:0:
0,0,91009,6,0,L|512:0,1,507.5
0,32,91009,6,0,L|512:32,1,507.5
0,64,91009,6,0,L|512:64,1,507.5
0,96,91009,6,0,L|512:96,1,507.5
0,128,91009,6,0,L|512:128,1,507.5
0,160,91009,6,0,L|512:160,1,507.5
0,192,91009,6,0,L|512:192,1,507.5
0,224,91009,6,0,L|512:224,1,507.5
0,256,91009,6,0,L|512:256,1,507.5
0,288,91009,6,0,L|512:288,1,507.5
0,320,91009,6,0,L|512:320,1,507.5
0,352,91009,6,0,L|512:352,1,507.5
0,384,91009,6,0,L|512:384,1,507.5
416,64,91249,6,0,L|416:352|416:288,2,280
352,64,91249,6,0,L|352:352|352:288,2,280
288,64,91249,6,0,L|288:352|288:288,2,280
480,64,91249,6,0,L|480:352|480:288,2,280
96,64,91249,6,0,L|96:352|96:288,2,280
32,64,91249,6,0,L|32:352|32:288,2,280
224,64,91249,6,0,L|224:352|224:288,2,280
160,64,91249,6,0,L|160:352|160:288,2,280
0,256,91489,6,0,L|512:256,1,507.5
0,224,91489,6,0,L|512:224,1,507.5
0,192,91489,6,0,L|512:192,1,507.5
0,288,91489,6,0,L|512:288,1,507.5
0,384,91489,6,0,L|512:384,1,507.5
0,352,91489,6,0,L|512:352,1,507.5
0,320,91489,6,0,L|512:320,1,507.5
0,32,91489,6,0,L|512:32,1,507.5
0,0,91489,6,0,L|512:0,1,507.5
256,192,91489,12,0,91969,0:0:0:0:
0,64,91489,6,0,L|512:64,1,507.5
0,160,91489,6,0,L|512:160,1,507.5
0,128,91489,6,0,L|512:128,1,507.5
0,96,91489,6,0,L|512:96,1,507.5
416,64,91729,6,0,L|416:352|416:288,2,280
352,64,91729,6,0,L|352:352|352:288,2,280
288,64,91729,6,0,L|288:352|288:288,2,280
480,64,91729,6,0,L|480:352|480:288,2,280
96,64,91729,6,0,L|96:352|96:288,2,280
32,64,91729,6,0,L|32:352|32:288,2,280
224,64,91729,6,0,L|224:352|224:288,2,280
160,64,91729,6,0,L|160:352|160:288,2,280
256,192,91969,12,0,92449,0:0:0:0:
0,0,91969,6,0,L|512:0,1,507.5
0,32,91969,6,0,L|512:32,1,507.5
0,64,91969,6,0,L|512:64,1,507.5
0,96,91969,6,0,L|512:96,1,507.5
0,128,91969,6,0,L|512:128,1,507.5
0,160,91969,6,0,L|512:160,1,507.5
0,192,91969,6,0,L|512:192,1,507.5
0,224,91969,6,0,L|512:224,1,507.5
0,256,91969,6,0,L|512:256,1,507.5
0,288,91969,6,0,L|512:288,1,507.5
0,320,91969,6,0,L|512:320,1,507.5
0,352,91969,6,0,L|512:352,1,507.5
0,384,91969,6,0,L|512:384,1,507.5
0,0,92449,6,0,L|512:0,1,507.5
0,32,92449,6,0,L|512:32,1,507.5
0,64,92449,6,0,L|512:64,1,507.5
0,96,92449,6,0,L|512:96,1,507.5
0,128,92449,6,0,L|512:128,1,507.5
0,160,92449,6,0,L|512:160,1,507.5
0,192,92449,6,0,L|512:192,1,507.5
0,224,92449,6,0,L|512:224,1,507.5
0,256,92449,6,0,L|512:256,1,507.5
0,288,92449,6,0,L|512:288,1,507.5
0,320,92449,6,0,L|512:320,1,507.5
0,352,92449,6,0,L|512:352,1,507.5
0,384,92449,6,0,L|512:384,1,507.5
256,192,92449,12,0,92929,0:0:0:0:
32,64,92689,6,0,L|32:352|32:288,2,280
96,64,92689,6,0,L|96:352|96:288,2,280
160,64,92689,6,0,L|160:352|160:288,2,280
224,64,92689,6,0,L|224:352|224:288,2,280
352,64,92689,6,0,L|352:352|352:288,2,280
416,64,92689,6,0,L|416:352|416:288,2,280
480,64,92689,6,0,L|480:352|480:288,2,280
288,64,92689,6,0,L|288:352|288:288,2,280
0,256,92929,6,0,L|512:256,1,507.5
0,224,92929,6,0,L|512:224,1,507.5
0,192,92929,6,0,L|512:192,1,507.5
0,288,92929,6,0,L|512:288,1,507.5
0,384,92929,6,0,L|512:384,1,507.5
0,352,92929,6,0,L|512:352,1,507.5
0,320,92929,6,0,L|512:320,1,507.5
0,32,92929,6,0,L|512:32,1,507.5
0,0,92929,6,0,L|512:0,1,507.5
256,192,92929,12,0,93409,0:0:0:0:
0,64,92929,6,0,L|512:64,1,507.5
0,160,92929,6,0,L|512:160,1,507.5
0,128,92929,6,0,L|512:128,1,507.5
0,96,92929,6,0,L|512:96,1,507.5
416,64,93169,6,0,L|416:352|416:288,2,280
352,64,93169,6,0,L|352:352|352:288,2,280
288,64,93169,6,0,L|288:352|288:288,2,280
480,64,93169,6,0,L|480:352|480:288,2,280
96,64,93169,6,0,L|96:352|96:288,2,280
32,64,93169,6,0,L|32:352|32:288,2,280
224,64,93169,6,0,L|224:352|224:288,2,280
160,64,93169,6,0,L|160:352|160:288,2,280
256,192,93409,12,0,93889,0:0:0:0:
0,0,93409,6,0,L|512:0,1,507.5
0,32,93409,6,0,L|512:32,1,507.5
0,64,93409,6,0,L|512:64,1,507.5
0,96,93409,6,0,L|512:96,1,507.5
0,128,93409,6,0,L|512:128,1,507.5
0,160,93409,6,0,L|512:160,1,507.5
0,192,93409,6,0,L|512:192,1,507.5
0,224,93409,6,0,L|512:224,1,507.5
0,256,93409,6,0,L|512:256,1,507.5
0,288,93409,6,0,L|512:288,1,507.5
0,320,93409,6,0,L|512:320,1,507.5
0,352,93409,6,0,L|512:352,1,507.5
0,384,93409,6,0,L|512:384,1,507.5
416,64,93649,6,0,L|416:352|416:288,2,280
352,64,93649,6,0,L|352:352|352:288,2,280
288,64,93649,6,0,L|288:352|288:288,2,280
480,64,93649,6,0,L|480:352|480:288,2,280
96,64,93649,6,0,L|96:352|96:288,2,280
32,64,93649,6,0,L|32:352|32:288,2,280
224,64,93649,6,0,L|224:352|224:288,2,280
160,64,93649,6,0,L|160:352|160:288,2,280
0,256,93889,6,0,L|512:256,1,507.5
0,224,93889,6,0,L|512:224,1,507.5
0,192,93889,6,0,L|512:192,1,507.5
0,288,93889,6,0,L|512:288,1,507.5
0,384,93889,6,0,L|512:384,1,507.5
0,352,93889,6,0,L|512:352,1,507.5
0,320,93889,6,0,L|512:320,1,507.5
0,32,93889,6,0,L|512:32,1,507.5
0,0,93889,6,0,L|512:0,1,507.5
256,192,93889,12,0,94369,0:0:0:0:
0,64,93889,6,0,L|512:64,1,507.5
0,160,93889,6,0,L|512:160,1,507.5
0,128,93889,6,0,L|512:128,1,507.5
0,96,93889,6,0,L|512:96,1,507.5
32,64,94129,6,0,L|32:352|32:288,2,280
96,64,94129,6,0,L|96:352|96:288,2,280
160,64,94129,6,0,L|160:352|160:288,2,280
224,64,94129,6,0,L|224:352|224:288,2,280
352,64,94129,6,0,L|352:352|352:288,2,280
416,64,94129,6,0,L|416:352|416:288,2,280
480,64,94129,6,0,L|480:352|480:288,2,280
288,64,94129,6,0,L|288:352|288:288,2,280
0,256,94369,6,0,L|512:256,1,507.5
0,224,94369,6,0,L|512:224,1,507.5
0,192,94369,6,0,L|512:192,1,507.5
0,288,94369,6,0,L|512:288,1,507.5
0,384,94369,6,0,L|512:384,1,507.5
0,352,94369,6,0,L|512:352,1,507.5
0,320,94369,6,0,L|512:320,1,507.5
0,32,94369,6,0,L|512:32,1,507.5
0,0,94369,6,0,L|512:0,1,507.5
256,192,94369,12,0,94849,0:0:0:0:
0,64,94369,6,0,L|512:64,1,507.5
0,160,94369,6,0,L|512:160,1,507.5
0,128,94369,6,0,L|512:128,1,507.5
0,96,94369,6,0,L|512:96,1,507.5
416,64,94609,6,0,L|416:352|416:288,2,280
352,64,94609,6,0,L|352:352|352:288,2,280
288,64,94609,6,0,L|288:352|288:288,2,280
480,64,94609,6,0,L|480:352|480:288,2,280
96,64,94609,6,0,L|96:352|96:288,2,280
32,64,94609,6,0,L|32:352|32:288,2,280
224,64,94609,6,0,L|224:352|224:288,2,280
160,64,94609,6,0,L|160:352|160:288,2,280
256,192,94849,12,0,95329,0:0:0:0:
0,0,94849,6,0,L|512:0,1,507.5
0,32,94849,6,0,L|512:32,1,507.5
0,64,94849,6,0,L|512:64,1,507.5
0,96,94849,6,0,L|512:96,1,507.5
0,128,94849,6,0,L|512:128,1,507.5
0,160,94849,6,0,L|512:160,1,507.5
0,192,94849,6,0,L|512:192,1,507.5
0,224,94849,6,0,L|512:224,1,507.5
0,256,94849,6,0,L|512:256,1,507.5
0,288,94849,6,0,L|512:288,1,507.5
0,320,94849,6,0,L|512:320,1,507.5
0,352,94849,6,0,L|512:352,1,507.5
0,384,94849,6,0,L|512:384,1,507.5
32,64,95089,6,0,L|32:352|32:288,2,280
96,64,95089,6,0,L|96:352|96:288,2,280
160,64,95089,6,0,L|160:352|160:288,2,280
224,64,95089,6,0,L|224:352|224:288,2,280
352,64,95089,6,0,L|352:352|352:288,2,280
416,64,95089,6,0,L|416:352|416:288,2,280
480,64,95089,6,0,L|480:352|480:288,2,280
288,64,95089,6,0,L|288:352|288:288,2,280
256,192,95329,12,0,95809,0:0:0:0:
0,0,95329,6,0,L|512:0,1,507.5
0,32,95329,6,0,L|512:32,1,507.5
0,64,95329,6,0,L|512:64,1,507.5
0,96,95329,6,0,L|512:96,1,507.5
0,128,95329,6,0,L|512:128,1,507.5
0,160,95329,6,0,L|512:160,1,507.5
0,192,95329,6,0,L|512:192,1,507.5
0,224,95329,6,0,L|512:224,1,507.5
0,256,95329,6,0,L|512:256,1,507.5
0,288,95329,6,0,L|512:288,1,507.5
0,320,95329,6,0,L|512:320,1,507.5
0,352,95329,6,0,L|512:352,1,507.5
0,384,95329,6,0,L|512:384,1,507.5
32,64,95569,6,0,L|32:352|32:288,2,280
96,64,95569,6,0,L|96:352|96:288,2,280
160,64,95569,6,0,L|160:352|160:288,2,280
224,64,95569,6,0,L|224:352|224:288,2,280
352,64,95569,6,0,L|352:352|352:288,2,280
416,64,95569,6,0,L|416:352|416:288,2,280
480,64,95569,6,0,L|480:352|480:288,2,280
288,64,95569,6,0,L|288:352|288:288,2,280
256,192,95809,12,0,96289,0:0:0:0:
0,0,95809,6,0,L|512:0,1,507.5
0,32,95809,6,0,L|512:32,1,507.5
0,64,95809,6,0,L|512:64,1,507.5
0,96,95809,6,0,L|512:96,1,507.5
0,128,95809,6,0,L|512:128,1,507.5
0,160,95809,6,0,L|512:160,1,507.5
0,192,95809,6,0,L|512:192,1,507.5
0,224,95809,6,0,L|512:224,1,507.5
0,256,95809,6,0,L|512:256,1,507.5
0,288,95809,6,0,L|512:288,1,507.5
0,320,95809,6,0,L|512:320,1,507.5
0,352,95809,6,0,L|512:352,1,507.5
0,384,95809,6,0,L|512:384,1,507.5
32,64,96049,6,0,L|32:352|32:288,2,280
96,64,96049,6,0,L|96:352|96:288,2,280
160,64,96049,6,0,L|160:352|160:288,2,280
224,64,96049,6,0,L|224:352|224:288,2,280
352,64,96049,6,0,L|352:352|352:288,2,280
416,64,96049,6,0,L|416:352|416:288,2,280
480,64,96049,6,0,L|480:352|480:288,2,280
288,64,96049,6,0,L|288:352|288:288,2,280
256,192,96289,12,0,96769,0:0:0:0:
0,0,96289,6,0,L|512:0,1,507.5
0,32,96289,6,0,L|512:32,1,507.5
0,64,96289,6,0,L|512:64,1,507.5
0,96,96289,6,0,L|512:96,1,507.5
0,128,96289,6,0,L|512:128,1,507.5
0,160,96289,6,0,L|512:160,1,507.5
0,192,96289,6,0,L|512:192,1,507.5
0,224,96289,6,0,L|512:224,1,507.5
0,256,96289,6,0,L|512:256,1,507.5
0,288,96289,6,0,L|512:288,1,507.5
0,320,96289,6,0,L|512:320,1,507.5
0,352,96289,6,0,L|512:352,1,507.5
0,384,96289,6,0,L|512:384,1,507.5
32,64,96529,6,0,L|32:352|32:288,2,280
96,64,96529,6,0,L|96:352|96:288,2,280
160,64,96529,6,0,L|160:352|160:288,2,280
224,64,96529,6,0,L|224:352|224:288,2,280
352,64,96529,6,0,L|352:352|352:288,2,280
416,64,96529,6,0,L|416:352|416:288,2,280
480,64,96529,6,0,L|480:352|480:288,2,280
288,64,96529,6,0,L|288:352|288:288,2,280
256,192,96769,12,0,97249,0:0:0:0:
0,0,96769,6,0,L|512:0,1,507.5
0,32,96769,6,0,L|512:32,1,507.5
0,64,96769,6,0,L|512:64,1,507.5
0,96,96769,6,0,L|512:96,1,507.5
0,128,96769,6,0,L|512:128,1,507.5
0,160,96769,6,0,L|512:160,1,507.5
0,192,96769,6,0,L|512:192,1,507.5
0,224,96769,6,0,L|512:224,1,507.5
0,256,96769,6,0,L|512:256,1,507.5
0,288,96769,6,0,L|512:288,1,507.5
0,320,96769,6,0,L|512:320,1,507.5
0,352,96769,6,0,L|512:352,1,507.5
0,384,96769,6,0,L|512:384,1,507.5
416,64,97009,6,0,L|416:352|416:288,2,280
352,64,97009,6,0,L|352:352|352:288,2,280
288,64,97009,6,0,L|288:352|288:288,2,280
480,64,97009,6,0,L|480:352|480:288,2,280
96,64,97009,6,0,L|96:352|96:288,2,280
32,64,97009,6,0,L|32:352|32:288,2,280
224,64,97009,6,0,L|224:352|224:288,2,280
160,64,97009,6,0,L|160:352|160:288,2,280
256,192,97249,12,0,97729,0:0:0:0:
0,0,97249,6,0,L|512:0,1,507.5
0,32,97249,6,0,L|512:32,1,507.5
0,64,97249,6,0,L|512:64,1,507.5
0,96,97249,6,0,L|512:96,1,507.5
0,128,97249,6,0,L|512:128,1,507.5
0,160,97249,6,0,L|512:160,1,507.5
0,192,97249,6,0,L|512:192,1,507.5
0,224,97249,6,0,L|512:224,1,507.5
0,256,97249,6,0,L|512:256,1,507.5
0,288,97249,6,0,L|512:288,1,507.5
0,320,97249,6,0,L|512:320,1,507.5
0,352,97249,6,0,L|512:352,1,507.5
0,384,97249,6,0,L|512:384,1,507.5
416,64,97489,6,0,L|416:352|416:288,2,280
352,64,97489,6,0,L|352:352|352:288,2,280
288,64,97489,6,0,L|288:352|288:288,2,280
480,64,97489,6,0,L|480:352|480:288,2,280
96,64,97489,6,0,L|96:352|96:288,2,280
32,64,97489,6,0,L|32:352|32:288,2,280
224,64,97489,6,0,L|224:352|224:288,2,280
160,64,97489,6,0,L|160:352|160:288,2,280
256,192,97729,12,0,98209,0:0:0:0:
0,0,97729,6,0,L|512:0,1,507.5
0,32,97729,6,0,L|512:32,1,507.5
0,64,97729,6,0,L|512:64,1,507.5
0,96,97729,6,0,L|512:96,1,507.5
0,128,97729,6,0,L|512:128,1,507.5
0,160,97729,6,0,L|512:160,1,507.5
0,192,97729,6,0,L|512:192,1,507.5
0,224,97729,6,0,L|512:224,1,507.5
0,256,97729,6,0,L|512:256,1,507.5
0,288,97729,6,0,L|512:288,1,507.5
0,320,97729,6,0,L|512:320,1,507.5
0,352,97729,6,0,L|512:352,1,507.5
0,384,97729,6,0,L|512:384,1,507.5
416,64,97969,6,0,L|416:352|416:288,2,280
352,64,97969,6,0,L|352:352|352:288,2,280
288,64,97969,6,0,L|288:352|288:288,2,280
480,64,97969,6,0,L|480:352|480:288,2,280
96,64,97969,6,0,L|96:352|96:288,2,280
32,64,97969,6,0,L|32:352|32:288,2,280
224,64,97969,6,0,L|224:352|224:288,2,280
160,64,97969,6,0,L|160:352|160:288,2,280
0,256,98209,6,0,L|512:256,1,507.5
0,224,98209,6,0,L|512:224,1,507.5
0,192,98209,6,0,L|512:192,1,507.5
0,288,98209,6,0,L|512:288,1,507.5
0,384,98209,6,0,L|512:384,1,507.5
0,352,98209,6,0,L|512:352,1,507.5
0,320,98209,6,0,L|512:320,1,507.5
0,32,98209,6,0,L|512:32,1,507.5
0,0,98209,6,0,L|512:0,1,507.5
256,192,98209,12,0,98689,0:0:0:0:
0,64,98209,6,0,L|512:64,1,507.5
0,160,98209,6,0,L|512:160,1,507.5
0,128,98209,6,0,L|512:128,1,507.5
0,96,98209,6,0,L|512:96,1,507.5
416,64,98449,6,0,L|416:352|416:288,2,280
352,64,98449,6,0,L|352:352|352:288,2,280
288,64,98449,6,0,L|288:352|288:288,2,280
480,64,98449,6,0,L|480:352|480:288,2,280
96,64,98449,6,0,L|96:352|96:288,2,280
32,64,98449,6,0,L|32:352|32:288,2,280
224,64,98449,6,0,L|224:352|224:288,2,280
160,64,98449,6,0,L|160:352|160:288,2,280
0,256,98689,6,0,L|512:256,1,507.5
0,224,98689,6,0,L|512:224,1,507.5
0,192,98689,6,0,L|512:192,1,507.5
0,288,98689,6,0,L|512:288,1,507.5
0,384,98689,6,0,L|512:384,1,507.5
0,352,98689,6,0,L|512:352,1,507.5
0,320,98689,6,0,L|512:320,1,507.5
0,32,98689,6,0,L|512:32,1,507.5
0,0,98689,6,0,L|512:0,1,507.5
256,192,98689,12,0,99169,0:0:0:0:
0,64,98689,6,0,L|512:64,1,507.5
0,160,98689,6,0,L|512:160,1,507.5
0,128,98689,6,0,L|512:128,1,507.5
0,96,98689,6,0,L|512:96,1,507.5
32,64,98929,6,0,L|32:352|32:288,2,280
96,64,98929,6,0,L|96:352|96:288,2,280
160,64,98929,6,0,L|160:352|160:288,2,280
224,64,98929,6,0,L|224:352|224:288,2,280
352,64,98929,6,0,L|352:352|352:288,2,280
416,64,98929,6,0,L|416:352|416:288,2,280
480,64,98929,6,0,L|480:352|480:288,2,280
288,64,98929,6,0,L|288:352|288:288,2,280
256,192,99169,12,0,99649,0:0:0:0:
0,0,99169,6,0,L|512:0,1,507.5
0,32,99169,6,0,L|512:32,1,507.5
0,64,99169,6,0,L|512:64,1,507.5
0,96,99169,6,0,L|512:96,1,507.5
0,128,99169,6,0,L|512:128,1,507.5
0,160,99169,6,0,L|512:160,1,507.5
0,192,99169,6,0,L|512:192,1,507.5
0,224,99169,6,0,L|512:224,1,507.5
0,256,99169,6,0,L|512:256,1,507.5
0,288,99169,6,0,L|512:288,1,507.5
0,320,99169,6,0,L|512:320,1,507.5
0,352,99169,6,0,L|512:352,1,507.5
0,384,99169,6,0,L|512:384,1,507.5
32,64,99409,6,0,L|32:352|32:288,2,280
96,64,99409,6,0,L|96:352|96:288,2,280
160,64,99409,6,0,L|160:352|160:288,2,280
224,64,99409,6,0,L|224:352|224:288,2,280
352,64,99409,6,0,L|352:352|352:288,2,280
416,64,99409,6,0,L|416:352|416:288,2,280
480,64,99409,6,0,L|480:352|480:288,2,280
288,64,99409,6,0,L|288:352|288:288,2,280
0,256,99649,6,0,L|512:256,1,507.5
0,224,99649,6,0,L|512:224,1,507.5
0,192,99649,6,0,L|512:192,1,507.5
0,288,99649,6,0,L|512:288,1,507.5
0,384,99649,6,0,L|512:384,1,507.5
0,352,99649,6,0,L|512:352,1,507.5
0,320,99649,6,0,L|512:320,1,507.5
0,32,99649,6,0,L|512:32,1,507.5
0,0,99649,6,0,L|512:0,1,507.5
256,192,99649,12,0,100129,0:0:0:0:
0,64,99649,6,0,L|512:64,1,507.5
0,160,99649,6,0,L|512:160,1,507.5
0,128,99649,6,0,L|512:128,1,507.5
0,96,99649,6,0,L|512:96,1,507.5
0,288,100129,6,0,L|512:288,1,507.5
0,256,100129,6,0,L|512:256,1,507.5
0,224,100129,6,0,L|512:224,1,507.5
0,320,100129,6,0,L|512:320,1,507.5
256,192,100129,12,0,100609,0:0:0:0:
0,384,100129,6,0,L|512:384,1,507.5
0,352,100129,6,0,L|512:352,1,507.5
0,64,100129,6,0,L|512:64,1,507.5
0,32,100129,6,0,L|512:32,1,507.5
0,0,100129,6,0,L|512:0,1,507.5
0,96,100129,6,0,L|512:96,1,507.5
0,192,100129,6,0,L|512:192,1,507.5
0,160,100129,6,0,L|512:160,1,507.5
0,128,100129,6,0,L|512:128,1,507.5
416,64,100369,6,0,L|416:352|416:288,2,280
352,64,100369,6,0,L|352:352|352:288,2,280
288,64,100369,6,0,L|288:352|288:288,2,280
480,64,100369,6,0,L|480:352|480:288,2,280
96,64,100369,6,0,L|96:352|96:288,2,280
32,64,100369,6,0,L|32:352|32:288,2,280
224,64,100369,6,0,L|224:352|224:288,2,280
160,64,100369,6,0,L|160:352|160:288,2,280
256,192,100609,12,0,101089,0:0:0:0:
0,0,100609,6,0,L|512:0,1,507.5
0,32,100609,6,0,L|512:32,1,507.5
0,64,100609,6,0,L|512:64,1,507.5
0,96,100609,6,0,L|512:96,1,507.5
0,128,100609,6,0,L|512:128,1,507.5
0,160,100609,6,0,L|512:160,1,507.5
0,192,100609,6,0,L|512:192,1,507.5
0,224,100609,6,0,L|512:224,1,507.5
0,256,100609,6,0,L|512:256,1,507.5
0,288,100609,6,0,L|512:288,1,507.5
0,320,100609,6,0,L|512:320,1,507.5
0,352,100609,6,0,L|512:352,1,507.5
0,384,100609,6,0,L|512:384,1,507.5
32,64,100849,6,0,L|32:352|32:288,2,280
96,64,100849,6,0,L|96:352|96:288,2,280
160,64,100849,6,0,L|160:352|160:288,2,280
224,64,100849,6,0,L|224:352|224:288,2,280
352,64,100849,6,0,L|352:352|352:288,2,280
416,64,100849,6,0,L|416:352|416:288,2,280
480,64,100849,6,0,L|480:352|480:288,2,280
288,64,100849,6,0,L|288:352|288:288,2,280
0,256,101089,6,0,L|512:256,1,507.5
0,224,101089,6,0,L|512:224,1,507.5
0,192,101089,6,0,L|512:192,1,507.5
0,288,101089,6,0,L|512:288,1,507.5
0,384,101089,6,0,L|512:384,1,507.5
0,352,101089,6,0,L|512:352,1,507.5
0,320,101089,6,0,L|512:320,1,507.5
0,32,101089,6,0,L|512:32,1,507.5
0,0,101089,6,0,L|512:0,1,507.5
256,192,101089,12,0,101569,0:0:0:0:
0,64,101089,6,0,L|512:64,1,507.5
0,160,101089,6,0,L|512:160,1,507.5
0,128,101089,6,0,L|512:128,1,507.5
0,96,101089,6,0,L|512:96,1,507.5
32,64,101329,6,0,L|32:352|32:288,2,280
96,64,101329,6,0,L|96:352|96:288,2,280
160,64,101329,6,0,L|160:352|160:288,2,280
224,64,101329,6,0,L|224:352|224:288,2,280
352,64,101329,6,0,L|352:352|352:288,2,280
416,64,101329,6,0,L|416:352|416:288,2,280
480,64,101329,6,0,L|480:352|480:288,2,280
288,64,101329,6,0,L|288:352|288:288,2,280
256,192,101569,12,0,102049,0:0:0:0:
0,0,101569,6,0,L|512:0,1,507.5
0,32,101569,6,0,L|512:32,1,507.5
0,64,101569,6,0,L|512:64,1,507.5
0,96,101569,6,0,L|512:96,1,507.5
0,128,101569,6,0,L|512:128,1,507.5
0,160,101569,6,0,L|512:160,1,507.5
0,192,101569,6,0,L|512:192,1,507.5
0,224,101569,6,0,L|512:224,1,507.5
0,256,101569,6,0,L|512:256,1,507.5
0,288,101569,6,0,L|512:288,1,507.5
0,320,101569,6,0,L|512:320,1,507.5
0,352,101569,6,0,L|512:352,1,507.5
0,384,101569,6,0,L|512:384,1,507.5
416,64,101809,6,0,L|416:352|416:288,2,280
352,64,101809,6,0,L|352:352|352:288,2,280
288,64,101809,6,0,L|288:352|288:288,2,280
480,64,101809,6,0,L|480:352|480:288,2,280
96,64,101809,6,0,L|96:352|96:288,2,280
32,64,101809,6,0,L|32:352|32:288,2,280
224,64,101809,6,0,L|224:352|224:288,2,280
160,64,101809,6,0,L|160:352|160:288,2,280
256,192,102049,12,0,102529,0:0:0:0:
0,0,102049,6,0,L|512:0,1,507.5
0,32,102049,6,0,L|512:32,1,507.5
0,64,102049,6,0,L|512:64,1,507.5
0,96,102049,6,0,L|512:96,1,507.5
0,128,102049,6,0,L|512:128,1,507.5
0,160,102049,6,0,L|512:160,1,507.5
0,192,102049,6,0,L|512:192,1,507.5
0,224,102049,6,0,L|512:224,1,507.5
0,256,102049,6,0,L|512:256,1,507.5
0,288,102049,6,0,L|512:288,1,507.5
0,320,102049,6,0,L|512:320,1,507.5
0,352,102049,6,0,L|512:352,1,507.5
0,384,102049,6,0,L|512:384,1,507.5
32,64,102289,6,0,L|32:352|32:288,2,280
96,64,102289,6,0,L|96:352|96:288,2,280
160,64,102289,6,0,L|160:352|160:288,2,280
224,64,102289,6,0,L|224:352|224:288,2,280
352,64,102289,6,0,L|352:352|352:288,2,280
416,64,102289,6,0,L|416:352|416:288,2,280
480,64,102289,6,0,L|480:352|480:288,2,280
288,64,102289,6,0,L|288:352|288:288,2,280
0,256,102529,6,0,L|512:256,1,507.5
0,224,102529,6,0,L|512:224,1,507.5
0,192,102529,6,0,L|512:192,1,507.5
0,288,102529,6,0,L|512:288,1,507.5
0,384,102529,6,0,L|512:384,1,507.5
0,352,102529,6,0,L|512:352,1,507.5
0,320,102529,6,0,L|512:320,1,507.5
0,32,102529,6,0,L|512:32,1,507.5
0,0,102529,6,0,L|512:0,1,507.5
256,192,102529,12,0,103009,0:0:0:0:
0,64,102529,6,0,L|512:64,1,507.5
0,160,102529,6,0,L|512:160,1,507.5
0,128,102529,6,0,L|512:128,1,507.5
0,96,102529,6,0,L|512:96,1,507.5
416,64,102769,6,0,L|416:352|416:288,2,280
352,64,102769,6,0,L|352:352|352:288,2,280
288,64,102769,6,0,L|288:352|288:288,2,280
480,64,102769,6,0,L|480:352|480:288,2,280
96,64,102769,6,0,L|96:352|96:288,2,280
32,64,102769,6,0,L|32:352|32:288,2,280
224,64,102769,6,0,L|224:352|224:288,2,280
160,64,102769,6,0,L|160:352|160:288,2,280
0,256,103009,6,0,L|512:256,1,507.5
0,224,103009,6,0,L|512:224,1,507.5
0,192,103009,6,0,L|512:192,1,507.5
0,288,103009,6,0,L|512:288,1,507.5
0,384,103009,6,0,L|512:384,1,507.5
0,352,103009,6,0,L|512:352,1,507.5
0,320,103009,6,0,L|512:320,1,507.5
0,32,103009,6,0,L|512:32,1,507.5
0,0,103009,6,0,L|512:0,1,507.5
256,192,103009,12,0,103489,0:0:0:0:
0,64,103009,6,0,L|512:64,1,507.5
0,160,103009,6,0,L|512:160,1,507.5
0,128,103009,6,0,L|512:128,1,507.5
0,96,103009,6,0,L|512:96,1,507.5
416,64,103249,6,0,L|416:352|416:288,2,280
352,64,103249,6,0,L|352:352|352:288,2,280
288,64,103249,6,0,L|288:352|288:288,2,280
480,64,103249,6,0,L|480:352|480:288,2,280
96,64,103249,6,0,L|96:352|96:288,2,280
32,64,103249,6,0,L|32:352|32:288,2,280
224,64,103249,6,0,L|224:352|224:288,2,280
160,64,103249,6,0,L|160:352|160:288,2,280
0,256,103489,6,0,L|512:256,1,507.5
0,224,103489,6,0,L|512:224,1,507.5
0,192,103489,6,0,L|512:192,1,507.5
0,288,103489,6,0,L|512:288,1,507.5
0,384,103489,6,0,L|512:384,1,507.5
0,352,103489,6,0,L|512:352,1,507.5
0,320,103489,6,0,L|512:320,1,507.5
0,32,103489,6,0,L|512:32,1,507.5
0,0,103489,6,0,L|512:0,1,507.5
256,192,103489,12,0,103969,0:0:0:0:
0,64,103489,6,0,L|512:64,1,507.5
0,160,103489,6,0,L|512:160,1,507.5
0,128,103489,6,0,L|512:128,1,507.5
0,96,103489,6,0,L|512:96,1,507.5
416,64,103729,6,0,L|416:352|416:288,2,280
352,64,103729,6,0,L|352:352|352:288,2,280
288,64,103729,6,0,L|288:352|288:288,2,280
480,64,103729,6,0,L|480:352|480:288,2,280
96,64,103729,6,0,L|96:352|96:288,2,280
32,64,103729,6,0,L|32:352|32:288,2,280
224,64,103729,6,0,L|224:352|224:288,2,280
160,64,103729,6,0,L|160:352|160:288,2,280
0,256,103969,6,0,L|512:256,1,507.5
0,224,103969,6,0,L|512:224,1,507.5
0,192,103969,6,0,L|512:192,1,507.5
0,288,103969,6,0,L|512:288,1,507.5
0,384,103969,6,0,L|512:384,1,507.5
0,352,103969,6,0,L|512:352,1,507.5
0,320,103969,6,0,L|512:320,1,507.5
0,32,103969,6,0,L|512:32,1,507.5
0,0,103969,6,0,L|512:0,1,507.5
256,192,103969,12,0,104449,0:0:0:0:
0,64,103969,6,0,L|512:64,1,507.5
0,160,103969,6,0,L|512:160,1,507.5
0,128,103969,6,0,L|512:128,1,507.5
0,96,103969,6,0,L|512:96,1,507.5
416,64,104209,6,0,L|416:352|416:288,2,280
352,64,104209,6,0,L|352:352|352:288,2,280
288,64,104209,6,0,L|288:352|288:288,2,280
480,64,104209,6,0,L|480:352|480:288,2,280
96,64,104209,6,0,L|96:352|96:288,2,280
32,64,104209,6,0,L|32:352|32:288,2,280
224,64,104209,6,0,L|224:352|224:288,2,280
160,64,104209,6,0,L|160:352|160:288,2,280
0,256,104449,6,0,L|512:256,1,507.5
0,224,104449,6,0,L|512:224,1,507.5
0,192,104449,6,0,L|512:192,1,507.5
0,288,104449,6,0,L|512:288,1,507.5
0,384,104449,6,0,L|512:384,1,507.5
0,352,104449,6,0,L|512:352,1,507.5
0,320,104449,6,0,L|512:320,1,507.5
0,32,104449,6,0,L|512:32,1,507.5
0,0,104449,6,0,L|512:0,1,507.5
256,192,104449,12,0,104929,0:0:0:0:
0,64,104449,6,0,L|512:64,1,507.5
0,160,104449,6,0,L|512:160,1,507.5
0,128,104449,6,0,L|512:128,1,507.5
0,96,104449,6,0,L|512:96,1,507.5
32,64,104689,6,0,L|32:352|32:288,2,280
96,64,104689,6,0,L|96:352|96:288,2,280
160,64,104689,6,0,L|160:352|160:288,2,280
224,64,104689,6,0,L|224:352|224:288,2,280
352,64,104689,6,0,L|352:352|352:288,2,280
416,64,104689,6,0,L|416:352|416:288,2,280
480,64,104689,6,0,L|480:352|480:288,2,280
288,64,104689,6,0,L|288:352|288:288,2,280
0,256,104929,6,0,L|512:256,1,507.5
0,224,104929,6,0,L|512:224,1,507.5
0,192,104929,6,0,L|512:192,1,507.5
0,288,104929,6,0,L|512:288,1,507.5
0,384,104929,6,0,L|512:384,1,507.5
0,352,104929,6,0,L|512:352,1,507.5
0,320,104929,6,0,L|512:320,1,507.5
0,32,104929,6,0,L|512:32,1,507.5
0,0,104929,6,0,L|512:0,1,507.5
256,192,104929,12,0,105409,0:0:0:0:
0,64,104929,6,0,L|512:64,1,507.5
0,160,104929,6,0,L|512:160,1,507.5
0,128,104929,6,0,L|512:128,1,507.5
0,96,104929,6,0,L|512:96,1,507.5
32,64,105169,6,0,L|32:352|32:288,2,280
96,64,105169,6,0,L|96:352|96:288,2,280
160,64,105169,6,0,L|160:352|160:288,2,280
224,64,105169,6,0,L|224:352|224:288,2,280
352,64,105169,6,0,L|352:352|352:288,2,280
416,64,105169,6,0,L|416:352|416:288,2,280
480,64,105169,6,0,L|480:352|480:288,2,280
288,64,105169,6,0,L|288:352|288:288,2,280
0,256,105409,6,0,L|512:256,1,507.5
0,224,105409,6,0,L|512:224,1,507.5
0,192,105409,6,0,L|512:192,1,507.5
0,288,105409,6,0,L|512:288,1,507.5
0,384,105409,6,0,L|512:384,1,507.5
0,352,105409,6,0,L|512:352,1,507.5
0,320,105409,6,0,L|512:320,1,507.5
0,32,105409,6,0,L|512:32,1,507.5
0,0,105409,6,0,L|512:0,1,507.5
256,192,105409,12,0,105889,0:0:0:0:
0,64,105409,6,0,L|512:64,1,507.5
0,160,105409,6,0,L|512:160,1,507.5
0,128,105409,6,0,L|512:128,1,507.5
0,96,105409,6,0,L|512:96,1,507.5
32,64,105649,6,0,L|32:352|32:288,2,280
96,64,105649,6,0,L|96:352|96:288,2,280
160,64,105649,6,0,L|160:352|160:288,2,280
224,64,105649,6,0,L|224:352|224:288,2,280
352,64,105649,6,0,L|352:352|352:288,2,280
416,64,105649,6,0,L|416:352|416:288,2,280
480,64,105649,6,0,L|480:352|480:288,2,280
288,64,105649,6,0,L|288:352|288:288,2,280
256,192,105889,12,0,106369,0:0:0:0:
0,0,105889,6,0,L|512:0,1,507.5
0,32,105889,6,0,L|512:32,1,507.5
0,64,105889,6,0,L|512:64,1,507.5
0,96,105889,6,0,L|512:96,1,507.5
0,128,105889,6,0,L|512:128,1,507.5
0,160,105889,6,0,L|512:160,1,507.5
0,192,105889,6,0,L|512:192,1,507.5
0,224,105889,6,0,L|512:224,1,507.5
0,256,105889,6,0,L|512:256,1,507.5
0,288,105889,6,0,L|512:288,1,507.5
0,320,105889,6,0,L|512:320,1,507.5
0,352,105889,6,0,L|512:352,1,507.5
0,384,105889,6,0,L|512:384,1,507.5
32,64,106129,6,0,L|32:352|32:288,2,280
96,64,106129,6,0,L|96:352|96:288,2,280
160,64,106129,6,0,L|160:352|160:288,2,280
224,64,106129,6,0,L|224:352|224:288,2,280
352,64,106129,6,0,L|352:352|352:288,2,280
416,64,106129,6,0,L|416:352|416:288,2,280
480,64,106129,6,0,L|480:352|480:288,2,280
288,64,106129,6,0,L|288:352|288:288,2,280
256,192,106369,12,0,106849,0:0:0:0:
0,0,106369,6,0,L|512:0,1,507.5
0,32,106369,6,0,L|512:32,1,507.5
0,64,106369,6,0,L|512:64,1,507.5
0,96,106369,6,0,L|512:96,1,507.5
0,128,106369,6,0,L|512:128,1,507.5
0,160,106369,6,0,L|512:160,1,507.5
0,192,106369,6,0,L|512:192,1,507.5
0,224,106369,6,0,L|512:224,1,507.5
0,256,106369,6,0,L|512:256,1,507.5
0,288,106369,6,0,L|512:288,1,507.5
0,320,106369,6,0,L|512:320,1,507.5
0,352,106369,6,0,L|512:352,1,507.5
0,384,106369,6,0,L|512:384,1,507.5
416,64,106609,6,0,L|416:352|416:288,2,280
352,64,106609,6,0,L|352:352|352:288,2,280
288,64,106609,6,0,L|288:352|288:288,2,280
480,64,106609,6,0,L|480:352|480:288,2,280
96,64,106609,6,0,L|96:352|96:288,2,280
32,64,106609,6,0,L|32:352|32:288,2,280
224,64,106609,6,0,L|224:352|224:288,2,280
160,64,106609,6,0,L|160:352|160:288,2,280
0,256,106849,6,0,L|512:256,1,507.5
0,224,106849,6,0,L|512:224,1,507.5
0,192,106849,6,0,L|512:192,1,507.5
0,288,106849,6,0,L|512:288,1,507.5
0,384,106849,6,0,L|512:384,1,507.5
0,352,106849,6,0,L|512:352,1,507.5
0,320,106849,6,0,L|512:320,1,507.5
0,32,106849,6,0,L|512:32,1,507.5
0,0,106849,6,0,L|512:0,1,507.5
256,192,106849,12,0,107329,0:0:0:0:
0,64,106849,6,0,L|512:64,1,507.5
0,160,106849,6,0,L|512:160,1,507.5
0,128,106849,6,0,L|512:128,1,507.5
0,96,106849,6,0,L|512:96,1,507.5
416,64,107089,6,0,L|416:352|416:288,2,280
352,64,107089,6,0,L|352:352|352:288,2,280
288,64,107089,6,0,L|288:352|288:288,2,280
480,64,107089,6,0,L|480:352|480:288,2,280
96,64,107089,6,0,L|96:352|96:288,2,280
32,64,107089,6,0,L|32:352|32:288,2,280
224,64,107089,6,0,L|224:352|224:288,2,280
160,64,107089,6,0,L|160:352|160:288,2,280
256,192,107329,12,0,107809,0:0:0:0:
0,0,107329,6,0,L|512:0,1,507.5
0,32,107329,6,0,L|512:32,1,507.5
0,64,107329,6,0,L|512:64,1,507.5
0,96,107329,6,0,L|512:96,1,507.5
0,128,107329,6,0,L|512:128,1,507.5
0,160,107329,6,0,L|512:160,1,507.5
0,192,107329,6,0,L|512:192,1,507.5
0,224,107329,6,0,L|512:224,1,507.5
0,256,107329,6,0,L|512:256,1,507.5
0,288,107329,6,0,L|512:288,1,507.5
0,320,107329,6,0,L|512:320,1,507.5
0,352,107329,6,0,L|512:352,1,507.5
0,384,107329,6,0,L|512:384,1,507.5
0,0,107809,6,0,L|512:0,1,507.5
0,32,107809,6,0,L|512:32,1,507.5
0,64,107809,6,0,L|512:64,1,507.5
0,96,107809,6,0,L|512:96,1,507.5
0,128,107809,6,0,L|512:128,1,507.5
0,160,107809,6,0,L|512:160,1,507.5
0,192,107809,6,0,L|512:192,1,507.5
0,224,107809,6,0,L|512:224,1,507.5
0,256,107809,6,0,L|512:256,1,507.5
0,288,107809,6,0,L|512:288,1,507.5
0,320,107809,6,0,L|512:320,1,507.5
0,352,107809,6,0,L|512:352,1,507.5
0,384,107809,6,0,L|512:384,1,507.5
256,192,107809,12,0,108289,0:0:0:0:
32,64,108049,6,0,L|32:352|32:288,2,280
96,64,108049,6,0,L|96:352|96:288,2,280
160,64,108049,6,0,L|160:352|160:288,2,280
224,64,108049,6,0,L|224:352|224:288,2,280
352,64,108049,6,0,L|352:352|352:288,2,280
416,64,108049,6,0,L|416:352|416:288,2,280
480,64,108049,6,0,L|480:352|480:288,2,280
288,64,108049,6,0,L|288:352|288:288,2,280
256,192,108289,12,0,108769,0:0:0:0:
0,0,108289,6,0,L|512:0,1,507.5
0,32,108289,6,0,L|512:32,1,507.5
0,64,108289,6,0,L|512:64,1,507.5
0,96,108289,6,0,L|512:96,1,507.5
0,128,108289,6,0,L|512:128,1,507.5
0,160,108289,6,0,L|512:160,1,507.5
0,192,108289,6,0,L|512:192,1,507.5
0,224,108289,6,0,L|512:224,1,507.5
0,256,108289,6,0,L|512:256,1,507.5
0,288,108289,6,0,L|512:288,1,507.5
0,320,108289,6,0,L|512:320,1,507.5
0,352,108289,6,0,L|512:352,1,507.5
0,384,108289,6,0,L|512:384,1,507.5
416,64,108529,6,0,L|416:352|416:288,2,280
352,64,108529,6,0,L|352:352|352:288,2,280
288,64,108529,6,0,L|288:352|288:288,2,280
480,64,108529,6,0,L|480:352|480:288,2,280
96,64,108529,6,0,L|96:352|96:288,2,280
32,64,108529,6,0,L|32:352|32:288,2,280
224,64,108529,6,0,L|224:352|224:288,2,280
160,64,108529,6,0,L|160:352|160:288,2,280
0,256,108769,6,0,L|512:256,1,507.5
0,224,108769,6,0,L|512:224,1,507.5
0,192,108769,6,0,L|512:192,1,507.5
0,288,108769,6,0,L|512:288,1,507.5
0,384,108769,6,0,L|512:384,1,507.5
0,352,108769,6,0,L|512:352,1,507.5
0,320,108769,6,0,L|512:320,1,507.5
0,32,108769,6,0,L|512:32,1,507.5
0,0,108769,6,0,L|512:0,1,507.5
256,192,108769,12,0,109249,0:0:0:0:
0,64,108769,6,0,L|512:64,1,507.5
0,160,108769,6,0,L|512:160,1,507.5
0,128,108769,6,0,L|512:128,1,507.5
0,96,108769,6,0,L|512:96,1,507.5
32,64,109009,6,0,L|32:352|32:288,2,280
96,64,109009,6,0,L|96:352|96:288,2,280
160,64,109009,6,0,L|160:352|160:288,2,280
224,64,109009,6,0,L|224:352|224:288,2,280
352,64,109009,6,0,L|352:352|352:288,2,280
416,64,109009,6,0,L|416:352|416:288,2,280
480,64,109009,6,0,L|480:352|480:288,2,280
288,64,109009,6,0,L|288:352|288:288,2,280
256,192,109249,12,0,109729,0:0:0:0:
0,0,109249,6,0,L|512:0,1,507.5
0,32,109249,6,0,L|512:32,1,507.5
0,64,109249,6,0,L|512:64,1,507.5
0,96,109249,6,0,L|512:96,1,507.5
0,128,109249,6,0,L|512:128,1,507.5
0,160,109249,6,0,L|512:160,1,507.5
0,192,109249,6,0,L|512:192,1,507.5
0,224,109249,6,0,L|512:224,1,507.5
0,256,109249,6,0,L|512:256,1,507.5
0,288,109249,6,0,L|512:288,1,507.5
0,320,109249,6,0,L|512:320,1,507.5
0,352,109249,6,0,L|512:352,1,507.5
0,384,109249,6,0,L|512:384,1,507.5
416,64,109489,6,0,L|416:352|416:288,2,280
352,64,109489,6,0,L|352:352|352:288,2,280
288,64,109489,6,0,L|288:352|288:288,2,280
480,64,109489,6,0,L|480:352|480:288,2,280
96,64,109489,6,0,L|96:352|96:288,2,280
32,64,109489,6,0,L|32:352|32:288,2,280
224,64,109489,6,0,L|224:352|224:288,2,280
160,64,109489,6,0,L|160:352|160:288,2,280
0,256,109729,6,0,L|512:256,1,507.5
0,224,109729,6,0,L|512:224,1,507.5
0,192,109729,6,0,L|512:192,1,507.5
0,288,109729,6,0,L|512:288,1,507.5
0,384,109729,6,0,L|512:384,1,507.5
0,352,109729,6,0,L|512:352,1,507.5
0,320,109729,6,0,L|512:320,1,507.5
0,32,109729,6,0,L|512:32,1,507.5
0,0,109729,6,0,L|512:0,1,507.5
256,192,109729,12,0,110209,0:0:0:0:
0,64,109729,6,0,L|512:64,1,507.5
0,160,109729,6,0,L|512:160,1,507.5
0,128,109729,6,0,L|512:128,1,507.5
0,96,109729,6,0,L|512:96,1,507.5
32,64,109969,6,0,L|32:352|32:288,2,280
96,64,109969,6,0,L|96:352|96:288,2,280
160,64,109969,6,0,L|160:352|160:288,2,280
224,64,109969,6,0,L|224:352|224:288,2,280
352,64,109969,6,0,L|352:352|352:288,2,280
416,64,109969,6,0,L|416:352|416:288,2,280
480,64,109969,6,0,L|480:352|480:288,2,280
288,64,109969,6,0,L|288:352|288:288,2,280
256,192,110209,12,0,110689,0:0:0:0:
0,0,110209,6,0,L|512:0,1,507.5
0,32,110209,6,0,L|512:32,1,507.5
0,64,110209,6,0,L|512:64,1,507.5
0,96,110209,6,0,L|512:96,1,507.5
0,128,110209,6,0,L|512:128,1,507.5
0,160,110209,6,0,L|512:160,1,507.5
0,192,110209,6,0,L|512:192,1,507.5
0,224,110209,6,0,L|512:224,1,507.5
0,256,110209,6,0,L|512:256,1,507.5
0,288,110209,6,0,L|512:288,1,507.5
0,320,110209,6,0,L|512:320,1,507.5
0,352,110209,6,0,L|512:352,1,507.5
0,384,110209,6,0,L|512:384,1,507.5
416,64,110449,6,0,L|416:352|416:288,2,280
352,64,110449,6,0,L|352:352|352:288,2,280
288,64,110449,6,0,L|288:352|288:288,2,280
480,64,110449,6,0,L|480:352|480:288,2,280
96,64,110449,6,0,L|96:352|96:288,2,280
32,64,110449,6,0,L|32:352|32:288,2,280
224,64,110449,6,0,L|224:352|224:288,2,280
160,64,110449,6,0,L|160:352|160:288,2,280
0,256,110689,6,0,L|512:256,1,507.5
0,224,110689,6,0,L|512:224,1,507.5
0,192,110689,6,0,L|512:192,1,507.5
0,288,110689,6,0,L|512:288,1,507.5
0,384,110689,6,0,L|512:384,1,507.5
0,352,110689,6,0,L|512:352,1,507.5
0,320,110689,6,0,L|512:320,1,507.5
0,32,110689,6,0,L|512:32,1,507.5
0,0,110689,6,0,L|512:0,1,507.5
256,192,110689,12,0,111169,0:0:0:0:
0,64,110689,6,0,L|512:64,1,507.5
0,160,110689,6,0,L|512:160,1,507.5
0,128,110689,6,0,L|512:128,1,507.5
0,96,110689,6,0,L|512:96,1,507.5
32,64,110929,6,0,L|32:352|32:288,2,280
96,64,110929,6,0,L|96:352|96:288,2,280
160,64,110929,6,0,L|160:352|160:288,2,280
224,64,110929,6,0,L|224:352|224:288,2,280
352,64,110929,6,0,L|352:352|352:288,2,280
416,64,110929,6,0,L|416:352|416:288,2,280
480,64,110929,6,0,L|480:352|480:288,2,280
288,64,110929,6,0,L|288:352|288:288,2,280
0,256,111169,6,0,L|512:256,1,507.5
0,224,111169,6,0,L|512:224,1,507.5
0,192,111169,6,0,L|512:192,1,507.5
0,288,111169,6,0,L|512:288,1,507.5
0,384,111169,6,0,L|512:384,1,507.5
0,352,111169,6,0,L|512:352,1,507.5
0,320,111169,6,0,L|512:320,1,507.5
0,32,111169,6,0,L|512:32,1,507.5
0,0,111169,6,0,L|512:0,1,507.5
256,192,111169,12,0,111649,0:0:0:0:
0,64,111169,6,0,L|512:64,1,507.5
0,160,111169,6,0,L|512:160,1,507.5
0,128,111169,6,0,L|512:128,1,507.5
0,96,111169,6,0,L|512:96,1,507.5
416,64,111409,6,0,L|416:352|416:288,2,280
352,64,111409,6,0,L|352:352|352:288,2,280
288,64,111409,6,0,L|288:352|288:288,2,280
480,64,111409,6,0,L|480:352|480:288,2,280
96,64,111409,6,0,L|96:352|96:288,2,280
32,64,111409,6,0,L|32:352|32:288,2,280
224,64,111409,6,0,L|224:352|224:288,2,280
160,64,111409,6,0,L|160:352|160:288,2,280
256,192,111649,12,0,112129,0:0:0:0:
0,0,111649,6,0,L|512:0,1,507.5
0,32,111649,6,0,L|512:32,1,507.5
0,64,111649,6,0,L|512:64,1,507.5
0,96,111649,6,0,L|512:96,1,507.5
0,128,111649,6,0,L|512:128,1,507.5
0,160,111649,6,0,L|512:160,1,507.5
0,192,111649,6,0,L|512:192,1,507.5
0,224,111649,6,0,L|512:224,1,507.5
0,256,111649,6,0,L|512:256,1,507.5
0,288,111649,6,0,L|512:288,1,507.5
0,320,111649,6,0,L|512:320,1,507.5
0,352,111649,6,0,L|512:352,1,507.5
0,384,111649,6,0,L|512:384,1,507.5
32,64,111889,6,0,L|32:352|32:288,2,280
96,64,111889,6,0,L|96:352|96:288,2,280
160,64,111889,6,0,L|160:352|160:288,2,280
224,64,111889,6,0,L|224:352|224:288,2,280
352,64,111889,6,0,L|352:352|352:288,2,280
416,64,111889,6,0,L|416:352|416:288,2,280
480,64,111889,6,0,L|480:352|480:288,2,280
288,64,111889,6,0,L|288:352|288:288,2,280
0,256,112129,6,0,L|512:256,1,507.5
0,224,112129,6,0,L|512:224,1,507.5
0,192,112129,6,0,L|512:192,1,507.5
0,288,112129,6,0,L|512:288,1,507.5
0,384,112129,6,0,L|512:384,1,507.5
0,352,112129,6,0,L|512:352,1,507.5
0,320,112129,6,0,L|512:320,1,507.5
0,32,112129,6,0,L|512:32,1,507.5
0,0,112129,6,0,L|512:0,1,507.5
256,192,112129,12,0,112609,0:0:0:0:
0,64,112129,6,0,L|512:64,1,507.5
0,160,112129,6,0,L|512:160,1,507.5
0,128,112129,6,0,L|512:128,1,507.5
0,96,112129,6,0,L|512:96,1,507.5
416,64,112369,6,0,L|416:352|416:288,2,280
352,64,112369,6,0,L|352:352|352:288,2,280
288,64,112369,6,0,L|288:352|288:288,2,280
480,64,112369,6,0,L|480:352|480:288,2,280
96,64,112369,6,0,L|96:352|96:288,2,280
32,64,112369,6,0,L|32:352|32:288,2,280
224,64,112369,6,0,L|224:352|224:288,2,280
160,64,112369,6,0,L|160:352|160:288,2,280
256,192,112609,12,0,113089,0:0:0:0:
0,0,112609,6,0,L|512:0,1,507.5
0,32,112609,6,0,L|512:32,1,507.5
0,64,112609,6,0,L|512:64,1,507.5
0,96,112609,6,0,L|512:96,1,507.5
0,128,112609,6,0,L|512:128,1,507.5
0,160,112609,6,0,L|512:160,1,507.5
0,192,112609,6,0,L|512:192,1,507.5
0,224,112609,6,0,L|512:224,1,507.5
0,256,112609,6,0,L|512:256,1,507.5
0,288,112609,6,0,L|512:288,1,507.5
0,320,112609,6,0,L|512:320,1,507.5
0,352,112609,6,0,L|512:352,1,507.5
0,384,112609,6,0,L|512:384,1,507.5
32,64,112849,6,0,L|32:352|32:288,2,280
96,64,112849,6,0,L|96:352|96:288,2,280
160,64,112849,6,0,L|160:352|160:288,2,280
224,64,112849,6,0,L|224:352|224:288,2,280
352,64,112849,6,0,L|352:352|352:288,2,280
416,64,112849,6,0,L|416:352|416:288,2,280
480,64,112849,6,0,L|480:352|480:288,2,280
288,64,112849,6,0,L|288:352|288:288,2,280
0,256,113089,6,0,L|512:256,1,507.5
0,224,113089,6,0,L|512:224,1,507.5
0,192,113089,6,0,L|512:192,1,507.5
0,288,113089,6,0,L|512:288,1,507.5
0,384,113089,6,0,L|512:384,1,507.5
0,352,113089,6,0,L|512:352,1,507.5
0,320,113089,6,0,L|512:320,1,507.5
0,32,113089,6,0,L|512:32,1,507.5
0,0,113089,6,0,L|512:0,1,507.5
256,192,113089,12,0,113569,0:0:0:0:
0,64,113089,6,0,L|512:64,1,507.5
0,160,113089,6,0,L|512:160,1,507.5
0,128,113089,6,0,L|512:128,1,507.5
0,96,113089,6,0,L|512:96,1,507.5
416,64,113329,6,0,L|416:352|416:288,2,280
352,64,113329,6,0,L|352:352|352:288,2,280
288,64,113329,6,0,L|288:352|288:288,2,280
480,64,113329,6,0,L|480:352|480:288,2,280
96,64,113329,6,0,L|96:352|96:288,2,280
32,64,113329,6,0,L|32:352|32:288,2,280
224,64,113329,6,0,L|224:352|224:288,2,280
160,64,113329,6,0,L|160:352|160:288,2,280
256,192,113569,12,0,114049,0:0:0:0:
0,0,113569,6,0,L|512:0,1,507.5
0,32,113569,6,0,L|512:32,1,507.5
0,64,113569,6,0,L|512:64,1,507.5
0,96,113569,6,0,L|512:96,1,507.5
0,128,113569,6,0,L|512:128,1,507.5
0,160,113569,6,0,L|512:160,1,507.5
0,192,113569,6,0,L|512:192,1,507.5
0,224,113569,6,0,L|512:224,1,507.5
0,256,113569,6,0,L|512:256,1,507.5
0,288,113569,6,0,L|512:288,1,507.5
0,320,113569,6,0,L|512:320,1,507.5
0,352,113569,6,0,L|512:352,1,507.5
0,384,113569,6,0,L|512:384,1,507.5
32,64,113809,6,0,L|32:352|32:288,2,280
96,64,113809,6,0,L|96:352|96:288,2,280
160,64,113809,6,0,L|160:352|160:288,2,280
224,64,113809,6,0,L|224:352|224:288,2,280
352,64,113809,6,0,L|352:352|352:288,2,280
416,64,113809,6,0,L|416:352|416:288,2,280
480,64,113809,6,0,L|480:352|480:288,2,280
288,64,113809,6,0,L|288:352|288:288,2,280
0,256,114049,6,0,L|512:256,1,507.5
0,224,114049,6,0,L|512:224,1,507.5
0,192,114049,6,0,L|512:192,1,507.5
0,288,114049,6,0,L|512:288,1,507.5
0,384,114049,6,0,L|512:384,1,507.5
0,352,114049,6,0,L|512:352,1,507.5
0,320,114049,6,0,L|512:320,1,507.5
0,32,114049,6,0,L|512:32,1,507.5
0,0,114049,6,0,L|512:0,1,507.5
256,192,114049,12,0,114529,0:0:0:0:
0,64,114049,6,0,L|512:64,1,507.5
0,160,114049,6,0,L|512:160,1,507.5
0,128,114049,6,0,L|512:128,1,507.5
0,96,114049,6,0,L|512:96,1,507.5
416,64,114289,6,0,L|416:352|416:288,2,280
352,64,114289,6,0,L|352:352|352:288,2,280
288,64,114289,6,0,L|288:352|288:288,2,280
480,64,114289,6,0,L|480:352|480:288,2,280
96,64,114289,6,0,L|96:352|96:288,2,280
32,64,114289,6,0,L|32:352|32:288,2,280
224,64,114289,6,0,L|224:352|224:288,2,280
160,64,114289,6,0,L|160:352|160:288,2,280
0,256,114529,6,0,L|512:256,1,507.5
0,224,114529,6,0,L|512:224,1,507.5
0,192,114529,6,0,L|512:192,1,507.5
0,288,114529,6,0,L|512:288,1,507.5
0,384,114529,6,0,L|512:384,1,507.5
0,352,114529,6,0,L|512:352,1,507.5
0,320,114529,6,0,L|512:320,1,507.5
0,32,114529,6,0,L|512:32,1,507.5
0,0,114529,6,0,L|512:0,1,507.5
256,192,114529,12,0,115009,0:0:0:0:
0,64,114529,6,0,L|512:64,1,507.5
0,160,114529,6,0,L|512:160,1,507.5
0,128,114529,6,0,L|512:128,1,507.5
0,96,114529,6,0,L|512:96,1,507.5
32,64,114769,6,0,L|32:352|32:288,2,280
96,64,114769,6,0,L|96:352|96:288,2,280
160,64,114769,6,0,L|160:352|160:288,2,280
224,64,114769,6,0,L|224:352|224:288,2,280
352,64,114769,6,0,L|352:352|352:288,2,280
416,64,114769,6,0,L|416:352|416:288,2,280
480,64,114769,6,0,L|480:352|480:288,2,280
288,64,114769,6,0,L|288:352|288:288,2,280
256,192,115009,12,0,115489,0:0:0:0:
0,0,115009,6,0,L|512:0,1,507.5
0,32,115009,6,0,L|512:32,1,507.5
0,64,115009,6,0,L|512:64,1,507.5
0,96,115009,6,0,L|512:96,1,507.5
0,128,115009,6,0,L|512:128,1,507.5
0,160,115009,6,0,L|512:160,1,507.5
0,192,115009,6,0,L|512:192,1,507.5
0,224,115009,6,0,L|512:224,1,507.5
0,256,115009,6,0,L|512:256,1,507.5
0,288,115009,6,0,L|512:288,1,507.5
0,320,115009,6,0,L|512:320,1,507.5
0,352,115009,6,0,L|512:352,1,507.5
0,384,115009,6,0,L|512:384,1,507.5
0,288,115489,6,0,L|512:288,1,507.5
0,256,115489,6,0,L|512:256,1,507.5
0,224,115489,6,0,L|512:224,1,507.5
0,320,115489,6,0,L|512:320,1,507.5
256,192,115489,12,0,115969,0:0:0:0:
0,384,115489,6,0,L|512:384,1,507.5
0,352,115489,6,0,L|512:352,1,507.5
0,64,115489,6,0,L|512:64,1,507.5
0,32,115489,6,0,L|512:32,1,507.5
0,0,115489,6,0,L|512:0,1,507.5
0,96,115489,6,0,L|512:96,1,507.5
0,192,115489,6,0,L|512:192,1,507.5
0,160,115489,6,0,L|512:160,1,507.5
0,128,115489,6,0,L|512:128,1,507.5
416,64,115729,6,0,L|416:352|416:288,2,280
352,64,115729,6,0,L|352:352|352:288,2,280
288,64,115729,6,0,L|288:352|288:288,2,280
480,64,115729,6,0,L|480:352|480:288,2,280
96,64,115729,6,0,L|96:352|96:288,2,280
32,64,115729,6,0,L|32:352|32:288,2,280
224,64,115729,6,0,L|224:352|224:288,2,280
160,64,115729,6,0,L|160:352|160:288,2,280
256,192,115969,12,0,116449,0:0:0:0:
0,0,115969,6,0,L|512:0,1,507.5
0,32,115969,6,0,L|512:32,1,507.5
0,64,115969,6,0,L|512:64,1,507.5
0,96,115969,6,0,L|512:96,1,507.5
0,128,115969,6,0,L|512:128,1,507.5
0,160,115969,6,0,L|512:160,1,507.5
0,192,115969,6,0,L|512:192,1,507.5
0,224,115969,6,0,L|512:224,1,507.5
0,256,115969,6,0,L|512:256,1,507.5
0,288,115969,6,0,L|512:288,1,507.5
0,320,115969,6,0,L|512:320,1,507.5
0,352,115969,6,0,L|512:352,1,507.5
0,384,115969,6,0,L|512:384,1,507.5
32,64,116209,6,0,L|32:352|32:288,2,280
96,64,116209,6,0,L|96:352|96:288,2,280
160,64,116209,6,0,L|160:352|160:288,2,280
224,64,116209,6,0,L|224:352|224:288,2,280
352,64,116209,6,0,L|352:352|352:288,2,280
416,64,116209,6,0,L|416:352|416:288,2,280
480,64,116209,6,0,L|480:352|480:288,2,280
288,64,116209,6,0,L|288:352|288:288,2,280
0,256,116449,6,0,L|512:256,1,507.5
0,224,116449,6,0,L|512:224,1,507.5
0,192,116449,6,0,L|512:192,1,507.5
0,288,116449,6,0,L|512:288,1,507.5
0,384,116449,6,0,L|512:384,1,507.5
0,352,116449,6,0,L|512:352,1,507.5
0,320,116449,6,0,L|512:320,1,507.5
0,32,116449,6,0,L|512:32,1,507.5
0,0,116449,6,0,L|512:0,1,507.5
256,192,116449,12,0,116929,0:0:0:0:
0,64,116449,6,0,L|512:64,1,507.5
0,160,116449,6,0,L|512:160,1,507.5
0,128,116449,6,0,L|512:128,1,507.5
0,96,116449,6,0,L|512:96,1,507.5
32,64,116689,6,0,L|32:352|32:288,2,280
96,64,116689,6,0,L|96:352|96:288,2,280
160,64,116689,6,0,L|160:352|160:288,2,280
224,64,116689,6,0,L|224:352|224:288,2,280
352,64,116689,6,0,L|352:352|352:288,2,280
416,64,116689,6,0,L|416:352|416:288,2,280
480,64,116689,6,0,L|480:352|480:288,2,280
288,64,116689,6,0,L|288:352|288:288,2,280
256,192,116929,12,0,117409,0:0:0:0:
0,0,116929,6,0,L|512:0,1,507.5
0,32,116929,6,0,L|512:32,1,507.5
0,64,116929,6,0,L|512:64,1,507.5
0,96,116929,6,0,L|512:96,1,507.5
0,128,116929,6,0,L|512:128,1,507.5
0,160,116929,6,0,L|512:160,1,507.5
0,192,116929,6,0,L|512:192,1,507.5
0,224,116929,6,0,L|512:224,1,507.5
0,256,116929,6,0,L|512:256,1,507.5
0,288,116929,6,0,L|512:288,1,507.5
0,320,116929,6,0,L|512:320,1,507.5
0,352,116929,6,0,L|512:352,1,507.5
0,384,116929,6,0,L|512:384,1,507.5
416,64,117169,6,0,L|416:352|416:288,2,280
352,64,117169,6,0,L|352:352|352:288,2,280
288,64,117169,6,0,L|288:352|288:288,2,280
480,64,117169,6,0,L|480:352|480:288,2,280
96,64,117169,6,0,L|96:352|96:288,2,280
32,64,117169,6,0,L|32:352|32:288,2,280
224,64,117169,6,0,L|224:352|224:288,2,280
160,64,117169,6,0,L|160:352|160:288,2,280
256,192,117409,12,0,117889,0:0:0:0:
0,0,117409,6,0,L|512:0,1,507.5
0,32,117409,6,0,L|512:32,1,507.5
0,64,117409,6,0,L|512:64,1,507.5
0,96,117409,6,0,L|512:96,1,507.5
0,128,117409,6,0,L|512:128,1,507.5
0,160,117409,6,0,L|512:160,1,507.5
0,192,117409,6,0,L|512:192,1,507.5
0,224,117409,6,0,L|512:224,1,507.5
0,256,117409,6,0,L|512:256,1,507.5
0,288,117409,6,0,L|512:288,1,507.5
0,320,117409,6,0,L|512:320,1,507.5
0,352,117409,6,0,L|512:352,1,507.5
0,384,117409,6,0,L|512:384,1,507.5
32,64,117649,6,0,L|32:352|32:288,2,280
96,64,117649,6,0,L|96:352|96:288,2,280
160,64,117649,6,0,L|160:352|160:288,2,280
224,64,117649,6,0,L|224:352|224:288,2,280
352,64,117649,6,0,L|352:352|352:288,2,280
416,64,117649,6,0,L|416:352|416:288,2,280
480,64,117649,6,0,L|480:352|480:288,2,280
288,64,117649,6,0,L|288:352|288:288,2,280
0,256,117889,6,0,L|512:256,1,507.5
0,224,117889,6,0,L|512:224,1,507.5
0,192,117889,6,0,L|512:192,1,507.5
0,288,117889,6,0,L|512:288,1,507.5
0,384,117889,6,0,L|512:384,1,507.5
0,352,117889,6,0,L|512:352,1,507.5
0,320,117889,6,0,L|512:320,1,507.5
0,32,117889,6,0,L|512:32,1,507.5
0,0,117889,6,0,L|512:0,1,507.5
256,192,117889,12,0,118369,0:0:0:0:
0,64,117889,6,0,L|512:64,1,507.5
0,160,117889,6,0,L|512:160,1,507.5
0,128,117889,6,0,L|512:128,1,507.5
0,96,117889,6,0,L|512:96,1,507.5
416,64,118129,6,0,L|416:352|416:288,2,280
352,64,118129,6,0,L|352:352|352:288,2,280
288,64,118129,6,0,L|288:352|288:288,2,280
480,64,118129,6,0,L|480:352|480:288,2,280
96,64,118129,6,0,L|96:352|96:288,2,280
32,64,118129,6,0,L|32:352|32:288,2,280
224,64,118129,6,0,L|224:352|224:288,2,280
160,64,118129,6,0,L|160:352|160:288,2,280
0,256,118369,6,0,L|512:256,1,507.5
0,224,118369,6,0,L|512:224,1,507.5
0,192,118369,6,0,L|512:192,1,507.5
0,288,118369,6,0,L|512:288,1,507.5
0,384,118369,6,0,L|512:384,1,507.5
0,352,118369,6,0,L|512:352,1,507.5
0,320,118369,6,0,L|512:320,1,507.5
0,32,118369,6,0,L|512:32,1,507.5
0,0,118369,6,0,L|512:0,1,507.5
256,192,118369,12,0,118849,0:0:0:0:
0,64,118369,6,0,L|512:64,1,507.5
0,160,118369,6,0,L|512:160,1,507.5
0,128,118369,6,0,L|512:128,1,507.5
0,96,118369,6,0,L|512:96,1,507.5
416,64,118609,6,0,L|416:352|416:288,2,280
352,64,118609,6,0,L|352:352|352:288,2,280
288,64,118609,6,0,L|288:352|288:288,2,280
480,64,118609,6,0,L|480:352|480:288,2,280
96,64,118609,6,0,L|96:352|96:288,2,280
32,64,118609,6,0,L|32:352|32:288,2,280
224,64,118609,6,0,L|224:352|224:288,2,280
160,64,118609,6,0,L|160:352|160:288,2,280
0,256,118849,6,0,L|512:256,1,507.5
0,224,118849,6,0,L|512:224,1,507.5
0,192,118849,6,0,L|512:192,1,507.5
0,288,118849,6,0,L|512:288,1,507.5
0,384,118849,6,0,L|512:384,1,507.5
0,352,118849,6,0,L|512:352,1,507.5
0,320,118849,6,0,L|512:320,1,507.5
0,32,118849,6,0,L|512:32,1,507.5
0,0,118849,6,0,L|512:0,1,507.5
256,192,118849,12,0,119329,0:0:0:0:
0,64,118849,6,0,L|512:64,1,507.5
0,160,118849,6,0,L|512:160,1,507.5
0,128,118849,6,0,L|512:128,1,507.5
0,96,118849,6,0,L|512:96,1,507.5
416,64,119089,6,0,L|416:352|416:288,2,280
352,64,119089,6,0,L|352:352|352:288,2,280
288,64,119089,6,0,L|288:352|288:288,2,280
480,64,119089,6,0,L|480:352|480:288,2,280
96,64,119089,6,0,L|96:352|96:288,2,280
32,64,119089,6,0,L|32:352|32:288,2,280
224,64,119089,6,0,L|224:352|224:288,2,280
160,64,119089,6,0,L|160:352|160:288,2,280
0,256,119329,6,0,L|512:256,1,507.5
0,224,119329,6,0,L|512:224,1,507.5
0,192,119329,6,0,L|512:192,1,507.5
0,288,119329,6,0,L|512:288,1,507.5
0,384,119329,6,0,L|512:384,1,507.5
0,352,119329,6,0,L|512:352,1,507.5
0,320,119329,6,0,L|512:320,1,507.5
0,32,119329,6,0,L|512:32,1,507.5
0,0,119329,6,0,L|512:0,1,507.5
256,192,119329,12,0,119809,0:0:0:0:
0,64,119329,6,0,L|512:64,1,507.5
0,160,119329,6,0,L|512:160,1,507.5
0,128,119329,6,0,L|512:128,1,507.5
0,96,119329,6,0,L|512:96,1,507.5
416,64,119569,6,0,L|416:352|416:288,2,280
352,64,119569,6,0,L|352:352|352:288,2,280
288,64,119569,6,0,L|288:352|288:288,2,280
480,64,119569,6,0,L|480:352|480:288,2,280
96,64,119569,6,0,L|96:352|96:288,2,280
32,64,119569,6,0,L|32:352|32:288,2,280
224,64,119569,6,0,L|224:352|224:288,2,280
160,64,119569,6,0,L|160:352|160:288,2,280
0,256,119809,6,0,L|512:256,1,507.5
0,224,119809,6,0,L|512:224,1,507.5
0,192,119809,6,0,L|512:192,1,507.5
0,288,119809,6,0,L|512:288,1,507.5
0,384,119809,6,0,L|512:384,1,507.5
0,352,119809,6,0,L|512:352,1,507.5
0,320,119809,6,0,L|512:320,1,507.5
0,32,119809,6,0,L|512:32,1,507.5
0,0,119809,6,0,L|512:0,1,507.5
256,192,119809,12,0,120289,0:0:0:0:
0,64,119809,6,0,L|512:64,1,507.5
0,160,119809,6,0,L|512:160,1,507.5
0,128,119809,6,0,L|512:128,1,507.5
0,96,119809,6,0,L|512:96,1,507.5
32,64,120049,6,0,L|32:352|32:288,2,280
96,64,120049,6,0,L|96:352|96:288,2,280
160,64,120049,6,0,L|160:352|160:288,2,280
224,64,120049,6,0,L|224:352|224:288,2,280
352,64,120049,6,0,L|352:352|352:288,2,280
416,64,120049,6,0,L|416:352|416:288,2,280
480,64,120049,6,0,L|480:352|480:288,2,280
288,64,120049,6,0,L|288:352|288:288,2,280
0,256,120289,6,0,L|512:256,1,507.5
0,224,120289,6,0,L|512:224,1,507.5
0,192,120289,6,0,L|512:192,1,507.5
0,288,120289,6,0,L|512:288,1,507.5
0,384,120289,6,0,L|512:384,1,507.5
0,352,120289,6,0,L|512:352,1,507.5
0,320,120289,6,0,L|512:320,1,507.5
0,32,120289,6,0,L|512:32,1,507.5
0,0,120289,6,0,L|512:0,1,507.5
256,192,120289,12,0,120769,0:0:0:0:
0,64,120289,6,0,L|512:64,1,507.5
0,160,120289,6,0,L|512:160,1,507.5
0,128,120289,6,0,L|512:128,1,507.5
0,96,120289,6,0,L|512:96,1,507.5
32,64,120529,6,0,L|32:352|32:288,2,280
96,64,120529,6,0,L|96:352|96:288,2,280
160,64,120529,6,0,L|160:352|160:288,2,280
224,64,120529,6,0,L|224:352|224:288,2,280
352,64,120529,6,0,L|352:352|352:288,2,280
416,64,120529,6,0,L|416:352|416:288,2,280
480,64,120529,6,0,L|480:352|480:288,2,280
288,64,120529,6,0,L|288:352|288:288,2,280
0,256,120769,6,0,L|512:256,1,507.5
0,224,120769,6,0,L|512:224,1,507.5
0,192,120769,6,0,L|512:192,1,507.5
0,288,120769,6,0,L|512:288,1,507.5
0,384,120769,6,0,L|512:384,1,507.5
0,352,120769,6,0,L|512:352,1,507.5
0,320,120769,6,0,L|512:320,1,507.5
0,32,120769,6,0,L|512:32,1,507.5
0,0,120769,6,0,L|512:0,1,507.5
256,192,120769,12,0,121249,0:0:0:0:
0,64,120769,6,0,L|512:64,1,507.5
0,160,120769,6,0,L|512:160,1,507.5
0,128,120769,6,0,L|512:128,1,507.5
0,96,120769,6,0,L|512:96,1,507.5
32,64,121009,6,0,L|32:352|32:288,2,280
96,64,121009,6,0,L|96:352|96:288,2,280
160,64,121009,6,0,L|160:352|160:288,2,280
224,64,121009,6,0,L|224:352|224:288,2,280
352,64,121009,6,0,L|352:352|352:288,2,280
416,64,121009,6,0,L|416:352|416:288,2,280
480,64,121009,6,0,L|480:352|480:288,2,280
288,64,121009,6,0,L|288:352|288:288,2,280
256,192,121249,12,0,121729,0:0:0:0:
0,0,121249,6,0,L|512:0,1,507.5
0,32,121249,6,0,L|512:32,1,507.5
0,64,121249,6,0,L|512:64,1,507.5
0,96,121249,6,0,L|512:96,1,507.5
0,128,121249,6,0,L|512:128,1,507.5
0,160,121249,6,0,L|512:160,1,507.5
0,192,121249,6,0,L|512:192,1,507.5
0,224,121249,6,0,L|512:224,1,507.5
0,256,121249,6,0,L|512:256,1,507.5
0,288,121249,6,0,L|512:288,1,507.5
0,320,121249,6,0,L|512:320,1,507.5
0,352,121249,6,0,L|512:352,1,507.5
0,384,121249,6,0,L|512:384,1,507.5
32,64,121489,6,0,L|32:352|32:288,2,280
96,64,121489,6,0,L|96:352|96:288,2,280
160,64,121489,6,0,L|160:352|160:288,2,280
224,64,121489,6,0,L|224:352|224:288,2,280
352,64,121489,6,0,L|352:352|352:288,2,280
416,64,121489,6,0,L|416:352|416:288,2,280
480,64,121489,6,0,L|480:352|480:288,2,280
288,64,121489,6,0,L|288:352|288:288,2,280
256,192,121729,12,0,122209,0:0:0:0:
0,0,121729,6,0,L|512:0,1,507.5
0,32,121729,6,0,L|512:32,1,507.5
0,64,121729,6,0,L|512:64,1,507.5
0,96,121729,6,0,L|512:96,1,507.5
0,128,121729,6,0,L|512:128,1,507.5
0,160,121729,6,0,L|512:160,1,507.5
0,192,121729,6,0,L|512:192,1,507.5
0,224,121729,6,0,L|512:224,1,507.5
0,256,121729,6,0,L|512:256,1,507.5
0,288,121729,6,0,L|512:288,1,507.5
0,320,121729,6,0,L|512:320,1,507.5
0,352,121729,6,0,L|512:352,1,507.5
0,384,121729,6,0,L|512:384,1,507.5
416,64,121969,6,0,L|416:352|416:288,2,280
352,64,121969,6,0,L|352:352|352:288,2,280
288,64,121969,6,0,L|288:352|288:288,2,280
480,64,121969,6,0,L|480:352|480:288,2,280
96,64,121969,6,0,L|96:352|96:288,2,280
32,64,121969,6,0,L|32:352|32:288,2,280
224,64,121969,6,0,L|224:352|224:288,2,280
160,64,121969,6,0,L|160:352|160:288,2,280
0,256,122209,6,0,L|512:256,1,507.5
0,224,122209,6,0,L|512:224,1,507.5
0,192,122209,6,0,L|512:192,1,507.5
0,288,122209,6,0,L|512:288,1,507.5
0,384,122209,6,0,L|512:384,1,507.5
0,352,122209,6,0,L|512:352,1,507.5
0,320,122209,6,0,L|512:320,1,507.5
0,32,122209,6,0,L|512:32,1,507.5
0,0,122209,6,0,L|512:0,1,507.5
256,192,122209,12,0,122689,0:0:0:0:
0,64,122209,6,0,L|512:64,1,507.5
0,160,122209,6,0,L|512:160,1,507.5
0,128,122209,6,0,L|512:128,1,507.5
0,96,122209,6,0,L|512:96,1,507.5
416,64,122449,6,0,L|416:352|416:288,2,280
352,64,122449,6,0,L|352:352|352:288,2,280
288,64,122449,6,0,L|288:352|288:288,2,280
480,64,122449,6,0,L|480:352|480:288,2,280
96,64,122449,6,0,L|96:352|96:288,2,280
32,64,122449,6,0,L|32:352|32:288,2,280
224,64,122449,6,0,L|224:352|224:288,2,280
160,64,122449,6,0,L|160:352|160:288,2,280
256,192,122689,12,0,123169,0:0:0:0:
0,0,122689,6,0,L|512:0,1,507.5
0,32,122689,6,0,L|512:32,1,507.5
0,64,122689,6,0,L|512:64,1,507.5
0,96,122689,6,0,L|512:96,1,507.5
0,128,122689,6,0,L|512:128,1,507.5
0,160,122689,6,0,L|512:160,1,507.5
0,192,122689,6,0,L|512:192,1,507.5
0,224,122689,6,0,L|512:224,1,507.5
0,256,122689,6,0,L|512:256,1,507.5
0,288,122689,6,0,L|512:288,1,507.5
0,320,122689,6,0,L|512:320,1,507.5
0,352,122689,6,0,L|512:352,1,507.5
0,384,122689,6,0,L|512:384,1,507.5
0,0,123169,6,0,L|512:0,1,507.5
0,32,123169,6,0,L|512:32,1,507.5
0,64,123169,6,0,L|512:64,1,507.5
0,96,123169,6,0,L|512:96,1,507.5
0,128,123169,6,0,L|512:128,1,507.5
0,160,123169,6,0,L|512:160,1,507.5
0,192,123169,6,0,L|512:192,1,507.5
0,224,123169,6,0,L|512:224,1,507.5
0,256,123169,6,0,L|512:256,1,507.5
0,288,123169,6,0,L|512:288,1,507.5
0,320,123169,6,0,L|512:320,1,507.5
0,352,123169,6,0,L|512:352,1,507.5
0,384,123169,6,0,L|512:384,1,507.5
256,192,123169,12,0,123649,0:0:0:0:
32,64,123409,6,0,L|32:352|32:288,2,280
96,64,123409,6,0,L|96:352|96:288,2,280
160,64,123409,6,0,L|160:352|160:288,2,280
224,64,123409,6,0,L|224:352|224:288,2,280
352,64,123409,6,0,L|352:352|352:288,2,280
416,64,123409,6,0,L|416:352|416:288,2,280
480,64,123409,6,0,L|480:352|480:288,2,280
288,64,123409,6,0,L|288:352|288:288,2,280
0,256,123649,6,0,L|512:256,1,507.5
0,224,123649,6,0,L|512:224,1,507.5
0,192,123649,6,0,L|512:192,1,507.5
0,288,123649,6,0,L|512:288,1,507.5
0,384,123649,6,0,L|512:384,1,507.5
0,352,123649,6,0,L|512:352,1,507.5
0,320,123649,6,0,L|512:320,1,507.5
0,32,123649,6,0,L|512:32,1,507.5
0,0,123649,6,0,L|512:0,1,507.5
256,192,123649,12,0,124129,0:0:0:0:
0,64,123649,6,0,L|512:64,1,507.5
0,160,123649,6,0,L|512:160,1,507.5
0,128,123649,6,0,L|512:128,1,507.5
0,96,123649,6,0,L|512:96,1,507.5
416,64,123889,6,0,L|416:352|416:288,2,280
352,64,123889,6,0,L|352:352|352:288,2,280
288,64,123889,6,0,L|288:352|288:288,2,280
480,64,123889,6,0,L|480:352|480:288,2,280
96,64,123889,6,0,L|96:352|96:288,2,280
32,64,123889,6,0,L|32:352|32:288,2,280
224,64,123889,6,0,L|224:352|224:288,2,280
160,64,123889,6,0,L|160:352|160:288,2,280
256,192,124129,12,0,124609,0:0:0:0:
0,0,124129,6,0,L|512:0,1,507.5
0,32,124129,6,0,L|512:32,1,507.5
0,64,124129,6,0,L|512:64,1,507.5
0,96,124129,6,0,L|512:96,1,507.5
0,128,124129,6,0,L|512:128,1,507.5
0,160,124129,6,0,L|512:160,1,507.5
0,192,124129,6,0,L|512:192,1,507.5
0,224,124129,6,0,L|512:224,1,507.5
0,256,124129,6,0,L|512:256,1,507.5
0,288,124129,6,0,L|512:288,1,507.5
0,320,124129,6,0,L|512:320,1,507.5
0,352,124129,6,0,L|512:352,1,507.5
0,384,124129,6,0,L|512:384,1,507.5
416,64,124369,6,0,L|416:352|416:288,2,280
352,64,124369,6,0,L|352:352|352:288,2,280
288,64,124369,6,0,L|288:352|288:288,2,280
480,64,124369,6,0,L|480:352|480:288,2,280
96,64,124369,6,0,L|96:352|96:288,2,280
32,64,124369,6,0,L|32:352|32:288,2,280
224,64,124369,6,0,L|224:352|224:288,2,280
160,64,124369,6,0,L|160:352|160:288,2,280
0,256,124609,6,0,L|512:256,1,507.5
0,224,124609,6,0,L|512:224,1,507.5
0,192,124609,6,0,L|512:192,1,507.5
0,288,124609,6,0,L|512:288,1,507.5
0,384,124609,6,0,L|512:384,1,507.5
0,352,124609,6,0,L|512:352,1,507.5
0,320,124609,6,0,L|512:320,1,507.5
0,32,124609,6,0,L|512:32,1,507.5
0,0,124609,6,0,L|512:0,1,507.5
256,192,124609,12,0,125089,0:0:0:0:
0,64,124609,6,0,L|512:64,1,507.5
0,160,124609,6,0,L|512:160,1,507.5
0,128,124609,6,0,L|512:128,1,507.5
0,96,124609,6,0,L|512:96,1,507.5
32,64,124849,6,0,L|32:352|32:288,2,280
96,64,124849,6,0,L|96:352|96:288,2,280
160,64,124849,6,0,L|160:352|160:288,2,280
224,64,124849,6,0,L|224:352|224:288,2,280
352,64,124849,6,0,L|352:352|352:288,2,280
416,64,124849,6,0,L|416:352|416:288,2,280
480,64,124849,6,0,L|480:352|480:288,2,280
288,64,124849,6,0,L|288:352|288:288,2,280
0,256,125089,6,0,L|512:256,1,507.5
0,224,125089,6,0,L|512:224,1,507.5
0,192,125089,6,0,L|512:192,1,507.5
0,288,125089,6,0,L|512:288,1,507.5
0,384,125089,6,0,L|512:384,1,507.5
0,352,125089,6,0,L|512:352,1,507.5
0,320,125089,6,0,L|512:320,1,507.5
0,32,125089,6,0,L|512:32,1,507.5
0,0,125089,6,0,L|512:0,1,507.5
256,192,125089,12,0,125569,0:0:0:0:
0,64,125089,6,0,L|512:64,1,507.5
0,160,125089,6,0,L|512:160,1,507.5
0,128,125089,6,0,L|512:128,1,507.5
0,96,125089,6,0,L|512:96,1,507.5
416,64,125329,6,0,L|416:352|416:288,2,280
352,64,125329,6,0,L|352:352|352:288,2,280
288,64,125329,6,0,L|288:352|288:288,2,280
480,64,125329,6,0,L|480:352|480:288,2,280
96,64,125329,6,0,L|96:352|96:288,2,280
32,64,125329,6,0,L|32:352|32:288,2,280
224,64,125329,6,0,L|224:352|224:288,2,280
160,64,125329,6,0,L|160:352|160:288,2,280
256,192,125569,12,0,126049,0:0:0:0:
0,0,125569,6,0,L|512:0,1,507.5
0,32,125569,6,0,L|512:32,1,507.5
0,64,125569,6,0,L|512:64,1,507.5
0,96,125569,6,0,L|512:96,1,507.5
0,128,125569,6,0,L|512:128,1,507.5
0,160,125569,6,0,L|512:160,1,507.5
0,192,125569,6,0,L|512:192,1,507.5
0,224,125569,6,0,L|512:224,1,507.5
0,256,125569,6,0,L|512:256,1,507.5
0,288,125569,6,0,L|512:288,1,507.5
0,320,125569,6,0,L|512:320,1,507.5
0,352,125569,6,0,L|512:352,1,507.5
0,384,125569,6,0,L|512:384,1,507.5
32,64,125809,6,0,L|32:352|32:288,2,280
96,64,125809,6,0,L|96:352|96:288,2,280
160,64,125809,6,0,L|160:352|160:288,2,280
224,64,125809,6,0,L|224:352|224:288,2,280
352,64,125809,6,0,L|352:352|352:288,2,280
416,64,125809,6,0,L|416:352|416:288,2,280
480,64,125809,6,0,L|480:352|480:288,2,280
288,64,125809,6,0,L|288:352|288:288,2,280
256,192,126049,12,0,126529,0:0:0:0:
0,0,126049,6,0,L|512:0,1,507.5
0,32,126049,6,0,L|512:32,1,507.5
0,64,126049,6,0,L|512:64,1,507.5
0,96,126049,6,0,L|512:96,1,507.5
0,128,126049,6,0,L|512:128,1,507.5
0,160,126049,6,0,L|512:160,1,507.5
0,192,126049,6,0,L|512:192,1,507.5
0,224,126049,6,0,L|512:224,1,507.5
0,256,126049,6,0,L|512:256,1,507.5
0,288,126049,6,0,L|512:288,1,507.5
0,320,126049,6,0,L|512:320,1,507.5
0,352,126049,6,0,L|512:352,1,507.5
0,384,126049,6,0,L|512:384,1,507.5
32,64,126289,6,0,L|32:352|32:288,2,280
96,64,126289,6,0,L|96:352|96:288,2,280
160,64,126289,6,0,L|160:352|160:288,2,280
224,64,126289,6,0,L|224:352|224:288,2,280
352,64,126289,6,0,L|352:352|352:288,2,280
416,64,126289,6,0,L|416:352|416:288,2,280
480,64,126289,6,0,L|480:352|480:288,2,280
288,64,126289,6,0,L|288:352|288:288,2,280
256,192,126529,12,0,127009,0:0:0:0:
0,0,126529,6,0,L|512:0,1,507.5
0,32,126529,6,0,L|512:32,1,507.5
0,64,126529,6,0,L|512:64,1,507.5
0,96,126529,6,0,L|512:96,1,507.5
0,128,126529,6,0,L|512:128,1,507.5
0,160,126529,6,0,L|512:160,1,507.5
0,192,126529,6,0,L|512:192,1,507.5
0,224,126529,6,0,L|512:224,1,507.5
0,256,126529,6,0,L|512:256,1,507.5
0,288,126529,6,0,L|512:288,1,507.5
0,320,126529,6,0,L|512:320,1,507.5
0,352,126529,6,0,L|512:352,1,507.5
0,384,126529,6,0,L|512:384,1,507.5
32,64,126769,6,0,L|32:352|32:288,2,280
96,64,126769,6,0,L|96:352|96:288,2,280
160,64,126769,6,0,L|160:352|160:288,2,280
224,64,126769,6,0,L|224:352|224:288,2,280
352,64,126769,6,0,L|352:352|352:288,2,280
416,64,126769,6,0,L|416:352|416:288,2,280
480,64,126769,6,0,L|480:352|480:288,2,280
288,64,126769,6,0,L|288:352|288:288,2,280
256,192,127009,12,0,127489,0:0:0:0:
0,0,127009,6,0,L|512:0,1,507.5
0,32,127009,6,0,L|512:32,1,507.5
0,64,127009,6,0,L|512:64,1,507.5
0,96,127009,6,0,L|512:96,1,507.5
0,128,127009,6,0,L|512:128,1,507.5
0,160,127009,6,0,L|512:160,1,507.5
0,192,127009,6,0,L|512:192,1,507.5
0,224,127009,6,0,L|512:224,1,507.5
0,256,127009,6,0,L|512:256,1,507.5
0,288,127009,6,0,L|512:288,1,507.5
0,320,127009,6,0,L|512:320,1,507.5
0,352,127009,6,0,L|512:352,1,507.5
0,384,127009,6,0,L|512:384,1,507.5
32,64,127249,6,0,L|32:352|32:288,2,280
96,64,127249,6,0,L|96:352|96:288,2,280
160,64,127249,6,0,L|160:352|160:288,2,280
224,64,127249,6,0,L|224:352|224:288,2,280
352,64,127249,6,0,L|352:352|352:288,2,280
416,64,127249,6,0,L|416:352|416:288,2,280
480,64,127249,6,0,L|480:352|480:288,2,280
288,64,127249,6,0,L|288:352|288:288,2,280
256,192,127489,12,0,127969,0:0:0:0:
0,0,127489,6,0,L|512:0,1,507.5
0,32,127489,6,0,L|512:32,1,507.5
0,64,127489,6,0,L|512:64,1,507.5
0,96,127489,6,0,L|512:96,1,507.5
0,128,127489,6,0,L|512:128,1,507.5
0,160,127489,6,0,L|512:160,1,507.5
0,192,127489,6,0,L|512:192,1,507.5
0,224,127489,6,0,L|512:224,1,507.5
0,256,127489,6,0,L|512:256,1,507.5
0,288,127489,6,0,L|512:288,1,507.5
0,320,127489,6,0,L|512:320,1,507.5
0,352,127489,6,0,L|512:352,1,507.5
0,384,127489,6,0,L|512:384,1,507.5
416,64,127729,6,0,L|416:352|416:288,2,280
352,64,127729,6,0,L|352:352|352:288,2,280
288,64,127729,6,0,L|288:352|288:288,2,280
480,64,127729,6,0,L|480:352|480:288,2,280
96,64,127729,6,0,L|96:352|96:288,2,280
32,64,127729,6,0,L|32:352|32:288,2,280
224,64,127729,6,0,L|224:352|224:288,2,280
160,64,127729,6,0,L|160:352|160:288,2,280
256,192,127969,12,0,128449,0:0:0:0:
0,0,127969,6,0,L|512:0,1,507.5
0,32,127969,6,0,L|512:32,1,507.5
0,64,127969,6,0,L|512:64,1,507.5
0,96,127969,6,0,L|512:96,1,507.5
0,128,127969,6,0,L|512:128,1,507.5
0,160,127969,6,0,L|512:160,1,507.5
0,192,127969,6,0,L|512:192,1,507.5
0,224,127969,6,0,L|512:224,1,507.5
0,256,127969,6,0,L|512:256,1,507.5
0,288,127969,6,0,L|512:288,1,507.5
0,320,127969,6,0,L|512:320,1,507.5
0,352,127969,6,0,L|512:352,1,507.5
0,384,127969,6,0,L|512:384,1,507.5
416,64,128209,6,0,L|416:352|416:288,2,280
352,64,128209,6,0,L|352:352|352:288,2,280
288,64,128209,6,0,L|288:352|288:288,2,280
480,64,128209,6,0,L|480:352|480:288,2,280
96,64,128209,6,0,L|96:352|96:288,2,280
32,64,128209,6,0,L|32:352|32:288,2,280
224,64,128209,6,0,L|224:352|224:288,2,280
160,64,128209,6,0,L|160:352|160:288,2,280
256,192,128449,12,0,128929,0:0:0:0:
0,0,128449,6,0,L|512:0,1,507.5
0,32,128449,6,0,L|512:32,1,507.5
0,64,128449,6,0,L|512:64,1,507.5
0,96,128449,6,0,L|512:96,1,507.5
0,128,128449,6,0,L|512:128,1,507.5
0,160,128449,6,0,L|512:160,1,507.5
0,192,128449,6,0,L|512:192,1,507.5
0,224,128449,6,0,L|512:224,1,507.5
0,256,128449,6,0,L|512:256,1,507.5
0,288,128449,6,0,L|512:288,1,507.5
0,320,128449,6,0,L|512:320,1,507.5
0,352,128449,6,0,L|512:352,1,507.5
0,384,128449,6,0,L|512:384,1,507.5
416,64,128689,6,0,L|416:352|416:288,2,280
352,64,128689,6,0,L|352:352|352:288,2,280
288,64,128689,6,0,L|288:352|288:288,2,280
480,64,128689,6,0,L|480:352|480:288,2,280
96,64,128689,6,0,L|96:352|96:288,2,280
32,64,128689,6,0,L|32:352|32:288,2,280
224,64,128689,6,0,L|224:352|224:288,2,280
160,64,128689,6,0,L|160:352|160:288,2,280
0,256,128929,6,0,L|512:256,1,507.5
0,224,128929,6,0,L|512:224,1,507.5
0,192,128929,6,0,L|512:192,1,507.5
0,288,128929,6,0,L|512:288,1,507.5
0,384,128929,6,0,L|512:384,1,507.5
0,352,128929,6,0,L|512:352,1,507.5
0,320,128929,6,0,L|512:320,1,507.5
0,32,128929,6,0,L|512:32,1,507.5
0,0,128929,6,0,L|512:0,1,507.5
256,192,128929,12,0,129409,0:0:0:0:
0,64,128929,6,0,L|512:64,1,507.5
0,160,128929,6,0,L|512:160,1,507.5
0,128,128929,6,0,L|512:128,1,507.5
0,96,128929,6,0,L|512:96,1,507.5
416,64,129169,6,0,L|416:352|416:288,2,280
352,64,129169,6,0,L|352:352|352:288,2,280
288,64,129169,6,0,L|288:352|288:288,2,280
480,64,129169,6,0,L|480:352|480:288,2,280
96,64,129169,6,0,L|96:352|96:288,2,280
32,64,129169,6,0,L|32:352|32:288,2,280
224,64,129169,6,0,L|224:352|224:288,2,280
160,64,129169,6,0,L|160:352|160:288,2,280
0,256,129409,6,0,L|512:256,1,507.5
0,224,129409,6,0,L|512:224,1,507.5
0,192,129409,6,0,L|512:192,1,507.5
0,288,129409,6,0,L|512:288,1,507.5
0,384,129409,6,0,L|512:384,1,507.5
0,352,129409,6,0,L|512:352,1,507.5
0,320,129409,6,0,L|512:320,1,507.5
0,32,129409,6,0,L|512:32,1,507.5
0,0,129409,6,0,L|512:0,1,507.5
256,192,129409,12,0,129889,0:0:0:0:
0,64,129409,6,0,L|512:64,1,507.5
0,160,129409,6,0,L|512:160,1,507.5
0,128,129409,6,0,L|512:128,1,507.5
0,96,129409,6,0,L|512:96,1,507.5
32,64,129649,6,0,L|32:352|32:288,2,280
96,64,129649,6,0,L|96:352|96:288,2,280
160,64,129649,6,0,L|160:352|160:288,2,280
224,64,129649,6,0,L|224:352|224:288,2,280
352,64,129649,6,0,L|352:352|352:288,2,280
416,64,129649,6,0,L|416:352|416:288,2,280
480,64,129649,6,0,L|480:352|480:288,2,280
288,64,129649,6,0,L|288:352|288:288,2,280
256,192,129889,12,0,130369,0:0:0:0:
0,0,129889,6,0,L|512:0,1,507.5
0,32,129889,6,0,L|512:32,1,507.5
0,64,129889,6,0,L|512:64,1,507.5
0,96,129889,6,0,L|512:96,1,507.5
0,128,129889,6,0,L|512:128,1,507.5
0,160,129889,6,0,L|512:160,1,507.5
0,192,129889,6,0,L|512:192,1,507.5
0,224,129889,6,0,L|512:224,1,507.5
0,256,129889,6,0,L|512:256,1,507.5
0,288,129889,6,0,L|512:288,1,507.5
0,320,129889,6,0,L|512:320,1,507.5
0,352,129889,6,0,L|512:352,1,507.5
0,384,129889,6,0,L|512:384,1,507.5
32,64,130129,6,0,L|32:352|32:288,2,280
96,64,130129,6,0,L|96:352|96:288,2,280
160,64,130129,6,0,L|160:352|160:288,2,280
224,64,130129,6,0,L|224:352|224:288,2,280
352,64,130129,6,0,L|352:352|352:288,2,280
416,64,130129,6,0,L|416:352|416:288,2,280
480,64,130129,6,0,L|480:352|480:288,2,280
288,64,130129,6,0,L|288:352|288:288,2,280
0,256,130369,6,0,L|512:256,1,507.5
0,224,130369,6,0,L|512:224,1,507.5
0,192,130369,6,0,L|512:192,1,507.5
0,288,130369,6,0,L|512:288,1,507.5
0,384,130369,6,0,L|512:384,1,507.5
0,352,130369,6,0,L|512:352,1,507.5
0,320,130369,6,0,L|512:320,1,507.5
0,32,130369,6,0,L|512:32,1,507.5
0,0,130369,6,0,L|512:0,1,507.5
256,192,130369,12,0,130849,0:0:0:0:
0,64,130369,6,0,L|512:64,1,507.5
0,160,130369,6,0,L|512:160,1,507.5
0,128,130369,6,0,L|512:128,1,507.5
0,96,130369,6,0,L|512:96,1,507.5
0,288,130849,6,0,L|512:288,1,507.5
0,256,130849,6,0,L|512:256,1,507.5
0,224,130849,6,0,L|512:224,1,507.5
0,320,130849,6,0,L|512:320,1,507.5
256,192,130849,12,0,131329,0:0:0:0:
0,384,130849,6,0,L|512:384,1,507.5
0,352,130849,6,0,L|512:352,1,507.5
0,64,130849,6,0,L|512:64,1,507.5
0,32,130849,6,0,L|512:32,1,507.5
0,0,130849,6,0,L|512:0,1,507.5
0,96,130849,6,0,L|512:96,1,507.5
0,192,130849,6,0,L|512:192,1,507.5
0,160,130849,6,0,L|512:160,1,507.5
0,128,130849,6,0,L|512:128,1,507.5
416,64,131089,6,0,L|416:352|416:288,2,280
352,64,131089,6,0,L|352:352|352:288,2,280
288,64,131089,6,0,L|288:352|288:288,2,280
480,64,131089,6,0,L|480:352|480:288,2,280
96,64,131089,6,0,L|96:352|96:288,2,280
32,64,131089,6,0,L|32:352|32:288,2,280
224,64,131089,6,0,L|224:352|224:288,2,280
160,64,131089,6,0,L|160:352|160:288,2,280
256,192,131329,12,0,131809,0:0:0:0:
0,0,131329,6,0,L|512:0,1,507.5
0,32,131329,6,0,L|512:32,1,507.5
0,64,131329,6,0,L|512:64,1,507.5
0,96,131329,6,0,L|512:96,1,507.5
0,128,131329,6,0,L|512:128,1,507.5
0,160,131329,6,0,L|512:160,1,507.5
0,192,131329,6,0,L|512:192,1,507.5
0,224,131329,6,0,L|512:224,1,507.5
0,256,131329,6,0,L|512:256,1,507.5
0,288,131329,6,0,L|512:288,1,507.5
0,320,131329,6,0,L|512:320,1,507.5
0,352,131329,6,0,L|512:352,1,507.5
0,384,131329,6,0,L|512:384,1,507.5
32,64,131569,6,0,L|32:352|32:288,2,280
96,64,131569,6,0,L|96:352|96:288,2,280
160,64,131569,6,0,L|160:352|160:288,2,280
224,64,131569,6,0,L|224:352|224:288,2,280
352,64,131569,6,0,L|352:352|352:288,2,280
416,64,131569,6,0,L|416:352|416:288,2,280
480,64,131569,6,0,L|480:352|480:288,2,280
288,64,131569,6,0,L|288:352|288:288,2,280
0,256,131809,6,0,L|512:256,1,507.5
0,224,131809,6,0,L|512:224,1,507.5
0,192,131809,6,0,L|512:192,1,507.5
0,288,131809,6,0,L|512:288,1,507.5
0,384,131809,6,0,L|512:384,1,507.5
0,352,131809,6,0,L|512:352,1,507.5
0,320,131809,6,0,L|512:320,1,507.5
0,32,131809,6,0,L|512:32,1,507.5
0,0,131809,6,0,L|512:0,1,507.5
256,192,131809,12,0,132289,0:0:0:0:
0,64,131809,6,0,L|512:64,1,507.5
0,160,131809,6,0,L|512:160,1,507.5
0,128,131809,6,0,L|512:128,1,507.5
0,96,131809,6,0,L|512:96,1,507.5
32,64,132049,6,0,L|32:352|32:288,2,280
96,64,132049,6,0,L|96:352|96:288,2,280
160,64,132049,6,0,L|160:352|160:288,2,280
224,64,132049,6,0,L|224:352|224:288,2,280
352,64,132049,6,0,L|352:352|352:288,2,280
416,64,132049,6,0,L|416:352|416:288,2,280
480,64,132049,6,0,L|480:352|480:288,2,280
288,64,132049,6,0,L|288:352|288:288,2,280
256,192,132289,12,0,132769,0:0:0:0:
0,0,132289,6,0,L|512:0,1,507.5
0,32,132289,6,0,L|512:32,1,507.5
0,64,132289,6,0,L|512:64,1,507.5
0,96,132289,6,0,L|512:96,1,507.5
0,128,132289,6,0,L|512:128,1,507.5
0,160,132289,6,0,L|512:160,1,507.5
0,192,132289,6,0,L|512:192,1,507.5
0,224,132289,6,0,L|512:224,1,507.5
0,256,132289,6,0,L|512:256,1,507.5
0,288,132289,6,0,L|512:288,1,507.5
0,320,132289,6,0,L|512:320,1,507.5
0,352,132289,6,0,L|512:352,1,507.5
0,384,132289,6,0,L|512:384,1,507.5
416,64,132529,6,0,L|416:352|416:288,2,280
352,64,132529,6,0,L|352:352|352:288,2,280
288,64,132529,6,0,L|288:352|288:288,2,280
480,64,132529,6,0,L|480:352|480:288,2,280
96,64,132529,6,0,L|96:352|96:288,2,280
32,64,132529,6,0,L|32:352|32:288,2,280
224,64,132529,6,0,L|224:352|224:288,2,280
160,64,132529,6,0,L|160:352|160:288,2,280
256,192,132769,12,0,133249,0:0:0:0:
0,0,132769,6,0,L|512:0,1,507.5
0,32,132769,6,0,L|512:32,1,507.5
0,64,132769,6,0,L|512:64,1,507.5
0,96,132769,6,0,L|512:96,1,507.5
0,128,132769,6,0,L|512:128,1,507.5
0,160,132769,6,0,L|512:160,1,507.5
0,192,132769,6,0,L|512:192,1,507.5
0,224,132769,6,0,L|512:224,1,507.5
0,256,132769,6,0,L|512:256,1,507.5
0,288,132769,6,0,L|512:288,1,507.5
0,320,132769,6,0,L|512:320,1,507.5
0,352,132769,6,0,L|512:352,1,507.5
0,384,132769,6,0,L|512:384,1,507.5
32,64,133009,6,0,L|32:352|32:288,2,280
96,64,133009,6,0,L|96:352|96:288,2,280
160,64,133009,6,0,L|160:352|160:288,2,280
224,64,133009,6,0,L|224:352|224:288,2,280
352,64,133009,6,0,L|352:352|352:288,2,280
416,64,133009,6,0,L|416:352|416:288,2,280
480,64,133009,6,0,L|480:352|480:288,2,280
288,64,133009,6,0,L|288:352|288:288,2,280
0,256,133249,6,0,L|512:256,1,507.5
0,224,133249,6,0,L|512:224,1,507.5
0,192,133249,6,0,L|512:192,1,507.5
0,288,133249,6,0,L|512:288,1,507.5
0,384,133249,6,0,L|512:384,1,507.5
0,352,133249,6,0,L|512:352,1,507.5
0,320,133249,6,0,L|512:320,1,507.5
0,32,133249,6,0,L|512:32,1,507.5
0,0,133249,6,0,L|512:0,1,507.5
256,192,133249,12,0,133729,0:0:0:0:
0,64,133249,6,0,L|512:64,1,507.5
0,160,133249,6,0,L|512:160,1,507.5
0,128,133249,6,0,L|512:128,1,507.5
0,96,133249,6,0,L|512:96,1,507.5
416,64,133489,6,0,L|416:352|416:288,2,280
352,64,133489,6,0,L|352:352|352:288,2,280
288,64,133489,6,0,L|288:352|288:288,2,280
480,64,133489,6,0,L|480:352|480:288,2,280
96,64,133489,6,0,L|96:352|96:288,2,280
32,64,133489,6,0,L|32:352|32:288,2,280
224,64,133489,6,0,L|224:352|224:288,2,280
160,64,133489,6,0,L|160:352|160:288,2,280
0,256,133729,6,0,L|512:256,1,507.5
0,224,133729,6,0,L|512:224,1,507.5
0,192,133729,6,0,L|512:192,1,507.5
0,288,133729,6,0,L|512:288,1,507.5
0,384,133729,6,0,L|512:384,1,507.5
0,352,133729,6,0,L|512:352,1,507.5
0,320,133729,6,0,L|512:320,1,507.5
0,32,133729,6,0,L|512:32,1,507.5
0,0,133729,6,0,L|512:0,1,507.5
256,192,133729,12,0,134209,0:0:0:0:
0,64,133729,6,0,L|512:64,1,507.5
0,160,133729,6,0,L|512:160,1,507.5
0,128,133729,6,0,L|512:128,1,507.5
0,96,133729,6,0,L|512:96,1,507.5
416,64,133969,6,0,L|416:352|416:288,2,280
352,64,133969,6,0,L|352:352|352:288,2,280
288,64,133969,6,0,L|288:352|288:288,2,280
480,64,133969,6,0,L|480:352|480:288,2,280
96,64,133969,6,0,L|96:352|96:288,2,280
32,64,133969,6,0,L|32:352|32:288,2,280
224,64,133969,6,0,L|224:352|224:288,2,280
160,64,133969,6,0,L|160:352|160:288,2,280
0,256,134209,6,0,L|512:256,1,507.5
0,224,134209,6,0,L|512:224,1,507.5
0,192,134209,6,0,L|512:192,1,507.5
0,288,134209,6,0,L|512:288,1,507.5
0,384,134209,6,0,L|512:384,1,507.5
0,352,134209,6,0,L|512:352,1,507.5
0,320,134209,6,0,L|512:320,1,507.5
0,32,134209,6,0,L|512:32,1,507.5
0,0,134209,6,0,L|512:0,1,507.5
256,192,134209,12,0,134689,0:0:0:0:
0,64,134209,6,0,L|512:64,1,507.5
0,160,134209,6,0,L|512:160,1,507.5
0,128,134209,6,0,L|512:128,1,507.5
0,96,134209,6,0,L|512:96,1,507.5
416,64,134449,6,0,L|416:352|416:288,2,280
352,64,134449,6,0,L|352:352|352:288,2,280
288,64,134449,6,0,L|288:352|288:288,2,280
480,64,134449,6,0,L|480:352|480:288,2,280
96,64,134449,6,0,L|96:352|96:288,2,280
32,64,134449,6,0,L|32:352|32:288,2,280
224,64,134449,6,0,L|224:352|224:288,2,280
160,64,134449,6,0,L|160:352|160:288,2,280
0,256,134689,6,0,L|512:256,1,507.5
0,224,134689,6,0,L|512:224,1,507.5
0,192,134689,6,0,L|512:192,1,507.5
0,288,134689,6,0,L|512:288,1,507.5
0,384,134689,6,0,L|512:384,1,507.5
0,352,134689,6,0,L|512:352,1,507.5
0,320,134689,6,0,L|512:320,1,507.5
0,32,134689,6,0,L|512:32,1,507.5
0,0,134689,6,0,L|512:0,1,507.5
256,192,134689,12,0,135169,0:0:0:0:
0,64,134689,6,0,L|512:64,1,507.5
0,160,134689,6,0,L|512:160,1,507.5
0,128,134689,6,0,L|512:128,1,507.5
0,96,134689,6,0,L|512:96,1,507.5
416,64,134929,6,0,L|416:352|416:288,2,280
352,64,134929,6,0,L|352:352|352:288,2,280
288,64,134929,6,0,L|288:352|288:288,2,280
480,64,134929,6,0,L|480:352|480:288,2,280
96,64,134929,6,0,L|96:352|96:288,2,280
32,64,134929,6,0,L|32:352|32:288,2,280
224,64,134929,6,0,L|224:352|224:288,2,280
160,64,134929,6,0,L|160:352|160:288,2,280
0,256,135169,6,0,L|512:256,1,507.5
0,224,135169,6,0,L|512:224,1,507.5
0,192,135169,6,0,L|512:192,1,507.5
0,288,135169,6,0,L|512:288,1,507.5
0,384,135169,6,0,L|512:384,1,507.5
0,352,135169,6,0,L|512:352,1,507.5
0,320,135169,6,0,L|512:320,1,507.5
0,32,135169,6,0,L|512:32,1,507.5
0,0,135169,6,0,L|512:0,1,507.5
256,192,135169,12,0,135649,0:0:0:0:
0,64,135169,6,0,L|512:64,1,507.5
0,160,135169,6,0,L|512:160,1,507.5
0,128,135169,6,0,L|512:128,1,507.5
0,96,135169,6,0,L|512:96,1,507.5
32,64,135409,6,0,L|32:352|32:288,2,280
96,64,135409,6,0,L|96:352|96:288,2,280
160,64,135409,6,0,L|160:352|160:288,2,280
224,64,135409,6,0,L|224:352|224:288,2,280
352,64,135409,6,0,L|352:352|352:288,2,280
416,64,135409,6,0,L|416:352|416:288,2,280
480,64,135409,6,0,L|480:352|480:288,2,280
288,64,135409,6,0,L|288:352|288:288,2,280
0,256,135649,6,0,L|512:256,1,507.5
0,224,135649,6,0,L|512:224,1,507.5
0,192,135649,6,0,L|512:192,1,507.5
0,288,135649,6,0,L|512:288,1,507.5
0,384,135649,6,0,L|512:384,1,507.5
0,352,135649,6,0,L|512:352,1,507.5
0,320,135649,6,0,L|512:320,1,507.5
0,32,135649,6,0,L|512:32,1,507.5
0,0,135649,6,0,L|512:0,1,507.5
256,192,135649,12,0,136129,0:0:0:0:
0,64,135649,6,0,L|512:64,1,507.5
0,160,135649,6,0,L|512:160,1,507.5
0,128,135649,6,0,L|512:128,1,507.5
0,96,135649,6,0,L|512:96,1,507.5
32,64,135889,6,0,L|32:352|32:288,2,280
96,64,135889,6,0,L|96:352|96:288,2,280
160,64,135889,6,0,L|160:352|160:288,2,280
224,64,135889,6,0,L|224:352|224:288,2,280
352,64,135889,6,0,L|352:352|352:288,2,280
416,64,135889,6,0,L|416:352|416:288,2,280
480,64,135889,6,0,L|480:352|480:288,2,280
288,64,135889,6,0,L|288:352|288:288,2,280
0,256,136129,6,0,L|512:256,1,507.5
0,224,136129,6,0,L|512:224,1,507.5
0,192,136129,6,0,L|512:192,1,507.5
0,288,136129,6,0,L|512:288,1,507.5
0,384,136129,6,0,L|512:384,1,507.5
0,352,136129,6,0,L|512:352,1,507.5
0,320,136129,6,0,L|512:320,1,507.5
0,32,136129,6,0,L|512:32,1,507.5
0,0,136129,6,0,L|512:0,1,507.5
256,192,136129,12,0,136609,0:0:0:0:
0,64,136129,6,0,L|512:64,1,507.5
0,160,136129,6,0,L|512:160,1,507.5
0,128,136129,6,0,L|512:128,1,507.5
0,96,136129,6,0,L|512:96,1,507.5
32,64,136369,6,0,L|32:352|32:288,2,280
96,64,136369,6,0,L|96:352|96:288,2,280
160,64,136369,6,0,L|160:352|160:288,2,280
224,64,136369,6,0,L|224:352|224:288,2,280
352,64,136369,6,0,L|352:352|352:288,2,280
416,64,136369,6,0,L|416:352|416:288,2,280
480,64,136369,6,0,L|480:352|480:288,2,280
288,64,136369,6,0,L|288:352|288:288,2,280
256,192,136609,12,0,137089,0:0:0:0:
0,0,136609,6,0,L|512:0,1,507.5
0,32,136609,6,0,L|512:32,1,507.5
0,64,136609,6,0,L|512:64,1,507.5
0,96,136609,6,0,L|512:96,1,507.5
0,128,136609,6,0,L|512:128,1,507.5
0,160,136609,6,0,L|512:160,1,507.5
0,192,136609,6,0,L|512:192,1,507.5
0,224,136609,6,0,L|512:224,1,507.5
0,256,136609,6,0,L|512:256,1,507.5
0,288,136609,6,0,L|512:288,1,507.5
0,320,136609,6,0,L|512:320,1,507.5
0,352,136609,6,0,L|512:352,1,507.5
0,384,136609,6,0,L|512:384,1,507.5
32,64,136849,6,0,L|32:352|32:288,2,280
96,64,136849,6,0,L|96:352|96:288,2,280
160,64,136849,6,0,L|160:352|160:288,2,280
224,64,136849,6,0,L|224:352|224:288,2,280
352,64,136849,6,0,L|352:352|352:288,2,280
416,64,136849,6,0,L|416:352|416:288,2,280
480,64,136849,6,0,L|480:352|480:288,2,280
288,64,136849,6,0,L|288:352|288:288,2,280
256,192,137089,12,0,137569,0:0:0:0:
0,0,137089,6,0,L|512:0,1,507.5
0,32,137089,6,0,L|512:32,1,507.5
0,64,137089,6,0,L|512:64,1,507.5
0,96,137089,6,0,L|512:96,1,507.5
0,128,137089,6,0,L|512:128,1,507.5
0,160,137089,6,0,L|512:160,1,507.5
0,192,137089,6,0,L|512:192,1,507.5
0,224,137089,6,0,L|512:224,1,507.5
0,256,137089,6,0,L|512:256,1,507.5
0,288,137089,6,0,L|512:288,1,507.5
0,320,137089,6,0,L|512:320,1,507.5
0,352,137089,6,0,L|512:352,1,507.5
0,384,137089,6,0,L|512:384,1,507.5
416,64,137329,6,0,L|416:352|416:288,2,280
352,64,137329,6,0,L|352:352|352:288,2,280
288,64,137329,6,0,L|288:352|288:288,2,280
480,64,137329,6,0,L|480:352|480:288,2,280
96,64,137329,6,0,L|96:352|96:288,2,280
32,64,137329,6,0,L|32:352|32:288,2,280
224,64,137329,6,0,L|224:352|224:288,2,280
160,64,137329,6,0,L|160:352|160:288,2,280
0,256,137569,6,0,L|512:256,1,507.5
0,224,137569,6,0,L|512:224,1,507.5
0,192,137569,6,0,L|512:192,1,507.5
0,288,137569,6,0,L|512:288,1,507.5
0,384,137569,6,0,L|512:384,1,507.5
0,352,137569,6,0,L|512:352,1,507.5
0,320,137569,6,0,L|512:320,1,507.5
0,32,137569,6,0,L|512:32,1,507.5
0,0,137569,6,0,L|512:0,1,507.5
256,192,137569,12,0,138049,0:0:0:0:
0,64,137569,6,0,L|512:64,1,507.5
0,160,137569,6,0,L|512:160,1,507.5
0,128,137569,6,0,L|512:128,1,507.5
0,96,137569,6,0,L|512:96,1,507.5
416,64,137809,6,0,L|416:352|416:288,2,280
352,64,137809,6,0,L|352:352|352:288,2,280
288,64,137809,6,0,L|288:352|288:288,2,280
480,64,137809,6,0,L|480:352|480:288,2,280
96,64,137809,6,0,L|96:352|96:288,2,280
32,64,137809,6,0,L|32:352|32:288,2,280
224,64,137809,6,0,L|224:352|224:288,2,280
160,64,137809,6,0,L|160:352|160:288,2,280
256,192,138049,12,0,138529,0:0:0:0:
0,0,138049,6,0,L|512:0,1,507.5
0,32,138049,6,0,L|512:32,1,507.5
0,64,138049,6,0,L|512:64,1,507.5
0,96,138049,6,0,L|512:96,1,507.5
0,128,138049,6,0,L|512:128,1,507.5
0,160,138049,6,0,L|512:160,1,507.5
0,192,138049,6,0,L|512:192,1,507.5
0,224,138049,6,0,L|512:224,1,507.5
0,256,138049,6,0,L|512:256,1,507.5
0,288,138049,6,0,L|512:288,1,507.5
0,320,138049,6,0,L|512:320,1,507.5
0,352,138049,6,0,L|512:352,1,507.5
0,384,138049,6,0,L|512:384,1,507.5
0,0,138529,6,0,L|512:0,1,507.5
0,32,138529,6,0,L|512:32,1,507.5
0,64,138529,6,0,L|512:64,1,507.5
0,96,138529,6,0,L|512:96,1,507.5
0,128,138529,6,0,L|512:128,1,507.5
0,160,138529,6,0,L|512:160,1,507.5
0,192,138529,6,0,L|512:192,1,507.5
0,224,138529,6,0,L|512:224,1,507.5
0,256,138529,6,0,L|512:256,1,507.5
0,288,138529,6,0,L|512:288,1,507.5
0,320,138529,6,0,L|512:320,1,507.5
0,352,138529,6,0,L|512:352,1,507.5
0,384,138529,6,0,L|512:384,1,507.5
256,192,138529,12,0,139009,0:0:0:0:
32,64,138769,6,0,L|32:352|32:288,2,280
96,64,138769,6,0,L|96:352|96:288,2,280
160,64,138769,6,0,L|160:352|160:288,2,280
224,64,138769,6,0,L|224:352|224:288,2,280
352,64,138769,6,0,L|352:352|352:288,2,280
416,64,138769,6,0,L|416:352|416:288,2,280
480,64,138769,6,0,L|480:352|480:288,2,280
288,64,138769,6,0,L|288:352|288:288,2,280
0,256,139009,6,0,L|512:256,1,507.5
0,224,139009,6,0,L|512:224,1,507.5
0,192,139009,6,0,L|512:192,1,507.5
0,288,139009,6,0,L|512:288,1,507.5
0,384,139009,6,0,L|512:384,1,507.5
0,352,139009,6,0,L|512:352,1,507.5
0,320,139009,6,0,L|512:320,1,507.5
0,32,139009,6,0,L|512:32,1,507.5
0,0,139009,6,0,L|512:0,1,507.5
256,192,139009,12,0,139489,0:0:0:0:
0,64,139009,6,0,L|512:64,1,507.5
0,160,139009,6,0,L|512:160,1,507.5
0,128,139009,6,0,L|512:128,1,507.5
0,96,139009,6,0,L|512:96,1,507.5
416,64,139249,6,0,L|416:352|416:288,2,280
352,64,139249,6,0,L|352:352|352:288,2,280
288,64,139249,6,0,L|288:352|288:288,2,280
480,64,139249,6,0,L|480:352|480:288,2,280
96,64,139249,6,0,L|96:352|96:288,2,280
32,64,139249,6,0,L|32:352|32:288,2,280
224,64,139249,6,0,L|224:352|224:288,2,280
160,64,139249,6,0,L|160:352|160:288,2,280
256,192,139489,12,0,139969,0:0:0:0:
0,0,139489,6,0,L|512:0,1,507.5
0,32,139489,6,0,L|512:32,1,507.5
0,64,139489,6,0,L|512:64,1,507.5
0,96,139489,6,0,L|512:96,1,507.5
0,128,139489,6,0,L|512:128,1,507.5
0,160,139489,6,0,L|512:160,1,507.5
0,192,139489,6,0,L|512:192,1,507.5
0,224,139489,6,0,L|512:224,1,507.5
0,256,139489,6,0,L|512:256,1,507.5
0,288,139489,6,0,L|512:288,1,507.5
0,320,139489,6,0,L|512:320,1,507.5
0,352,139489,6,0,L|512:352,1,507.5
0,384,139489,6,0,L|512:384,1,507.5
416,64,139729,6,0,L|416:352|416:288,2,280
352,64,139729,6,0,L|352:352|352:288,2,280
288,64,139729,6,0,L|288:352|288:288,2,280
480,64,139729,6,0,L|480:352|480:288,2,280
96,64,139729,6,0,L|96:352|96:288,2,280
32,64,139729,6,0,L|32:352|32:288,2,280
224,64,139729,6,0,L|224:352|224:288,2,280
160,64,139729,6,0,L|160:352|160:288,2,280
0,256,139969,6,0,L|512:256,1,507.5
0,224,139969,6,0,L|512:224,1,507.5
0,192,139969,6,0,L|512:192,1,507.5
0,288,139969,6,0,L|512:288,1,507.5
0,384,139969,6,0,L|512:384,1,507.5
0,352,139969,6,0,L|512:352,1,507.5
0,320,139969,6,0,L|512:320,1,507.5
0,32,139969,6,0,L|512:32,1,507.5
0,0,139969,6,0,L|512:0,1,507.5
256,192,139969,12,0,140449,0:0:0:0:
0,64,139969,6,0,L|512:64,1,507.5
0,160,139969,6,0,L|512:160,1,507.5
0,128,139969,6,0,L|512:128,1,507.5
0,96,139969,6,0,L|512:96,1,507.5
32,64,140209,6,0,L|32:352|32:288,2,280
96,64,140209,6,0,L|96:352|96:288,2,280
160,64,140209,6,0,L|160:352|160:288,2,280
224,64,140209,6,0,L|224:352|224:288,2,280
352,64,140209,6,0,L|352:352|352:288,2,280
416,64,140209,6,0,L|416:352|416:288,2,280
480,64,140209,6,0,L|480:352|480:288,2,280
288,64,140209,6,0,L|288:352|288:288,2,280
0,256,140449,6,0,L|512:256,1,507.5
0,224,140449,6,0,L|512:224,1,507.5
0,192,140449,6,0,L|512:192,1,507.5
0,288,140449,6,0,L|512:288,1,507.5
0,384,140449,6,0,L|512:384,1,507.5
0,352,140449,6,0,L|512:352,1,507.5
0,320,140449,6,0,L|512:320,1,507.5
0,32,140449,6,0,L|512:32,1,507.5
0,0,140449,6,0,L|512:0,1,507.5
256,192,140449,12,0,140929,0:0:0:0:
0,64,140449,6,0,L|512:64,1,507.5
0,160,140449,6,0,L|512:160,1,507.5
0,128,140449,6,0,L|512:128,1,507.5
0,96,140449,6,0,L|512:96,1,507.5
416,64,140689,6,0,L|416:352|416:288,2,280
352,64,140689,6,0,L|352:352|352:288,2,280
288,64,140689,6,0,L|288:352|288:288,2,280
480,64,140689,6,0,L|480:352|480:288,2,280
96,64,140689,6,0,L|96:352|96:288,2,280
32,64,140689,6,0,L|32:352|32:288,2,280
224,64,140689,6,0,L|224:352|224:288,2,280
160,64,140689,6,0,L|160:352|160:288,2,280
256,192,140929,12,0,141409,0:0:0:0:
0,0,140929,6,0,L|512:0,1,507.5
0,32,140929,6,0,L|512:32,1,507.5
0,64,140929,6,0,L|512:64,1,507.5
0,96,140929,6,0,L|512:96,1,507.5
0,128,140929,6,0,L|512:128,1,507.5
0,160,140929,6,0,L|512:160,1,507.5
0,192,140929,6,0,L|512:192,1,507.5
0,224,140929,6,0,L|512:224,1,507.5
0,256,140929,6,0,L|512:256,1,507.5
0,288,140929,6,0,L|512:288,1,507.5
0,320,140929,6,0,L|512:320,1,507.5
0,352,140929,6,0,L|512:352,1,507.5
0,384,140929,6,0,L|512:384,1,507.5
32,64,141169,6,0,L|32:352|32:288,2,280
96,64,141169,6,0,L|96:352|96:288,2,280
160,64,141169,6,0,L|160:352|160:288,2,280
224,64,141169,6,0,L|224:352|224:288,2,280
352,64,141169,6,0,L|352:352|352:288,2,280
416,64,141169,6,0,L|416:352|416:288,2,280
480,64,141169,6,0,L|480:352|480:288,2,280
288,64,141169,6,0,L|288:352|288:288,2,280
256,192,141409,12,0,141889,0:0:0:0:
0,0,141409,6,0,L|512:0,1,507.5
0,32,141409,6,0,L|512:32,1,507.5
0,64,141409,6,0,L|512:64,1,507.5
0,96,141409,6,0,L|512:96,1,507.5
0,128,141409,6,0,L|512:128,1,507.5
0,160,141409,6,0,L|512:160,1,507.5
0,192,141409,6,0,L|512:192,1,507.5
0,224,141409,6,0,L|512:224,1,507.5
0,256,141409,6,0,L|512:256,1,507.5
0,288,141409,6,0,L|512:288,1,507.5
0,320,141409,6,0,L|512:320,1,507.5
0,352,141409,6,0,L|512:352,1,507.5
0,384,141409,6,0,L|512:384,1,507.5
32,64,141649,6,0,L|32:352|32:288,2,280
96,64,141649,6,0,L|96:352|96:288,2,280
160,64,141649,6,0,L|160:352|160:288,2,280
224,64,141649,6,0,L|224:352|224:288,2,280
352,64,141649,6,0,L|352:352|352:288,2,280
416,64,141649,6,0,L|416:352|416:288,2,280
480,64,141649,6,0,L|480:352|480:288,2,280
288,64,141649,6,0,L|288:352|288:288,2,280
256,192,141889,12,0,142369,0:0:0:0:
0,0,141889,6,0,L|512:0,1,507.5
0,32,141889,6,0,L|512:32,1,507.5
0,64,141889,6,0,L|512:64,1,507.5
0,96,141889,6,0,L|512:96,1,507.5
0,128,141889,6,0,L|512:128,1,507.5
0,160,141889,6,0,L|512:160,1,507.5
0,192,141889,6,0,L|512:192,1,507.5
0,224,141889,6,0,L|512:224,1,507.5
0,256,141889,6,0,L|512:256,1,507.5
0,288,141889,6,0,L|512:288,1,507.5
0,320,141889,6,0,L|512:320,1,507.5
0,352,141889,6,0,L|512:352,1,507.5
0,384,141889,6,0,L|512:384,1,507.5
32,64,142129,6,0,L|32:352|32:288,2,280
96,64,142129,6,0,L|96:352|96:288,2,280
160,64,142129,6,0,L|160:352|160:288,2,280
224,64,142129,6,0,L|224:352|224:288,2,280
352,64,142129,6,0,L|352:352|352:288,2,280
416,64,142129,6,0,L|416:352|416:288,2,280
480,64,142129,6,0,L|480:352|480:288,2,280
288,64,142129,6,0,L|288:352|288:288,2,280
256,192,142369,12,0,142849,0:0:0:0:
0,0,142369,6,0,L|512:0,1,507.5
0,32,142369,6,0,L|512:32,1,507.5
0,64,142369,6,0,L|512:64,1,507.5
0,96,142369,6,0,L|512:96,1,507.5
0,128,142369,6,0,L|512:128,1,507.5
0,160,142369,6,0,L|512:160,1,507.5
0,192,142369,6,0,L|512:192,1,507.5
0,224,142369,6,0,L|512:224,1,507.5
0,256,142369,6,0,L|512:256,1,507.5
0,288,142369,6,0,L|512:288,1,507.5
0,320,142369,6,0,L|512:320,1,507.5
0,352,142369,6,0,L|512:352,1,507.5
0,384,142369,6,0,L|512:384,1,507.5
32,64,142609,6,0,L|32:352|32:288,2,280
96,64,142609,6,0,L|96:352|96:288,2,280
160,64,142609,6,0,L|160:352|160:288,2,280
224,64,142609,6,0,L|224:352|224:288,2,280
352,64,142609,6,0,L|352:352|352:288,2,280
416,64,142609,6,0,L|416:352|416:288,2,280
480,64,142609,6,0,L|480:352|480:288,2,280
288,64,142609,6,0,L|288:352|288:288,2,280
256,192,142849,12,0,143329,0:0:0:0:
0,0,142849,6,0,L|512:0,1,507.5
0,32,142849,6,0,L|512:32,1,507.5
0,64,142849,6,0,L|512:64,1,507.5
0,96,142849,6,0,L|512:96,1,507.5
0,128,142849,6,0,L|512:128,1,507.5
0,160,142849,6,0,L|512:160,1,507.5
0,192,142849,6,0,L|512:192,1,507.5
0,224,142849,6,0,L|512:224,1,507.5
0,256,142849,6,0,L|512:256,1,507.5
0,288,142849,6,0,L|512:288,1,507.5
0,320,142849,6,0,L|512:320,1,507.5
0,352,142849,6,0,L|512:352,1,507.5
0,384,142849,6,0,L|512:384,1,507.5
416,64,143089,6,0,L|416:352|416:288,2,280
352,64,143089,6,0,L|352:352|352:288,2,280
288,64,143089,6,0,L|288:352|288:288,2,280
480,64,143089,6,0,L|480:352|480:288,2,280
96,64,143089,6,0,L|96:352|96:288,2,280
32,64,143089,6,0,L|32:352|32:288,2,280
224,64,143089,6,0,L|224:352|224:288,2,280
160,64,143089,6,0,L|160:352|160:288,2,280
256,192,143329,12,0,143809,0:0:0:0:
0,0,143329,6,0,L|512:0,1,507.5
0,32,143329,6,0,L|512:32,1,507.5
0,64,143329,6,0,L|512:64,1,507.5
0,96,143329,6,0,L|512:96,1,507.5
0,128,143329,6,0,L|512:128,1,507.5
0,160,143329,6,0,L|512:160,1,507.5
0,192,143329,6,0,L|512:192,1,507.5
0,224,143329,6,0,L|512:224,1,507.5
0,256,143329,6,0,L|512:256,1,507.5
0,288,143329,6,0,L|512:288,1,507.5
0,320,143329,6,0,L|512:320,1,507.5
0,352,143329,6,0,L|512:352,1,507.5
0,384,143329,6,0,L|512:384,1,507.5
416,64,143569,6,0,L|416:352|416:288,2,280
352,64,143569,6,0,L|352:352|352:288,2,280
288,64,143569,6,0,L|288:352|288:288,2,280
480,64,143569,6,0,L|480:352|480:288,2,280
96,64,143569,6,0,L|96:352|96:288,2,280
32,64,143569,6,0,L|32:352|32:288,2,280
224,64,143569,6,0,L|224:352|224:288,2,280
160,64,143569,6,0,L|160:352|160:288,2,280
256,192,143809,12,0,144289,0:0:0:0:
0,0,143809,6,0,L|512:0,1,507.5
0,32,143809,6,0,L|512:32,1,507.5
0,64,143809,6,0,L|512:64,1,507.5
0,96,143809,6,0,L|512:96,1,507.5
0,128,143809,6,0,L|512:128,1,507.5
0,160,143809,6,0,L|512:160,1,507.5
0,192,143809,6,0,L|512:192,1,507.5
0,224,143809,6,0,L|512:224,1,507.5
0,256,143809,6,0,L|512:256,1,507.5
0,288,143809,6,0,L|512:288,1,507.5
0,320,143809,6,0,L|512:320,1,507.5
0,352,143809,6,0,L|512:352,1,507.5
0,384,143809,6,0,L|512:384,1,507.5
416,64,144049,6,0,L|416:352|416:288,2,280
352,64,144049,6,0,L|352:352|352:288,2,280
288,64,144049,6,0,L|288:352|288:288,2,280
480,64,144049,6,0,L|480:352|480:288,2,280
96,64,144049,6,0,L|96:352|96:288,2,280
32,64,144049,6,0,L|32:352|32:288,2,280
224,64,144049,6,0,L|224:352|224:288,2,280
160,64,144049,6,0,L|160:352|160:288,2,280
0,256,144289,6,0,L|512:256,1,507.5
0,224,144289,6,0,L|512:224,1,507.5
0,192,144289,6,0,L|512:192,1,507.5
0,288,144289,6,0,L|512:288,1,507.5
0,384,144289,6,0,L|512:384,1,507.5
0,352,144289,6,0,L|512:352,1,507.5
0,320,144289,6,0,L|512:320,1,507.5
0,32,144289,6,0,L|512:32,1,507.5
0,0,144289,6,0,L|512:0,1,507.5
256,192,144289,12,0,144769,0:0:0:0:
0,64,144289,6,0,L|512:64,1,507.5
0,160,144289,6,0,L|512:160,1,507.5
0,128,144289,6,0,L|512:128,1,507.5
0,96,144289,6,0,L|512:96,1,507.5
416,64,144529,6,0,L|416:352|416:288,2,280
352,64,144529,6,0,L|352:352|352:288,2,280
288,64,144529,6,0,L|288:352|288:288,2,280
480,64,144529,6,0,L|480:352|480:288,2,280
96,64,144529,6,0,L|96:352|96:288,2,280
32,64,144529,6,0,L|32:352|32:288,2,280
224,64,144529,6,0,L|224:352|224:288,2,280
160,64,144529,6,0,L|160:352|160:288,2,280
0,256,144769,6,0,L|512:256,1,507.5
0,224,144769,6,0,L|512:224,1,507.5
0,192,144769,6,0,L|512:192,1,507.5
0,288,144769,6,0,L|512:288,1,507.5
0,384,144769,6,0,L|512:384,1,507.5
0,352,144769,6,0,L|512:352,1,507.5
0,320,144769,6,0,L|512:320,1,507.5
0,32,144769,6,0,L|512:32,1,507.5
0,0,144769,6,0,L|512:0,1,507.5
256,192,144769,12,0,145249,0:0:0:0:
0,64,144769,6,0,L|512:64,1,507.5
0,160,144769,6,0,L|512:160,1,507.5
0,128,144769,6,0,L|512:128,1,507.5
0,96,144769,6,0,L|512:96,1,507.5
32,64,145009,6,0,L|32:352|32:288,2,280
96,64,145009,6,0,L|96:352|96:288,2,280
160,64,145009,6,0,L|160:352|160:288,2,280
224,64,145009,6,0,L|224:352|224:288,2,280
352,64,145009,6,0,L|352:352|352:288,2,280
416,64,145009,6,0,L|416:352|416:288,2,280
480,64,145009,6,0,L|480:352|480:288,2,280
288,64,145009,6,0,L|288:352|288:288,2,280
256,192,145249,12,0,145729,0:0:0:0:
0,0,145249,6,0,L|512:0,1,507.5
0,32,145249,6,0,L|512:32,1,507.5
0,64,145249,6,0,L|512:64,1,507.5
0,96,145249,6,0,L|512:96,1,507.5
0,128,145249,6,0,L|512:128,1,507.5
0,160,145249,6,0,L|512:160,1,507.5
0,192,145249,6,0,L|512:192,1,507.5
0,224,145249,6,0,L|512:224,1,507.5
0,256,145249,6,0,L|512:256,1,507.5
0,288,145249,6,0,L|512:288,1,507.5
0,320,145249,6,0,L|512:320,1,507.5
0,352,145249,6,0,L|512:352,1,507.5
0,384,145249,6,0,L|512:384,1,507.5
32,64,145489,6,0,L|32:352|32:288,2,280
96,64,145489,6,0,L|96:352|96:288,2,280
160,64,145489,6,0,L|160:352|160:288,2,280
224,64,145489,6,0,L|224:352|224:288,2,280
352,64,145489,6,0,L|352:352|352:288,2,280
416,64,145489,6,0,L|416:352|416:288,2,280
480,64,145489,6,0,L|480:352|480:288,2,280
288,64,145489,6,0,L|288:352|288:288,2,280
0,256,145729,6,0,L|512:256,1,507.5
0,224,145729,6,0,L|512:224,1,507.5
0,192,145729,6,0,L|512:192,1,507.5
0,288,145729,6,0,L|512:288,1,507.5
0,384,145729,6,0,L|512:384,1,507.5
0,352,145729,6,0,L|512:352,1,507.5
0,320,145729,6,0,L|512:320,1,507.5
0,32,145729,6,0,L|512:32,1,507.5
0,0,145729,6,0,L|512:0,1,507.5
256,192,145729,12,0,146209,0:0:0:0:
0,64,145729,6,0,L|512:64,1,507.5
0,160,145729,6,0,L|512:160,1,507.5
0,128,145729,6,0,L|512:128,1,507.5
0,96,145729,6,0,L|512:96,1,507.5
0,288,146209,6,0,L|512:288,1,507.5
0,256,146209,6,0,L|512:256,1,507.5
0,224,146209,6,0,L|512:224,1,507.5
0,320,146209,6,0,L|512:320,1,507.5
256,192,146209,12,0,146689,0:0:0:0:
0,384,146209,6,0,L|512:384,1,507.5
0,352,146209,6,0,L|512:352,1,507.5
0,64,146209,6,0,L|512:64,1,507.5
0,32,146209,6,0,L|512:32,1,507.5
0,0,146209,6,0,L|512:0,1,507.5
0,96,146209,6,0,L|512:96,1,507.5
0,192,146209,6,0,L|512:192,1,507.5
0,160,146209,6,0,L|512:160,1,507.5
0,128,146209,6,0,L|512:128,1,507.5
416,64,146449,6,0,L|416:352|416:288,2,280
352,64,146449,6,0,L|352:352|352:288,2,280
288,64,146449,6,0,L|288:352|288:288,2,280
480,64,146449,6,0,L|480:352|480:288,2,280
96,64,146449,6,0,L|96:352|96:288,2,280
32,64,146449,6,0,L|32:352|32:288,2,280
224,64,146449,6,0,L|224:352|224:288,2,280
160,64,146449,6,0,L|160:352|160:288,2,280
256,192,146689,12,0,147169,0:0:0:0:
0,0,146689,6,0,L|512:0,1,507.5
0,32,146689,6,0,L|512:32,1,507.5
0,64,146689,6,0,L|512:64,1,507.5
0,96,146689,6,0,L|512:96,1,507.5
0,128,146689,6,0,L|512:128,1,507.5
0,160,146689,6,0,L|512:160,1,507.5
0,192,146689,6,0,L|512:192,1,507.5
0,224,146689,6,0,L|512:224,1,507.5
0,256,146689,6,0,L|512:256,1,507.5
0,288,146689,6,0,L|512:288,1,507.5
0,320,146689,6,0,L|512:320,1,507.5
0,352,146689,6,0,L|512:352,1,507.5
0,384,146689,6,0,L|512:384,1,507.5
32,64,146929,6,0,L|32:352|32:288,2,280
96,64,146929,6,0,L|96:352|96:288,2,280
160,64,146929,6,0,L|160:352|160:288,2,280
224,64,146929,6,0,L|224:352|224:288,2,280
352,64,146929,6,0,L|352:352|352:288,2,280
416,64,146929,6,0,L|416:352|416:288,2,280
480,64,146929,6,0,L|480:352|480:288,2,280
288,64,146929,6,0,L|288:352|288:288,2,280
0,256,147169,6,0,L|512:256,1,507.5
0,224,147169,6,0,L|512:224,1,507.5
0,192,147169,6,0,L|512:192,1,507.5
0,288,147169,6,0,L|512:288,1,507.5
0,384,147169,6,0,L|512:384,1,507.5
0,352,147169,6,0,L|512:352,1,507.5
0,320,147169,6,0,L|512:320,1,507.5
0,32,147169,6,0,L|512:32,1,507.5
0,0,147169,6,0,L|512:0,1,507.5
256,192,147169,12,0,147649,0:0:0:0:
0,64,147169,6,0,L|512:64,1,507.5
0,160,147169,6,0,L|512:160,1,507.5
0,128,147169,6,0,L|512:128,1,507.5
0,96,147169,6,0,L|512:96,1,507.5
32,64,147409,6,0,L|32:352|32:288,2,280
96,64,147409,6,0,L|96:352|96:288,2,280
160,64,147409,6,0,L|160:352|160:288,2,280
224,64,147409,6,0,L|224:352|224:288,2,280
352,64,147409,6,0,L|352:352|352:288,2,280
416,64,147409,6,0,L|416:352|416:288,2,280
480,64,147409,6,0,L|480:352|480:288,2,280
288,64,147409,6,0,L|288:352|288:288,2,280
256,192,147649,12,0,148129,0:0:0:0:
0,0,147649,6,0,L|512:0,1,507.5
0,32,147649,6,0,L|512:32,1,507.5
0,64,147649,6,0,L|512:64,1,507.5
0,96,147649,6,0,L|512:96,1,507.5
0,128,147649,6,0,L|512:128,1,507.5
0,160,147649,6,0,L|512:160,1,507.5
0,192,147649,6,0,L|512:192,1,507.5
0,224,147649,6,0,L|512:224,1,507.5
0,256,147649,6,0,L|512:256,1,507.5
0,288,147649,6,0,L|512:288,1,507.5
0,320,147649,6,0,L|512:320,1,507.5
0,352,147649,6,0,L|512:352,1,507.5
0,384,147649,6,0,L|512:384,1,507.5
416,64,147889,6,0,L|416:352|416:288,2,280
352,64,147889,6,0,L|352:352|352:288,2,280
288,64,147889,6,0,L|288:352|288:288,2,280
480,64,147889,6,0,L|480:352|480:288,2,280
96,64,147889,6,0,L|96:352|96:288,2,280
32,64,147889,6,0,L|32:352|32:288,2,280
224,64,147889,6,0,L|224:352|224:288,2,280
160,64,147889,6,0,L|160:352|160:288,2,280
256,192,148129,12,0,148609,0:0:0:0:
0,0,148129,6,0,L|512:0,1,507.5
0,32,148129,6,0,L|512:32,1,507.5
0,64,148129,6,0,L|512:64,1,507.5
0,96,148129,6,0,L|512:96,1,507.5
0,128,148129,6,0,L|512:128,1,507.5
0,160,148129,6,0,L|512:160,1,507.5
0,192,148129,6,0,L|512:192,1,507.5
0,224,148129,6,0,L|512:224,1,507.5
0,256,148129,6,0,L|512:256,1,507.5
0,288,148129,6,0,L|512:288,1,507.5
0,320,148129,6,0,L|512:320,1,507.5
0,352,148129,6,0,L|512:352,1,507.5
0,384,148129,6,0,L|512:384,1,507.5
32,64,148369,6,0,L|32:352|32:288,2,280
96,64,148369,6,0,L|96:352|96:288,2,280
160,64,148369,6,0,L|160:352|160:288,2,280
224,64,148369,6,0,L|224:352|224:288,2,280
352,64,148369,6,0,L|352:352|352:288,2,280
416,64,148369,6,0,L|416:352|416:288,2,280
480,64,148369,6,0,L|480:352|480:288,2,280
288,64,148369,6,0,L|288:352|288:288,2,280
0,256,148609,6,0,L|512:256,1,507.5
0,224,148609,6,0,L|512:224,1,507.5
0,192,148609,6,0,L|512:192,1,507.5
0,288,148609,6,0,L|512:288,1,507.5
0,384,148609,6,0,L|512:384,1,507.5
0,352,148609,6,0,L|512:352,1,507.5
0,320,148609,6,0,L|512:320,1,507.5
0,32,148609,6,0,L|512:32,1,507.5
0,0,148609,6,0,L|512:0,1,507.5
256,192,148609,12,0,149089,0:0:0:0:
0,64,148609,6,0,L|512:64,1,507.5
0,160,148609,6,0,L|512:160,1,507.5
0,128,148609,6,0,L|512:128,1,507.5
0,96,148609,6,0,L|512:96,1,507.5
416,64,148849,6,0,L|416:352|416:288,2,280
352,64,148849,6,0,L|352:352|352:288,2,280
288,64,148849,6,0,L|288:352|288:288,2,280
480,64,148849,6,0,L|480:352|480:288,2,280
96,64,148849,6,0,L|96:352|96:288,2,280
32,64,148849,6,0,L|32:352|32:288,2,280
224,64,148849,6,0,L|224:352|224:288,2,280
160,64,148849,6,0,L|160:352|160:288,2,280
0,256,149089,6,0,L|512:256,1,507.5
0,224,149089,6,0,L|512:224,1,507.5
0,192,149089,6,0,L|512:192,1,507.5
0,288,149089,6,0,L|512:288,1,507.5
0,384,149089,6,0,L|512:384,1,507.5
0,352,149089,6,0,L|512:352,1,507.5
0,320,149089,6,0,L|512:320,1,507.5
0,32,149089,6,0,L|512:32,1,507.5
0,0,149089,6,0,L|512:0,1,507.5
256,192,149089,12,0,149569,0:0:0:0:
0,64,149089,6,0,L|512:64,1,507.5
0,160,149089,6,0,L|512:160,1,507.5
0,128,149089,6,0,L|512:128,1,507.5
0,96,149089,6,0,L|512:96,1,507.5
416,64,149329,6,0,L|416:352|416:288,2,280
352,64,149329,6,0,L|352:352|352:288,2,280
288,64,149329,6,0,L|288:352|288:288,2,280
480,64,149329,6,0,L|480:352|480:288,2,280
96,64,149329,6,0,L|96:352|96:288,2,280
32,64,149329,6,0,L|32:352|32:288,2,280
224,64,149329,6,0,L|224:352|224:288,2,280
160,64,149329,6,0,L|160:352|160:288,2,280
0,256,149569,6,0,L|512:256,1,507.5
0,224,149569,6,0,L|512:224,1,507.5
0,192,149569,6,0,L|512:192,1,507.5
0,288,149569,6,0,L|512:288,1,507.5
0,384,149569,6,0,L|512:384,1,507.5
0,352,149569,6,0,L|512:352,1,507.5
0,320,149569,6,0,L|512:320,1,507.5
0,32,149569,6,0,L|512:32,1,507.5
0,0,149569,6,0,L|512:0,1,507.5
256,192,149569,12,0,150049,0:0:0:0:
0,64,149569,6,0,L|512:64,1,507.5
0,160,149569,6,0,L|512:160,1,507.5
0,128,149569,6,0,L|512:128,1,507.5
0,96,149569,6,0,L|512:96,1,507.5
416,64,149809,6,0,L|416:352|416:288,2,280
352,64,149809,6,0,L|352:352|352:288,2,280
288,64,149809,6,0,L|288:352|288:288,2,280
480,64,149809,6,0,L|480:352|480:288,2,280
96,64,149809,6,0,L|96:352|96:288,2,280
32,64,149809,6,0,L|32:352|32:288,2,280
224,64,149809,6,0,L|224:352|224:288,2,280
160,64,149809,6,0,L|160:352|160:288,2,280
0,256,150049,6,0,L|512:256,1,507.5
0,224,150049,6,0,L|512:224,1,507.5
0,192,150049,6,0,L|512:192,1,507.5
0,288,150049,6,0,L|512:288,1,507.5
0,384,150049,6,0,L|512:384,1,507.5
0,352,150049,6,0,L|512:352,1,507.5
0,320,150049,6,0,L|512:320,1,507.5
0,32,150049,6,0,L|512:32,1,507.5
0,0,150049,6,0,L|512:0,1,507.5
256,192,150049,12,0,150529,0:0:0:0:
0,64,150049,6,0,L|512:64,1,507.5
0,160,150049,6,0,L|512:160,1,507.5
0,128,150049,6,0,L|512:128,1,507.5
0,96,150049,6,0,L|512:96,1,507.5
416,64,150289,6,0,L|416:352|416:288,2,280
352,64,150289,6,0,L|352:352|352:288,2,280
288,64,150289,6,0,L|288:352|288:288,2,280
480,64,150289,6,0,L|480:352|480:288,2,280
96,64,150289,6,0,L|96:352|96:288,2,280
32,64,150289,6,0,L|32:352|32:288,2,280
224,64,150289,6,0,L|224:352|224:288,2,280
160,64,150289,6,0,L|160:352|160:288,2,280
0,256,150529,6,0,L|512:256,1,507.5
0,224,150529,6,0,L|512:224,1,507.5
0,192,150529,6,0,L|512:192,1,507.5
0,288,150529,6,0,L|512:288,1,507.5
0,384,150529,6,0,L|512:384,1,507.5
0,352,150529,6,0,L|512:352,1,507.5
0,320,150529,6,0,L|512:320,1,507.5
0,32,150529,6,0,L|512:32,1,507.5
0,0,150529,6,0,L|512:0,1,507.5
256,192,150529,12,0,151009,0:0:0:0:
0,64,150529,6,0,L|512:64,1,507.5
0,160,150529,6,0,L|512:160,1,507.5
0,128,150529,6,0,L|512:128,1,507.5
0,96,150529,6,0,L|512:96,1,507.5
32,64,150769,6,0,L|32:352|32:288,2,280
96,64,150769,6,0,L|96:352|96:288,2,280
160,64,150769,6,0,L|160:352|160:288,2,280
224,64,150769,6,0,L|224:352|224:288,2,280
352,64,150769,6,0,L|352:352|352:288,2,280
416,64,150769,6,0,L|416:352|416:288,2,280
480,64,150769,6,0,L|480:352|480:288,2,280
288,64,150769,6,0,L|288:352|288:288,2,280
0,256,151009,6,0,L|512:256,1,507.5
0,224,151009,6,0,L|512:224,1,507.5
0,192,151009,6,0,L|512:192,1,507.5
0,288,151009,6,0,L|512:288,1,507.5
0,384,151009,6,0,L|512:384,1,507.5
0,352,151009,6,0,L|512:352,1,507.5
0,320,151009,6,0,L|512:320,1,507.5
0,32,151009,6,0,L|512:32,1,507.5
0,0,151009,6,0,L|512:0,1,507.5
256,192,151009,12,0,151489,0:0:0:0:
0,64,151009,6,0,L|512:64,1,507.5
0,160,151009,6,0,L|512:160,1,507.5
0,128,151009,6,0,L|512:128,1,507.5
0,96,151009,6,0,L|512:96,1,507.5
32,64,151249,6,0,L|32:352|32:288,2,280
96,64,151249,6,0,L|96:352|96:288,2,280
160,64,151249,6,0,L|160:352|160:288,2,280
224,64,151249,6,0,L|224:352|224:288,2,280
352,64,151249,6,0,L|352:352|352:288,2,280
416,64,151249,6,0,L|416:352|416:288,2,280
480,64,151249,6,0,L|480:352|480:288,2,280
288,64,151249,6,0,L|288:352|288:288,2,280
0,256,151489,6,0,L|512:256,1,507.5
0,224,151489,6,0,L|512:224,1,507.5
0,192,151489,6,0,L|512:192,1,507.5
0,288,151489,6,0,L|512:288,1,507.5
0,384,151489,6,0,L|512:384,1,507.5
0,352,151489,6,0,L|512:352,1,507.5
0,320,151489,6,0,L|512:320,1,507.5
0,32,151489,6,0,L|512:32,1,507.5
0,0,151489,6,0,L|512:0,1,507.5
256,192,151489,12,0,151969,0:0:0:0:
0,64,151489,6,0,L|512:64,1,507.5
0,160,151489,6,0,L|512:160,1,507.5
0,128,151489,6,0,L|512:128,1,507.5
0,96,151489,6,0,L|512:96,1,507.5
32,64,151729,6,0,L|32:352|32:288,2,280
96,64,151729,6,0,L|96:352|96:288,2,280
160,64,151729,6,0,L|160:352|160:288,2,280
224,64,151729,6,0,L|224:352|224:288,2,280
352,64,151729,6,0,L|352:352|352:288,2,280
416,64,151729,6,0,L|416:352|416:288,2,280
480,64,151729,6,0,L|480:352|480:288,2,280
288,64,151729,6,0,L|288:352|288:288,2,280
256,192,151969,12,0,152449,0:0:0:0:
0,0,151969,6,0,L|512:0,1,507.5
0,32,151969,6,0,L|512:32,1,507.5
0,64,151969,6,0,L|512:64,1,507.5
0,96,151969,6,0,L|512:96,1,507.5
0,128,151969,6,0,L|512:128,1,507.5
0,160,151969,6,0,L|512:160,1,507.5
0,192,151969,6,0,L|512:192,1,507.5
0,224,151969,6,0,L|512:224,1,507.5
0,256,151969,6,0,L|512:256,1,507.5
0,288,151969,6,0,L|512:288,1,507.5
0,320,151969,6,0,L|512:320,1,507.5
0,352,151969,6,0,L|512:352,1,507.5
0,384,151969,6,0,L|512:384,1,507.5
32,64,152209,6,0,L|32:352|32:288,2,280
96,64,152209,6,0,L|96:352|96:288,2,280
160,64,152209,6,0,L|160:352|160:288,2,280
224,64,152209,6,0,L|224:352|224:288,2,280
352,64,152209,6,0,L|352:352|352:288,2,280
416,64,152209,6,0,L|416:352|416:288,2,280
480,64,152209,6,0,L|480:352|480:288,2,280
288,64,152209,6,0,L|288:352|288:288,2,280
256,192,152449,12,0,152929,0:0:0:0:
0,0,152449,6,0,L|512:0,1,507.5
0,32,152449,6,0,L|512:32,1,507.5
0,64,152449,6,0,L|512:64,1,507.5
0,96,152449,6,0,L|512:96,1,507.5
0,128,152449,6,0,L|512:128,1,507.5
0,160,152449,6,0,L|512:160,1,507.5
0,192,152449,6,0,L|512:192,1,507.5
0,224,152449,6,0,L|512:224,1,507.5
0,256,152449,6,0,L|512:256,1,507.5
0,288,152449,6,0,L|512:288,1,507.5
0,320,152449,6,0,L|512:320,1,507.5
0,352,152449,6,0,L|512:352,1,507.5
0,384,152449,6,0,L|512:384,1,507.5
416,64,152689,6,0,L|416:352|416:288,2,280
352,64,152689,6,0,L|352:352|352:288,2,280
288,64,152689,6,0,L|288:352|288:288,2,280
480,64,152689,6,0,L|480:352|480:288,2,280
96,64,152689,6,0,L|96:352|96:288,2,280
32,64,152689,6,0,L|32:352|32:288,2,280
224,64,152689,6,0,L|224:352|224:288,2,280
160,64,152689,6,0,L|160:352|160:288,2,280
0,256,152929,6,0,L|512:256,1,507.5
0,224,152929,6,0,L|512:224,1,507.5
0,192,152929,6,0,L|512:192,1,507.5
0,288,152929,6,0,L|512:288,1,507.5
0,384,152929,6,0,L|512:384,1,507.5
0,352,152929,6,0,L|512:352,1,507.5
0,320,152929,6,0,L|512:320,1,507.5
0,32,152929,6,0,L|512:32,1,507.5
0,0,152929,6,0,L|512:0,1,507.5
256,192,152929,12,0,153409,0:0:0:0:
0,64,152929,6,0,L|512:64,1,507.5
0,160,152929,6,0,L|512:160,1,507.5
0,128,152929,6,0,L|512:128,1,507.5
0,96,152929,6,0,L|512:96,1,507.5
416,64,153169,6,0,L|416:352|416:288,2,280
352,64,153169,6,0,L|352:352|352:288,2,280
288,64,153169,6,0,L|288:352|288:288,2,280
480,64,153169,6,0,L|480:352|480:288,2,280
96,64,153169,6,0,L|96:352|96:288,2,280
32,64,153169,6,0,L|32:352|32:288,2,280
224,64,153169,6,0,L|224:352|224:288,2,280
160,64,153169,6,0,L|160:352|160:288,2,280
256,192,153409,12,0,153889,0:0:0:0:
0,0,153409,6,0,L|512:0,1,507.5
0,32,153409,6,0,L|512:32,1,507.5
0,64,153409,6,0,L|512:64,1,507.5
0,96,153409,6,0,L|512:96,1,507.5
0,128,153409,6,0,L|512:128,1,507.5
0,160,153409,6,0,L|512:160,1,507.5
0,192,153409,6,0,L|512:192,1,507.5
0,224,153409,6,0,L|512:224,1,507.5
0,256,153409,6,0,L|512:256,1,507.5
0,288,153409,6,0,L|512:288,1,507.5
0,320,153409,6,0,L|512:320,1,507.5
0,352,153409,6,0,L|512:352,1,507.5
0,384,153409,6,0,L|512:384,1,507.5
0,0,153889,6,0,L|512:0,1,507.5
0,32,153889,6,0,L|512:32,1,507.5
0,64,153889,6,0,L|512:64,1,507.5
0,96,153889,6,0,L|512:96,1,507.5
0,128,153889,6,0,L|512:128,1,507.5
0,160,153889,6,0,L|512:160,1,507.5
0,192,153889,6,0,L|512:192,1,507.5
0,224,153889,6,0,L|512:224,1,507.5
0,256,153889,6,0,L|512:256,1,507.5
0,288,153889,6,0,L|512:288,1,507.5
0,320,153889,6,0,L|512:320,1,507.5
0,352,153889,6,0,L|512:352,1,507.5
0,384,153889,6,0,L|512:384,1,507.5
256,192,153889,12,0,154369,0:0:0:0:
32,64,154129,6,0,L|32:352|32:288,2,280
96,64,154129,6,0,L|96:352|96:288,2,280
160,64,154129,6,0,L|160:352|160:288,2,280
224,64,154129,6,0,L|224:352|224:288,2,280
352,64,154129,6,0,L|352:352|352:288,2,280
416,64,154129,6,0,L|416:352|416:288,2,280
480,64,154129,6,0,L|480:352|480:288,2,280
288,64,154129,6,0,L|288:352|288:288,2,280
0,256,154369,6,0,L|512:256,1,507.5
0,224,154369,6,0,L|512:224,1,507.5
0,192,154369,6,0,L|512:192,1,507.5
0,288,154369,6,0,L|512:288,1,507.5
0,384,154369,6,0,L|512:384,1,507.5
0,352,154369,6,0,L|512:352,1,507.5
0,320,154369,6,0,L|512:320,1,507.5
0,32,154369,6,0,L|512:32,1,507.5
0,0,154369,6,0,L|512:0,1,507.5
256,192,154369,12,0,154849,0:0:0:0:
0,64,154369,6,0,L|512:64,1,507.5
0,160,154369,6,0,L|512:160,1,507.5
0,128,154369,6,0,L|512:128,1,507.5
0,96,154369,6,0,L|512:96,1,507.5
416,64,154609,6,0,L|416:352|416:288,2,280
352,64,154609,6,0,L|352:352|352:288,2,280
288,64,154609,6,0,L|288:352|288:288,2,280
480,64,154609,6,0,L|480:352|480:288,2,280
96,64,154609,6,0,L|96:352|96:288,2,280
32,64,154609,6,0,L|32:352|32:288,2,280
224,64,154609,6,0,L|224:352|224:288,2,280
160,64,154609,6,0,L|160:352|160:288,2,280
256,192,154849,12,0,155329,0:0:0:0:
0,0,154849,6,0,L|512:0,1,507.5
0,32,154849,6,0,L|512:32,1,507.5
0,64,154849,6,0,L|512:64,1,507.5
0,96,154849,6,0,L|512:96,1,507.5
0,128,154849,6,0,L|512:128,1,507.5
0,160,154849,6,0,L|512:160,1,507.5
0,192,154849,6,0,L|512:192,1,507.5
0,224,154849,6,0,L|512:224,1,507.5
0,256,154849,6,0,L|512:256,1,507.5
0,288,154849,6,0,L|512:288,1,507.5
0,320,154849,6,0,L|512:320,1,507.5
0,352,154849,6,0,L|512:352,1,507.5
0,384,154849,6,0,L|512:384,1,507.5
416,64,155089,6,0,L|416:352|416:288,2,280
352,64,155089,6,0,L|352:352|352:288,2,280
288,64,155089,6,0,L|288:352|288:288,2,280
480,64,155089,6,0,L|480:352|480:288,2,280
96,64,155089,6,0,L|96:352|96:288,2,280
32,64,155089,6,0,L|32:352|32:288,2,280
224,64,155089,6,0,L|224:352|224:288,2,280
160,64,155089,6,0,L|160:352|160:288,2,280
0,256,155329,6,0,L|512:256,1,507.5
0,224,155329,6,0,L|512:224,1,507.5
0,192,155329,6,0,L|512:192,1,507.5
0,288,155329,6,0,L|512:288,1,507.5
0,384,155329,6,0,L|512:384,1,507.5
0,352,155329,6,0,L|512:352,1,507.5
0,320,155329,6,0,L|512:320,1,507.5
0,32,155329,6,0,L|512:32,1,507.5
0,0,155329,6,0,L|512:0,1,507.5
256,192,155329,12,0,155809,0:0:0:0:
0,64,155329,6,0,L|512:64,1,507.5
0,160,155329,6,0,L|512:160,1,507.5
0,128,155329,6,0,L|512:128,1,507.5
0,96,155329,6,0,L|512:96,1,507.5
32,64,155569,6,0,L|32:352|32:288,2,280
96,64,155569,6,0,L|96:352|96:288,2,280
160,64,155569,6,0,L|160:352|160:288,2,280
224,64,155569,6,0,L|224:352|224:288,2,280
352,64,155569,6,0,L|352:352|352:288,2,280
416,64,155569,6,0,L|416:352|416:288,2,280
480,64,155569,6,0,L|480:352|480:288,2,280
288,64,155569,6,0,L|288:352|288:288,2,280
0,256,155809,6,0,L|512:256,1,507.5
0,224,155809,6,0,L|512:224,1,507.5
0,192,155809,6,0,L|512:192,1,507.5
0,288,155809,6,0,L|512:288,1,507.5
0,384,155809,6,0,L|512:384,1,507.5
0,352,155809,6,0,L|512:352,1,507.5
0,320,155809,6,0,L|512:320,1,507.5
0,32,155809,6,0,L|512:32,1,507.5
0,0,155809,6,0,L|512:0,1,507.5
256,192,155809,12,0,156289,0:0:0:0:
0,64,155809,6,0,L|512:64,1,507.5
0,160,155809,6,0,L|512:160,1,507.5
0,128,155809,6,0,L|512:128,1,507.5
0,96,155809,6,0,L|512:96,1,507.5
416,64,156049,6,0,L|416:352|416:288,2,280
352,64,156049,6,0,L|352:352|352:288,2,280
288,64,156049,6,0,L|288:352|288:288,2,280
480,64,156049,6,0,L|480:352|480:288,2,280
96,64,156049,6,0,L|96:352|96:288,2,280
32,64,156049,6,0,L|32:352|32:288,2,280
224,64,156049,6,0,L|224:352|224:288,2,280
160,64,156049,6,0,L|160:352|160:288,2,280
256,192,156289,12,0,156769,0:0:0:0:
0,0,156289,6,0,L|512:0,1,507.5
0,32,156289,6,0,L|512:32,1,507.5
0,64,156289,6,0,L|512:64,1,507.5
0,96,156289,6,0,L|512:96,1,507.5
0,128,156289,6,0,L|512:128,1,507.5
0,160,156289,6,0,L|512:160,1,507.5
0,192,156289,6,0,L|512:192,1,507.5
0,224,156289,6,0,L|512:224,1,507.5
0,256,156289,6,0,L|512:256,1,507.5
0,288,156289,6,0,L|512:288,1,507.5
0,320,156289,6,0,L|512:320,1,507.5
0,352,156289,6,0,L|512:352,1,507.5
0,384,156289,6,0,L|512:384,1,507.5
32,64,156529,6,0,L|32:352|32:288,2,280
96,64,156529,6,0,L|96:352|96:288,2,280
160,64,156529,6,0,L|160:352|160:288,2,280
224,64,156529,6,0,L|224:352|224:288,2,280
352,64,156529,6,0,L|352:352|352:288,2,280
416,64,156529,6,0,L|416:352|416:288,2,280
480,64,156529,6,0,L|480:352|480:288,2,280
288,64,156529,6,0,L|288:352|288:288,2,280
256,192,156769,12,0,157249,0:0:0:0:
0,0,156769,6,0,L|512:0,1,507.5
0,32,156769,6,0,L|512:32,1,507.5
0,64,156769,6,0,L|512:64,1,507.5
0,96,156769,6,0,L|512:96,1,507.5
0,128,156769,6,0,L|512:128,1,507.5
0,160,156769,6,0,L|512:160,1,507.5
0,192,156769,6,0,L|512:192,1,507.5
0,224,156769,6,0,L|512:224,1,507.5
0,256,156769,6,0,L|512:256,1,507.5
0,288,156769,6,0,L|512:288,1,507.5
0,320,156769,6,0,L|512:320,1,507.5
0,352,156769,6,0,L|512:352,1,507.5
0,384,156769,6,0,L|512:384,1,507.5
32,64,157009,6,0,L|32:352|32:288,2,280
96,64,157009,6,0,L|96:352|96:288,2,280
160,64,157009,6,0,L|160:352|160:288,2,280
224,64,157009,6,0,L|224:352|224:288,2,280
352,64,157009,6,0,L|352:352|352:288,2,280
416,64,157009,6,0,L|416:352|416:288,2,280
480,64,157009,6,0,L|480:352|480:288,2,280
288,64,157009,6,0,L|288:352|288:288,2,280
256,192,157249,12,0,157729,0:0:0:0:
0,0,157249,6,0,L|512:0,1,507.5
0,32,157249,6,0,L|512:32,1,507.5
0,64,157249,6,0,L|512:64,1,507.5
0,96,157249,6,0,L|512:96,1,507.5
0,128,157249,6,0,L|512:128,1,507.5
0,160,157249,6,0,L|512:160,1,507.5
0,192,157249,6,0,L|512:192,1,507.5
0,224,157249,6,0,L|512:224,1,507.5
0,256,157249,6,0,L|512:256,1,507.5
0,288,157249,6,0,L|512:288,1,507.5
0,320,157249,6,0,L|512:320,1,507.5
0,352,157249,6,0,L|512:352,1,507.5
0,384,157249,6,0,L|512:384,1,507.5
32,64,157489,6,0,L|32:352|32:288,2,280
96,64,157489,6,0,L|96:352|96:288,2,280
160,64,157489,6,0,L|160:352|160:288,2,280
224,64,157489,6,0,L|224:352|224:288,2,280
352,64,157489,6,0,L|352:352|352:288,2,280
416,64,157489,6,0,L|416:352|416:288,2,280
480,64,157489,6,0,L|480:352|480:288,2,280
288,64,157489,6,0,L|288:352|288:288,2,280
256,192,157729,12,0,158209,0:0:0:0:
0,0,157729,6,0,L|512:0,1,507.5
0,32,157729,6,0,L|512:32,1,507.5
0,64,157729,6,0,L|512:64,1,507.5
0,96,157729,6,0,L|512:96,1,507.5
0,128,157729,6,0,L|512:128,1,507.5
0,160,157729,6,0,L|512:160,1,507.5
0,192,157729,6,0,L|512:192,1,507.5
0,224,157729,6,0,L|512:224,1,507.5
0,256,157729,6,0,L|512:256,1,507.5
0,288,157729,6,0,L|512:288,1,507.5
0,320,157729,6,0,L|512:320,1,507.5
0,352,157729,6,0,L|512:352,1,507.5
0,384,157729,6,0,L|512:384,1,507.5
32,64,157969,6,0,L|32:352|32:288,2,280
96,64,157969,6,0,L|96:352|96:288,2,280
160,64,157969,6,0,L|160:352|160:288,2,280
224,64,157969,6,0,L|224:352|224:288,2,280
352,64,157969,6,0,L|352:352|352:288,2,280
416,64,157969,6,0,L|416:352|416:288,2,280
480,64,157969,6,0,L|480:352|480:288,2,280
288,64,157969,6,0,L|288:352|288:288,2,280
256,192,158209,12,0,158689,0:0:0:0:
0,0,158209,6,0,L|512:0,1,507.5
0,32,158209,6,0,L|512:32,1,507.5
0,64,158209,6,0,L|512:64,1,507.5
0,96,158209,6,0,L|512:96,1,507.5
0,128,158209,6,0,L|512:128,1,507.5
0,160,158209,6,0,L|512:160,1,507.5
0,192,158209,6,0,L|512:192,1,507.5
0,224,158209,6,0,L|512:224,1,507.5
0,256,158209,6,0,L|512:256,1,507.5
0,288,158209,6,0,L|512:288,1,507.5
0,320,158209,6,0,L|512:320,1,507.5
0,352,158209,6,0,L|512:352,1,507.5
0,384,158209,6,0,L|512:384,1,507.5
416,64,158449,6,0,L|416:352|416:288,2,280
352,64,158449,6,0,L|352:352|352:288,2,280
288,64,158449,6,0,L|288:352|288:288,2,280
480,64,158449,6,0,L|480:352|480:288,2,280
96,64,158449,6,0,L|96:352|96:288,2,280
32,64,158449,6,0,L|32:352|32:288,2,280
224,64,158449,6,0,L|224:352|224:288,2,280
160,64,158449,6,0,L|160:352|160:288,2,280
256,192,158689,12,0,159169,0:0:0:0:
0,0,158689,6,0,L|512:0,1,507.5
0,32,158689,6,0,L|512:32,1,507.5
0,64,158689,6,0,L|512:64,1,507.5
0,96,158689,6,0,L|512:96,1,507.5
0,128,158689,6,0,L|512:128,1,507.5
0,160,158689,6,0,L|512:160,1,507.5
0,192,158689,6,0,L|512:192,1,507.5
0,224,158689,6,0,L|512:224,1,507.5
0,256,158689,6,0,L|512:256,1,507.5
0,288,158689,6,0,L|512:288,1,507.5
0,320,158689,6,0,L|512:320,1,507.5
0,352,158689,6,0,L|512:352,1,507.5
0,384,158689,6,0,L|512:384,1,507.5
416,64,158929,6,0,L|416:352|416:288,2,280
352,64,158929,6,0,L|352:352|352:288,2,280
288,64,158929,6,0,L|288:352|288:288,2,280
480,64,158929,6,0,L|480:352|480:288,2,280
96,64,158929,6,0,L|96:352|96:288,2,280
32,64,158929,6,0,L|32:352|32:288,2,280
224,64,158929,6,0,L|224:352|224:288,2,280
160,64,158929,6,0,L|160:352|160:288,2,280
256,192,159169,12,0,159649,0:0:0:0:
0,0,159169,6,0,L|512:0,1,507.5
0,32,159169,6,0,L|512:32,1,507.5
0,64,159169,6,0,L|512:64,1,507.5
0,96,159169,6,0,L|512:96,1,507.5
0,128,159169,6,0,L|512:128,1,507.5
0,160,159169,6,0,L|512:160,1,507.5
0,192,159169,6,0,L|512:192,1,507.5
0,224,159169,6,0,L|512:224,1,507.5
0,256,159169,6,0,L|512:256,1,507.5
0,288,159169,6,0,L|512:288,1,507.5
0,320,159169,6,0,L|512:320,1,507.5
0,352,159169,6,0,L|512:352,1,507.5
0,384,159169,6,0,L|512:384,1,507.5
416,64,159409,6,0,L|416:352|416:288,2,280
352,64,159409,6,0,L|352:352|352:288,2,280
288,64,159409,6,0,L|288:352|288:288,2,280
480,64,159409,6,0,L|480:352|480:288,2,280
96,64,159409,6,0,L|96:352|96:288,2,280
32,64,159409,6,0,L|32:352|32:288,2,280
224,64,159409,6,0,L|224:352|224:288,2,280
160,64,159409,6,0,L|160:352|160:288,2,280
0,256,159649,6,0,L|512:256,1,507.5
0,224,159649,6,0,L|512:224,1,507.5
0,192,159649,6,0,L|512:192,1,507.5
0,288,159649,6,0,L|512:288,1,507.5
0,384,159649,6,0,L|512:384,1,507.5
0,352,159649,6,0,L|512:352,1,507.5
0,320,159649,6,0,L|512:320,1,507.5
0,32,159649,6,0,L|512:32,1,507.5
0,0,159649,6,0,L|512:0,1,507.5
256,192,159649,12,0,160129,0:0:0:0:
0,64,159649,6,0,L|512:64,1,507.5
0,160,159649,6,0,L|512:160,1,507.5
0,128,159649,6,0,L|512:128,1,507.5
0,96,159649,6,0,L|512:96,1,507.5
416,64,159889,6,0,L|416:352|416:288,2,280
352,64,159889,6,0,L|352:352|352:288,2,280
288,64,159889,6,0,L|288:352|288:288,2,280
480,64,159889,6,0,L|480:352|480:288,2,280
96,64,159889,6,0,L|96:352|96:288,2,280
32,64,159889,6,0,L|32:352|32:288,2,280
224,64,159889,6,0,L|224:352|224:288,2,280
160,64,159889,6,0,L|160:352|160:288,2,280
0,256,160129,6,0,L|512:256,1,507.5
0,224,160129,6,0,L|512:224,1,507.5
0,192,160129,6,0,L|512:192,1,507.5
0,288,160129,6,0,L|512:288,1,507.5
0,384,160129,6,0,L|512:384,1,507.5
0,352,160129,6,0,L|512:352,1,507.5
0,320,160129,6,0,L|512:320,1,507.5
0,32,160129,6,0,L|512:32,1,507.5
0,0,160129,6,0,L|512:0,1,507.5
256,192,160129,12,0,160609,0:0:0:0:
0,64,160129,6,0,L|512:64,1,507.5
0,160,160129,6,0,L|512:160,1,507.5
0,128,160129,6,0,L|512:128,1,507.5
0,96,160129,6,0,L|512:96,1,507.5
32,64,160369,6,0,L|32:352|32:288,2,280
96,64,160369,6,0,L|96:352|96:288,2,280
160,64,160369,6,0,L|160:352|160:288,2,280
224,64,160369,6,0,L|224:352|224:288,2,280
352,64,160369,6,0,L|352:352|352:288,2,280
416,64,160369,6,0,L|416:352|416:288,2,280
480,64,160369,6,0,L|480:352|480:288,2,280
288,64,160369,6,0,L|288:352|288:288,2,280
256,192,160609,12,0,161089,0:0:0:0:
0,0,160609,6,0,L|512:0,1,507.5
0,32,160609,6,0,L|512:32,1,507.5
0,64,160609,6,0,L|512:64,1,507.5
0,96,160609,6,0,L|512:96,1,507.5
0,128,160609,6,0,L|512:128,1,507.5
0,160,160609,6,0,L|512:160,1,507.5
0,192,160609,6,0,L|512:192,1,507.5
0,224,160609,6,0,L|512:224,1,507.5
0,256,160609,6,0,L|512:256,1,507.5
0,288,160609,6,0,L|512:288,1,507.5
0,320,160609,6,0,L|512:320,1,507.5
0,352,160609,6,0,L|512:352,1,507.5
0,384,160609,6,0,L|512:384,1,507.5
32,64,160849,6,0,L|32:352|32:288,2,280
96,64,160849,6,0,L|96:352|96:288,2,280
160,64,160849,6,0,L|160:352|160:288,2,280
224,64,160849,6,0,L|224:352|224:288,2,280
352,64,160849,6,0,L|352:352|352:288,2,280
416,64,160849,6,0,L|416:352|416:288,2,280
480,64,160849,6,0,L|480:352|480:288,2,280
288,64,160849,6,0,L|288:352|288:288,2,280
0,256,161089,6,0,L|512:256,1,507.5
0,224,161089,6,0,L|512:224,1,507.5
0,192,161089,6,0,L|512:192,1,507.5
0,288,161089,6,0,L|512:288,1,507.5
0,384,161089,6,0,L|512:384,1,507.5
0,352,161089,6,0,L|512:352,1,507.5
0,320,161089,6,0,L|512:320,1,507.5
0,32,161089,6,0,L|512:32,1,507.5
0,0,161089,6,0,L|512:0,1,507.5
256,192,161089,12,0,161569,0:0:0:0:
0,64,161089,6,0,L|512:64,1,507.5
0,160,161089,6,0,L|512:160,1,507.5
0,128,161089,6,0,L|512:128,1,507.5
0,96,161089,6,0,L|512:96,1,507.5
0,288,161569,6,0,L|512:288,1,507.5
0,256,161569,6,0,L|512:256,1,507.5
0,224,161569,6,0,L|512:224,1,507.5
0,320,161569,6,0,L|512:320,1,507.5
256,192,161569,12,0,162049,0:0:0:0:
0,384,161569,6,0,L|512:384,1,507.5
0,352,161569,6,0,L|512:352,1,507.5
0,64,161569,6,0,L|512:64,1,507.5
0,32,161569,6,0,L|512:32,1,507.5
0,0,161569,6,0,L|512:0,1,507.5
0,96,161569,6,0,L|512:96,1,507.5
0,192,161569,6,0,L|512:192,1,507.5
0,160,161569,6,0,L|512:160,1,507.5
0,128,161569,6,0,L|512:128,1,507.5
416,64,161809,6,0,L|416:352|416:288,2,280
352,64,161809,6,0,L|352:352|352:288,2,280
288,64,161809,6,0,L|288:352|288:288,2,280
480,64,161809,6,0,L|480:352|480:288,2,280
96,64,161809,6,0,L|96:352|96:288,2,280
32,64,161809,6,0,L|32:352|32:288,2,280
224,64,161809,6,0,L|224:352|224:288,2,280
160,64,161809,6,0,L|160:352|160:288,2,280
0,256,162049,6,0,L|512:256,1,507.5
0,224,162049,6,0,L|512:224,1,507.5
0,192,162049,6,0,L|512:192,1,507.5
0,288,162049,6,0,L|512:288,1,507.5
0,384,162049,6,0,L|512:384,1,507.5
0,352,162049,6,0,L|512:352,1,507.5
0,320,162049,6,0,L|512:320,1,507.5
0,32,162049,6,0,L|512:32,1,507.5
0,0,162049,6,0,L|512:0,1,507.5
256,192,162049,12,0,162529,0:0:0:0:
0,64,162049,6,0,L|512:64,1,507.5
0,160,162049,6,0,L|512:160,1,507.5
0,128,162049,6,0,L|512:128,1,507.5
0,96,162049,6,0,L|512:96,1,507.5
32,64,162289,6,0,L|32:352|32:288,2,280
96,64,162289,6,0,L|96:352|96:288,2,280
160,64,162289,6,0,L|160:352|160:288,2,280
224,64,162289,6,0,L|224:352|224:288,2,280
352,64,162289,6,0,L|352:352|352:288,2,280
416,64,162289,6,0,L|416:352|416:288,2,280
480,64,162289,6,0,L|480:352|480:288,2,280
288,64,162289,6,0,L|288:352|288:288,2,280
256,192,162529,12,0,163009,0:0:0:0:
0,0,162529,6,0,L|512:0,1,507.5
0,32,162529,6,0,L|512:32,1,507.5
0,64,162529,6,0,L|512:64,1,507.5
0,96,162529,6,0,L|512:96,1,507.5
0,128,162529,6,0,L|512:128,1,507.5
0,160,162529,6,0,L|512:160,1,507.5
0,192,162529,6,0,L|512:192,1,507.5
0,224,162529,6,0,L|512:224,1,507.5
0,256,162529,6,0,L|512:256,1,507.5
0,288,162529,6,0,L|512:288,1,507.5
0,320,162529,6,0,L|512:320,1,507.5
0,352,162529,6,0,L|512:352,1,507.5
0,384,162529,6,0,L|512:384,1,507.5
416,64,162769,6,0,L|416:352|416:288,2,280
352,64,162769,6,0,L|352:352|352:288,2,280
288,64,162769,6,0,L|288:352|288:288,2,280
480,64,162769,6,0,L|480:352|480:288,2,280
96,64,162769,6,0,L|96:352|96:288,2,280
32,64,162769,6,0,L|32:352|32:288,2,280
224,64,162769,6,0,L|224:352|224:288,2,280
160,64,162769,6,0,L|160:352|160:288,2,280
0,256,163009,6,0,L|512:256,1,507.5
0,224,163009,6,0,L|512:224,1,507.5
0,192,163009,6,0,L|512:192,1,507.5
0,288,163009,6,0,L|512:288,1,507.5
0,384,163009,6,0,L|512:384,1,507.5
0,352,163009,6,0,L|512:352,1,507.5
0,320,163009,6,0,L|512:320,1,507.5
0,32,163009,6,0,L|512:32,1,507.5
0,0,163009,6,0,L|512:0,1,507.5
256,192,163009,12,0,163489,0:0:0:0:
0,64,163009,6,0,L|512:64,1,507.5
0,160,163009,6,0,L|512:160,1,507.5
0,128,163009,6,0,L|512:128,1,507.5
0,96,163009,6,0,L|512:96,1,507.5
32,64,163249,6,0,L|32:352|32:288,2,280
96,64,163249,6,0,L|96:352|96:288,2,280
160,64,163249,6,0,L|160:352|160:288,2,280
224,64,163249,6,0,L|224:352|224:288,2,280
352,64,163249,6,0,L|352:352|352:288,2,280
416,64,163249,6,0,L|416:352|416:288,2,280
480,64,163249,6,0,L|480:352|480:288,2,280
288,64,163249,6,0,L|288:352|288:288,2,280
256,192,163489,12,0,163969,0:0:0:0:
0,0,163489,6,0,L|512:0,1,507.5
0,32,163489,6,0,L|512:32,1,507.5
0,64,163489,6,0,L|512:64,1,507.5
0,96,163489,6,0,L|512:96,1,507.5
0,128,163489,6,0,L|512:128,1,507.5
0,160,163489,6,0,L|512:160,1,507.5
0,192,163489,6,0,L|512:192,1,507.5
0,224,163489,6,0,L|512:224,1,507.5
0,256,163489,6,0,L|512:256,1,507.5
0,288,163489,6,0,L|512:288,1,507.5
0,320,163489,6,0,L|512:320,1,507.5
0,352,163489,6,0,L|512:352,1,507.5
0,384,163489,6,0,L|512:384,1,507.5
416,64,163729,6,0,L|416:352|416:288,2,280
352,64,163729,6,0,L|352:352|352:288,2,280
288,64,163729,6,0,L|288:352|288:288,2,280
480,64,163729,6,0,L|480:352|480:288,2,280
96,64,163729,6,0,L|96:352|96:288,2,280
32,64,163729,6,0,L|32:352|32:288,2,280
224,64,163729,6,0,L|224:352|224:288,2,280
160,64,163729,6,0,L|160:352|160:288,2,280
0,256,163969,6,0,L|512:256,1,507.5
0,224,163969,6,0,L|512:224,1,507.5
0,192,163969,6,0,L|512:192,1,507.5
0,288,163969,6,0,L|512:288,1,507.5
0,384,163969,6,0,L|512:384,1,507.5
0,352,163969,6,0,L|512:352,1,507.5
0,320,163969,6,0,L|512:320,1,507.5
0,32,163969,6,0,L|512:32,1,507.5
0,0,163969,6,0,L|512:0,1,507.5
256,192,163969,12,0,164449,0:0:0:0:
0,64,163969,6,0,L|512:64,1,507.5
0,160,163969,6,0,L|512:160,1,507.5
0,128,163969,6,0,L|512:128,1,507.5
0,96,163969,6,0,L|512:96,1,507.5
32,64,164209,6,0,L|32:352|32:288,2,280
96,64,164209,6,0,L|96:352|96:288,2,280
160,64,164209,6,0,L|160:352|160:288,2,280
224,64,164209,6,0,L|224:352|224:288,2,280
352,64,164209,6,0,L|352:352|352:288,2,280
416,64,164209,6,0,L|416:352|416:288,2,280
480,64,164209,6,0,L|480:352|480:288,2,280
288,64,164209,6,0,L|288:352|288:288,2,280
256,192,164449,12,0,164929,0:0:0:0:
0,0,164449,6,0,L|512:0,1,507.5
0,32,164449,6,0,L|512:32,1,507.5
0,64,164449,6,0,L|512:64,1,507.5
0,96,164449,6,0,L|512:96,1,507.5
0,128,164449,6,0,L|512:128,1,507.5
0,160,164449,6,0,L|512:160,1,507.5
0,192,164449,6,0,L|512:192,1,507.5
0,224,164449,6,0,L|512:224,1,507.5
0,256,164449,6,0,L|512:256,1,507.5
0,288,164449,6,0,L|512:288,1,507.5
0,320,164449,6,0,L|512:320,1,507.5
0,352,164449,6,0,L|512:352,1,507.5
0,384,164449,6,0,L|512:384,1,507.5
416,64,164689,6,0,L|416:352|416:288,2,280
352,64,164689,6,0,L|352:352|352:288,2,280
288,64,164689,6,0,L|288:352|288:288,2,280
480,64,164689,6,0,L|480:352|480:288,2,280
96,64,164689,6,0,L|96:352|96:288,2,280
32,64,164689,6,0,L|32:352|32:288,2,280
224,64,164689,6,0,L|224:352|224:288,2,280
160,64,164689,6,0,L|160:352|160:288,2,280
256,192,164929,12,0,165409,0:0:0:0:
0,0,164929,6,0,L|512:0,1,507.5
0,32,164929,6,0,L|512:32,1,507.5
0,64,164929,6,0,L|512:64,1,507.5
0,96,164929,6,0,L|512:96,1,507.5
0,128,164929,6,0,L|512:128,1,507.5
0,160,164929,6,0,L|512:160,1,507.5
0,192,164929,6,0,L|512:192,1,507.5
0,224,164929,6,0,L|512:224,1,507.5
0,256,164929,6,0,L|512:256,1,507.5
0,288,164929,6,0,L|512:288,1,507.5
0,320,164929,6,0,L|512:320,1,507.5
0,352,164929,6,0,L|512:352,1,507.5
0,384,164929,6,0,L|512:384,1,507.5
32,64,165169,6,0,L|32:352|32:288,2,280
96,64,165169,6,0,L|96:352|96:288,2,280
160,64,165169,6,0,L|160:352|160:288,2,280
224,64,165169,6,0,L|224:352|224:288,2,280
352,64,165169,6,0,L|352:352|352:288,2,280
416,64,165169,6,0,L|416:352|416:288,2,280
480,64,165169,6,0,L|480:352|480:288,2,280
288,64,165169,6,0,L|288:352|288:288,2,280
0,256,165409,6,0,L|512:256,1,507.5
0,224,165409,6,0,L|512:224,1,507.5
0,192,165409,6,0,L|512:192,1,507.5
0,288,165409,6,0,L|512:288,1,507.5
0,384,165409,6,0,L|512:384,1,507.5
0,352,165409,6,0,L|512:352,1,507.5
0,320,165409,6,0,L|512:320,1,507.5
0,32,165409,6,0,L|512:32,1,507.5
0,0,165409,6,0,L|512:0,1,507.5
256,192,165409,12,0,165889,0:0:0:0:
0,64,165409,6,0,L|512:64,1,507.5
0,160,165409,6,0,L|512:160,1,507.5
0,128,165409,6,0,L|512:128,1,507.5
0,96,165409,6,0,L|512:96,1,507.5
416,64,165649,6,0,L|416:352|416:288,2,280
352,64,165649,6,0,L|352:352|352:288,2,280
288,64,165649,6,0,L|288:352|288:288,2,280
480,64,165649,6,0,L|480:352|480:288,2,280
96,64,165649,6,0,L|96:352|96:288,2,280
32,64,165649,6,0,L|32:352|32:288,2,280
224,64,165649,6,0,L|224:352|224:288,2,280
160,64,165649,6,0,L|160:352|160:288,2,280
256,192,165889,12,0,166369,0:0:0:0:
0,0,165889,6,0,L|512:0,1,507.5
0,32,165889,6,0,L|512:32,1,507.5
0,64,165889,6,0,L|512:64,1,507.5
0,96,165889,6,0,L|512:96,1,507.5
0,128,165889,6,0,L|512:128,1,507.5
0,160,165889,6,0,L|512:160,1,507.5
0,192,165889,6,0,L|512:192,1,507.5
0,224,165889,6,0,L|512:224,1,507.5
0,256,165889,6,0,L|512:256,1,507.5
0,288,165889,6,0,L|512:288,1,507.5
0,320,165889,6,0,L|512:320,1,507.5
0,352,165889,6,0,L|512:352,1,507.5
0,384,165889,6,0,L|512:384,1,507.5
32,64,166129,6,0,L|32:352|32:288,2,280
96,64,166129,6,0,L|96:352|96:288,2,280
160,64,166129,6,0,L|160:352|160:288,2,280
224,64,166129,6,0,L|224:352|224:288,2,280
352,64,166129,6,0,L|352:352|352:288,2,280
416,64,166129,6,0,L|416:352|416:288,2,280
480,64,166129,6,0,L|480:352|480:288,2,280
288,64,166129,6,0,L|288:352|288:288,2,280
0,256,166369,6,0,L|512:256,1,507.5
0,224,166369,6,0,L|512:224,1,507.5
0,192,166369,6,0,L|512:192,1,507.5
0,288,166369,6,0,L|512:288,1,507.5
0,384,166369,6,0,L|512:384,1,507.5
0,352,166369,6,0,L|512:352,1,507.5
0,320,166369,6,0,L|512:320,1,507.5
0,32,166369,6,0,L|512:32,1,507.5
0,0,166369,6,0,L|512:0,1,507.5
256,192,166369,12,0,166849,0:0:0:0:
0,64,166369,6,0,L|512:64,1,507.5
0,160,166369,6,0,L|512:160,1,507.5
0,128,166369,6,0,L|512:128,1,507.5
0,96,166369,6,0,L|512:96,1,507.5
416,64,166609,6,0,L|416:352|416:288,2,280
352,64,166609,6,0,L|352:352|352:288,2,280
288,64,166609,6,0,L|288:352|288:288,2,280
480,64,166609,6,0,L|480:352|480:288,2,280
96,64,166609,6,0,L|96:352|96:288,2,280
32,64,166609,6,0,L|32:352|32:288,2,280
224,64,166609,6,0,L|224:352|224:288,2,280
160,64,166609,6,0,L|160:352|160:288,2,280
256,192,166849,12,0,167329,0:0:0:0:
0,0,166849,6,0,L|512:0,1,507.5
0,32,166849,6,0,L|512:32,1,507.5
0,64,166849,6,0,L|512:64,1,507.5
0,96,166849,6,0,L|512:96,1,507.5
0,128,166849,6,0,L|512:128,1,507.5
0,160,166849,6,0,L|512:160,1,507.5
0,192,166849,6,0,L|512:192,1,507.5
0,224,166849,6,0,L|512:224,1,507.5
0,256,166849,6,0,L|512:256,1,507.5
0,288,166849,6,0,L|512:288,1,507.5
0,320,166849,6,0,L|512:320,1,507.5
0,352,166849,6,0,L|512:352,1,507.5
0,384,166849,6,0,L|512:384,1,507.5
32,64,167089,6,0,L|32:352|32:288,2,280
96,64,167089,6,0,L|96:352|96:288,2,280
160,64,167089,6,0,L|160:352|160:288,2,280
224,64,167089,6,0,L|224:352|224:288,2,280
352,64,167089,6,0,L|352:352|352:288,2,280
416,64,167089,6,0,L|416:352|416:288,2,280
480,64,167089,6,0,L|480:352|480:288,2,280
288,64,167089,6,0,L|288:352|288:288,2,280
0,256,167329,6,0,L|512:256,1,507.5
0,224,167329,6,0,L|512:224,1,507.5
0,192,167329,6,0,L|512:192,1,507.5
0,288,167329,6,0,L|512:288,1,507.5
0,384,167329,6,0,L|512:384,1,507.5
0,352,167329,6,0,L|512:352,1,507.5
0,320,167329,6,0,L|512:320,1,507.5
0,32,167329,6,0,L|512:32,1,507.5
0,0,167329,6,0,L|512:0,1,507.5
256,192,167329,12,0,167809,0:0:0:0:
0,64,167329,6,0,L|512:64,1,507.5
0,160,167329,6,0,L|512:160,1,507.5
0,128,167329,6,0,L|512:128,1,507.5
0,96,167329,6,0,L|512:96,1,507.5
416,64,167569,6,0,L|416:352|416:288,2,280
352,64,167569,6,0,L|352:352|352:288,2,280
288,64,167569,6,0,L|288:352|288:288,2,280
480,64,167569,6,0,L|480:352|480:288,2,280
96,64,167569,6,0,L|96:352|96:288,2,280
32,64,167569,6,0,L|32:352|32:288,2,280
224,64,167569,6,0,L|224:352|224:288,2,280
160,64,167569,6,0,L|160:352|160:288,2,280
256,192,167809,12,0,168289,0:0:0:0:
0,0,167809,6,0,L|512:0,1,507.5
0,32,167809,6,0,L|512:32,1,507.5
0,64,167809,6,0,L|512:64,1,507.5
0,96,167809,6,0,L|512:96,1,507.5
0,128,167809,6,0,L|512:128,1,507.5
0,160,167809,6,0,L|512:160,1,507.5
0,192,167809,6,0,L|512:192,1,507.5
0,224,167809,6,0,L|512:224,1,507.5
0,256,167809,6,0,L|512:256,1,507.5
0,288,167809,6,0,L|512:288,1,507.5
0,320,167809,6,0,L|512:320,1,507.5
0,352,167809,6,0,L|512:352,1,507.5
0,384,167809,6,0,L|512:384,1,507.5
32,64,168049,6,0,L|32:352|32:288,2,280
96,64,168049,6,0,L|96:352|96:288,2,280
160,64,168049,6,0,L|160:352|160:288,2,280
224,64,168049,6,0,L|224:352|224:288,2,280
352,64,168049,6,0,L|352:352|352:288,2,280
416,64,168049,6,0,L|416:352|416:288,2,280
480,64,168049,6,0,L|480:352|480:288,2,280
288,64,168049,6,0,L|288:352|288:288,2,280
256,192,168289,12,0,168769,0:0:0:0:
0,0,168289,6,0,L|512:0,1,507.5
0,32,168289,6,0,L|512:32,1,507.5
0,64,168289,6,0,L|512:64,1,507.5
0,96,168289,6,0,L|512:96,1,507.5
0,128,168289,6,0,L|512:128,1,507.5
0,160,168289,6,0,L|512:160,1,507.5
0,192,168289,6,0,L|512:192,1,507.5
0,224,168289,6,0,L|512:224,1,507.5
0,256,168289,6,0,L|512:256,1,507.5
0,288,168289,6,0,L|512:288,1,507.5
0,320,168289,6,0,L|512:320,1,507.5
0,352,168289,6,0,L|512:352,1,507.5
0,384,168289,6,0,L|512:384,1,507.5
416,64,168529,6,0,L|416:352|416:288,2,280
352,64,168529,6,0,L|352:352|352:288,2,280
288,64,168529,6,0,L|288:352|288:288,2,280
480,64,168529,6,0,L|480:352|480:288,2,280
96,64,168529,6,0,L|96:352|96:288,2,280
32,64,168529,6,0,L|32:352|32:288,2,280
224,64,168529,6,0,L|224:352|224:288,2,280
160,64,168529,6,0,L|160:352|160:288,2,280
0,256,168769,6,0,L|512:256,1,507.5
0,224,168769,6,0,L|512:224,1,507.5
0,192,168769,6,0,L|512:192,1,507.5
0,288,168769,6,0,L|512:288,1,507.5
0,384,168769,6,0,L|512:384,1,507.5
0,352,168769,6,0,L|512:352,1,507.5
0,320,168769,6,0,L|512:320,1,507.5
0,32,168769,6,0,L|512:32,1,507.5
0,0,168769,6,0,L|512:0,1,507.5
256,192,168769,12,0,169249,0:0:0:0:
0,64,168769,6,0,L|512:64,1,507.5
0,160,168769,6,0,L|512:160,1,507.5
0,128,168769,6,0,L|512:128,1,507.5
0,96,168769,6,0,L|512:96,1,507.5
0,0,169249,6,0,L|512:0,1,507.5
0,32,169249,6,0,L|512:32,1,507.5
0,64,169249,6,0,L|512:64,1,507.5
0,96,169249,6,0,L|512:96,1,507.5
0,128,169249,6,0,L|512:128,1,507.5
0,160,169249,6,0,L|512:160,1,507.5
0,192,169249,6,0,L|512:192,1,507.5
0,224,169249,6,0,L|512:224,1,507.5
0,256,169249,6,0,L|512:256,1,507.5
0,288,169249,6,0,L|512:288,1,507.5
0,320,169249,6,0,L|512:320,1,507.5
0,352,169249,6,0,L|512:352,1,507.5
0,384,169249,6,0,L|512:384,1,507.5
256,192,169249,12,0,169729,0:0:0:0:
32,64,169489,6,0,L|32:352|32:288,2,280
96,64,169489,6,0,L|96:352|96:288,2,280
160,64,169489,6,0,L|160:352|160:288,2,280
224,64,169489,6,0,L|224:352|224:288,2,280
352,64,169489,6,0,L|352:352|352:288,2,280
416,64,169489,6,0,L|416:352|416:288,2,280
480,64,169489,6,0,L|480:352|480:288,2,280
288,64,169489,6,0,L|288:352|288:288,2,280
0,256,169729,6,0,L|512:256,1,507.5
0,224,169729,6,0,L|512:224,1,507.5
0,192,169729,6,0,L|512:192,1,507.5
0,288,169729,6,0,L|512:288,1,507.5
0,384,169729,6,0,L|512:384,1,507.5
0,352,169729,6,0,L|512:352,1,507.5
0,320,169729,6,0,L|512:320,1,507.5
0,32,169729,6,0,L|512:32,1,507.5
0,0,169729,6,0,L|512:0,1,507.5
256,192,169729,12,0,170209,0:0:0:0:
0,64,169729,6,0,L|512:64,1,507.5
0,160,169729,6,0,L|512:160,1,507.5
0,128,169729,6,0,L|512:128,1,507.5
0,96,169729,6,0,L|512:96,1,507.5
416,64,169969,6,0,L|416:352|416:288,2,280
352,64,169969,6,0,L|352:352|352:288,2,280
288,64,169969,6,0,L|288:352|288:288,2,280
480,64,169969,6,0,L|480:352|480:288,2,280
96,64,169969,6,0,L|96:352|96:288,2,280
32,64,169969,6,0,L|32:352|32:288,2,280
224,64,169969,6,0,L|224:352|224:288,2,280
160,64,169969,6,0,L|160:352|160:288,2,280
256,192,170209,12,0,170689,0:0:0:0:
0,0,170209,6,0,L|512:0,1,507.5
0,32,170209,6,0,L|512:32,1,507.5
0,64,170209,6,0,L|512:64,1,507.5
0,96,170209,6,0,L|512:96,1,507.5
0,128,170209,6,0,L|512:128,1,507.5
0,160,170209,6,0,L|512:160,1,507.5
0,192,170209,6,0,L|512:192,1,507.5
0,224,170209,6,0,L|512:224,1,507.5
0,256,170209,6,0,L|512:256,1,507.5
0,288,170209,6,0,L|512:288,1,507.5
0,320,170209,6,0,L|512:320,1,507.5
0,352,170209,6,0,L|512:352,1,507.5
0,384,170209,6,0,L|512:384,1,507.5
416,64,170449,6,0,L|416:352|416:288,2,280
352,64,170449,6,0,L|352:352|352:288,2,280
288,64,170449,6,0,L|288:352|288:288,2,280
480,64,170449,6,0,L|480:352|480:288,2,280
96,64,170449,6,0,L|96:352|96:288,2,280
32,64,170449,6,0,L|32:352|32:288,2,280
224,64,170449,6,0,L|224:352|224:288,2,280
160,64,170449,6,0,L|160:352|160:288,2,280
0,256,170689,6,0,L|512:256,1,507.5
0,224,170689,6,0,L|512:224,1,507.5
0,192,170689,6,0,L|512:192,1,507.5
0,288,170689,6,0,L|512:288,1,507.5
0,384,170689,6,0,L|512:384,1,507.5
0,352,170689,6,0,L|512:352,1,507.5
0,320,170689,6,0,L|512:320,1,507.5
0,32,170689,6,0,L|512:32,1,507.5
0,0,170689,6,0,L|512:0,1,507.5
256,192,170689,12,0,171169,0:0:0:0:
0,64,170689,6,0,L|512:64,1,507.5
0,160,170689,6,0,L|512:160,1,507.5
0,128,170689,6,0,L|512:128,1,507.5
0,96,170689,6,0,L|512:96,1,507.5
32,64,170929,6,0,L|32:352|32:288,2,280
96,64,170929,6,0,L|96:352|96:288,2,280
160,64,170929,6,0,L|160:352|160:288,2,280
224,64,170929,6,0,L|224:352|224:288,2,280
352,64,170929,6,0,L|352:352|352:288,2,280
416,64,170929,6,0,L|416:352|416:288,2,280
480,64,170929,6,0,L|480:352|480:288,2,280
288,64,170929,6,0,L|288:352|288:288,2,280
0,256,171169,6,0,L|512:256,1,507.5
0,224,171169,6,0,L|512:224,1,507.5
0,192,171169,6,0,L|512:192,1,507.5
0,288,171169,6,0,L|512:288,1,507.5
0,384,171169,6,0,L|512:384,1,507.5
0,352,171169,6,0,L|512:352,1,507.5
0,320,171169,6,0,L|512:320,1,507.5
0,32,171169,6,0,L|512:32,1,507.5
0,0,171169,6,0,L|512:0,1,507.5
256,192,171169,12,0,171649,0:0:0:0:
0,64,171169,6,0,L|512:64,1,507.5
0,160,171169,6,0,L|512:160,1,507.5
0,128,171169,6,0,L|512:128,1,507.5
0,96,171169,6,0,L|512:96,1,507.5
416,64,171409,6,0,L|416:352|416:288,2,280
352,64,171409,6,0,L|352:352|352:288,2,280
288,64,171409,6,0,L|288:352|288:288,2,280
480,64,171409,6,0,L|480:352|480:288,2,280
96,64,171409,6,0,L|96:352|96:288,2,280
32,64,171409,6,0,L|32:352|32:288,2,280
224,64,171409,6,0,L|224:352|224:288,2,280
160,64,171409,6,0,L|160:352|160:288,2,280
256,192,171649,12,0,172129,0:0:0:0:
0,0,171649,6,0,L|512:0,1,507.5
0,32,171649,6,0,L|512:32,1,507.5
0,64,171649,6,0,L|512:64,1,507.5
0,96,171649,6,0,L|512:96,1,507.5
0,128,171649,6,0,L|512:128,1,507.5
0,160,171649,6,0,L|512:160,1,507.5
0,192,171649,6,0,L|512:192,1,507.5
0,224,171649,6,0,L|512:224,1,507.5
0,256,171649,6,0,L|512:256,1,507.5
0,288,171649,6,0,L|512:288,1,507.5
0,320,171649,6,0,L|512:320,1,507.5
0,352,171649,6,0,L|512:352,1,507.5
0,384,171649,6,0,L|512:384,1,507.5
32,64,171889,6,0,L|32:352|32:288,2,280
96,64,171889,6,0,L|96:352|96:288,2,280
160,64,171889,6,0,L|160:352|160:288,2,280
224,64,171889,6,0,L|224:352|224:288,2,280
352,64,171889,6,0,L|352:352|352:288,2,280
416,64,171889,6,0,L|416:352|416:288,2,280
480,64,171889,6,0,L|480:352|480:288,2,280
288,64,171889,6,0,L|288:352|288:288,2,280
256,192,172129,12,0,172609,0:0:0:0:
0,0,172129,6,0,L|512:0,1,507.5
0,32,172129,6,0,L|512:32,1,507.5
0,64,172129,6,0,L|512:64,1,507.5
0,96,172129,6,0,L|512:96,1,507.5
0,128,172129,6,0,L|512:128,1,507.5
0,160,172129,6,0,L|512:160,1,507.5
0,192,172129,6,0,L|512:192,1,507.5
0,224,172129,6,0,L|512:224,1,507.5
0,256,172129,6,0,L|512:256,1,507.5
0,288,172129,6,0,L|512:288,1,507.5
0,320,172129,6,0,L|512:320,1,507.5
0,352,172129,6,0,L|512:352,1,507.5
0,384,172129,6,0,L|512:384,1,507.5
32,64,172369,6,0,L|32:352|32:288,2,280
96,64,172369,6,0,L|96:352|96:288,2,280
160,64,172369,6,0,L|160:352|160:288,2,280
224,64,172369,6,0,L|224:352|224:288,2,280
352,64,172369,6,0,L|352:352|352:288,2,280
416,64,172369,6,0,L|416:352|416:288,2,280
480,64,172369,6,0,L|480:352|480:288,2,280
288,64,172369,6,0,L|288:352|288:288,2,280
256,192,172609,12,0,173089,0:0:0:0:
0,0,172609,6,0,L|512:0,1,507.5
0,32,172609,6,0,L|512:32,1,507.5
0,64,172609,6,0,L|512:64,1,507.5
0,96,172609,6,0,L|512:96,1,507.5
0,128,172609,6,0,L|512:128,1,507.5
0,160,172609,6,0,L|512:160,1,507.5
0,192,172609,6,0,L|512:192,1,507.5
0,224,172609,6,0,L|512:224,1,507.5
0,256,172609,6,0,L|512:256,1,507.5
0,288,172609,6,0,L|512:288,1,507.5
0,320,172609,6,0,L|512:320,1,507.5
0,352,172609,6,0,L|512:352,1,507.5
0,384,172609,6,0,L|512:384,1,507.5
32,64,172849,6,0,L|32:352|32:288,2,280
96,64,172849,6,0,L|96:352|96:288,2,280
160,64,172849,6,0,L|160:352|160:288,2,280
224,64,172849,6,0,L|224:352|224:288,2,280
352,64,172849,6,0,L|352:352|352:288,2,280
416,64,172849,6,0,L|416:352|416:288,2,280
480,64,172849,6,0,L|480:352|480:288,2,280
288,64,172849,6,0,L|288:352|288:288,2,280
256,192,173089,12,0,173569,0:0:0:0:
0,0,173089,6,0,L|512:0,1,507.5
0,32,173089,6,0,L|512:32,1,507.5
0,64,173089,6,0,L|512:64,1,507.5
0,96,173089,6,0,L|512:96,1,507.5
0,128,173089,6,0,L|512:128,1,507.5
0,160,173089,6,0,L|512:160,1,507.5
0,192,173089,6,0,L|512:192,1,507.5
0,224,173089,6,0,L|512:224,1,507.5
0,256,173089,6,0,L|512:256,1,507.5
0,288,173089,6,0,L|512:288,1,507.5
0,320,173089,6,0,L|512:320,1,507.5
0,352,173089,6,0,L|512:352,1,507.5
0,384,173089,6,0,L|512:384,1,507.5
32,64,173329,6,0,L|32:352|32:288,2,280
96,64,173329,6,0,L|96:352|96:288,2,280
160,64,173329,6,0,L|160:352|160:288,2,280
224,64,173329,6,0,L|224:352|224:288,2,280
352,64,173329,6,0,L|352:352|352:288,2,280
416,64,173329,6,0,L|416:352|416:288,2,280
480,64,173329,6,0,L|480:352|480:288,2,280
288,64,173329,6,0,L|288:352|288:288,2,280
256,192,173569,12,0,174049,0:0:0:0:
0,0,173569,6,0,L|512:0,1,507.5
0,32,173569,6,0,L|512:32,1,507.5
0,64,173569,6,0,L|512:64,1,507.5
0,96,173569,6,0,L|512:96,1,507.5
0,128,173569,6,0,L|512:128,1,507.5
0,160,173569,6,0,L|512:160,1,507.5
0,192,173569,6,0,L|512:192,1,507.5
0,224,173569,6,0,L|512:224,1,507.5
0,256,173569,6,0,L|512:256,1,507.5
0,288,173569,6,0,L|512:288,1,507.5
0,320,173569,6,0,L|512:320,1,507.5
0,352,173569,6,0,L|512:352,1,507.5
0,384,173569,6,0,L|512:384,1,507.5
416,64,173809,6,0,L|416:352|416:288,2,280
352,64,173809,6,0,L|352:352|352:288,2,280
288,64,173809,6,0,L|288:352|288:288,2,280
480,64,173809,6,0,L|480:352|480:288,2,280
96,64,173809,6,0,L|96:352|96:288,2,280
32,64,173809,6,0,L|32:352|32:288,2,280
224,64,173809,6,0,L|224:352|224:288,2,280
160,64,173809,6,0,L|160:352|160:288,2,280
256,192,174049,12,0,174529,0:0:0:0:
0,0,174049,6,0,L|512:0,1,507.5
0,32,174049,6,0,L|512:32,1,507.5
0,64,174049,6,0,L|512:64,1,507.5
0,96,174049,6,0,L|512:96,1,507.5
0,128,174049,6,0,L|512:128,1,507.5
0,160,174049,6,0,L|512:160,1,507.5
0,192,174049,6,0,L|512:192,1,507.5
0,224,174049,6,0,L|512:224,1,507.5
0,256,174049,6,0,L|512:256,1,507.5
0,288,174049,6,0,L|512:288,1,507.5
0,320,174049,6,0,L|512:320,1,507.5
0,352,174049,6,0,L|512:352,1,507.5
0,384,174049,6,0,L|512:384,1,507.5
416,64,174289,6,0,L|416:352|416:288,2,280
352,64,174289,6,0,L|352:352|352:288,2,280
288,64,174289,6,0,L|288:352|288:288,2,280
480,64,174289,6,0,L|480:352|480:288,2,280
96,64,174289,6,0,L|96:352|96:288,2,280
32,64,174289,6,0,L|32:352|32:288,2,280
224,64,174289,6,0,L|224:352|224:288,2,280
160,64,174289,6,0,L|160:352|160:288,2,280
256,192,174529,12,0,175009,0:0:0:0:
0,0,174529,6,0,L|512:0,1,507.5
0,32,174529,6,0,L|512:32,1,507.5
0,64,174529,6,0,L|512:64,1,507.5
0,96,174529,6,0,L|512:96,1,507.5
0,128,174529,6,0,L|512:128,1,507.5
0,160,174529,6,0,L|512:160,1,507.5
0,192,174529,6,0,L|512:192,1,507.5
0,224,174529,6,0,L|512:224,1,507.5
0,256,174529,6,0,L|512:256,1,507.5
0,288,174529,6,0,L|512:288,1,507.5
0,320,174529,6,0,L|512:320,1,507.5
0,352,174529,6,0,L|512:352,1,507.5
0,384,174529,6,0,L|512:384,1,507.5
416,64,174769,6,0,L|416:352|416:288,2,280
352,64,174769,6,0,L|352:352|352:288,2,280
288,64,174769,6,0,L|288:352|288:288,2,280
480,64,174769,6,0,L|480:352|480:288,2,280
96,64,174769,6,0,L|96:352|96:288,2,280
32,64,174769,6,0,L|32:352|32:288,2,280
224,64,174769,6,0,L|224:352|224:288,2,280
160,64,174769,6,0,L|160:352|160:288,2,280
0,256,175009,6,0,L|512:256,1,507.5
0,224,175009,6,0,L|512:224,1,507.5
0,192,175009,6,0,L|512:192,1,507.5
0,288,175009,6,0,L|512:288,1,507.5
0,384,175009,6,0,L|512:384,1,507.5
0,352,175009,6,0,L|512:352,1,507.5
0,320,175009,6,0,L|512:320,1,507.5
0,32,175009,6,0,L|512:32,1,507.5
0,0,175009,6,0,L|512:0,1,507.5
256,192,175009,12,0,175489,0:0:0:0:
0,64,175009,6,0,L|512:64,1,507.5
0,160,175009,6,0,L|512:160,1,507.5
0,128,175009,6,0,L|512:128,1,507.5
0,96,175009,6,0,L|512:96,1,507.5
416,64,175249,6,0,L|416:352|416:288,2,280
352,64,175249,6,0,L|352:352|352:288,2,280
288,64,175249,6,0,L|288:352|288:288,2,280
480,64,175249,6,0,L|480:352|480:288,2,280
96,64,175249,6,0,L|96:352|96:288,2,280
32,64,175249,6,0,L|32:352|32:288,2,280
224,64,175249,6,0,L|224:352|224:288,2,280
160,64,175249,6,0,L|160:352|160:288,2,280
0,256,175489,6,0,L|512:256,1,507.5
0,224,175489,6,0,L|512:224,1,507.5
0,192,175489,6,0,L|512:192,1,507.5
0,288,175489,6,0,L|512:288,1,507.5
0,384,175489,6,0,L|512:384,1,507.5
0,352,175489,6,0,L|512:352,1,507.5
0,320,175489,6,0,L|512:320,1,507.5
0,32,175489,6,0,L|512:32,1,507.5
0,0,175489,6,0,L|512:0,1,507.5
256,192,175489,12,0,175969,0:0:0:0:
0,64,175489,6,0,L|512:64,1,507.5
0,160,175489,6,0,L|512:160,1,507.5
0,128,175489,6,0,L|512:128,1,507.5
0,96,175489,6,0,L|512:96,1,507.5
32,64,175729,6,0,L|32:352|32:288,2,280
96,64,175729,6,0,L|96:352|96:288,2,280
160,64,175729,6,0,L|160:352|160:288,2,280
224,64,175729,6,0,L|224:352|224:288,2,280
352,64,175729,6,0,L|352:352|352:288,2,280
416,64,175729,6,0,L|416:352|416:288,2,280
480,64,175729,6,0,L|480:352|480:288,2,280
288,64,175729,6,0,L|288:352|288:288,2,280
256,192,175969,12,0,176449,0:0:0:0:
0,0,175969,6,0,L|512:0,1,507.5
0,32,175969,6,0,L|512:32,1,507.5
0,64,175969,6,0,L|512:64,1,507.5
0,96,175969,6,0,L|512:96,1,507.5
0,128,175969,6,0,L|512:128,1,507.5
0,160,175969,6,0,L|512:160,1,507.5
0,192,175969,6,0,L|512:192,1,507.5
0,224,175969,6,0,L|512:224,1,507.5
0,256,175969,6,0,L|512:256,1,507.5
0,288,175969,6,0,L|512:288,1,507.5
0,320,175969,6,0,L|512:320,1,507.5
0,352,175969,6,0,L|512:352,1,507.5
0,384,175969,6,0,L|512:384,1,507.5
32,64,176209,6,0,L|32:352|32:288,2,280
96,64,176209,6,0,L|96:352|96:288,2,280
160,64,176209,6,0,L|160:352|160:288,2,280
224,64,176209,6,0,L|224:352|224:288,2,280
352,64,176209,6,0,L|352:352|352:288,2,280
416,64,176209,6,0,L|416:352|416:288,2,280
480,64,176209,6,0,L|480:352|480:288,2,280
288,64,176209,6,0,L|288:352|288:288,2,280
0,256,176449,6,0,L|512:256,1,507.5
0,224,176449,6,0,L|512:224,1,507.5
0,192,176449,6,0,L|512:192,1,507.5
0,288,176449,6,0,L|512:288,1,507.5
0,384,176449,6,0,L|512:384,1,507.5
0,352,176449,6,0,L|512:352,1,507.5
0,320,176449,6,0,L|512:320,1,507.5
0,32,176449,6,0,L|512:32,1,507.5
0,0,176449,6,0,L|512:0,1,507.5
256,192,176449,12,0,176929,0:0:0:0:
0,64,176449,6,0,L|512:64,1,507.5
0,160,176449,6,0,L|512:160,1,507.5
0,128,176449,6,0,L|512:128,1,507.5
0,96,176449,6,0,L|512:96,1,507.5
0,288,176929,6,0,L|512:288,1,507.5
0,256,176929,6,0,L|512:256,1,507.5
0,224,176929,6,0,L|512:224,1,507.5
0,320,176929,6,0,L|512:320,1,507.5
256,192,176929,12,0,177409,0:0:0:0:
0,384,176929,6,0,L|512:384,1,507.5
0,352,176929,6,0,L|512:352,1,507.5
0,64,176929,6,0,L|512:64,1,507.5
0,32,176929,6,0,L|512:32,1,507.5
0,0,176929,6,0,L|512:0,1,507.5
0,96,176929,6,0,L|512:96,1,507.5
0,192,176929,6,0,L|512:192,1,507.5
0,160,176929,6,0,L|512:160,1,507.5
0,128,176929,6,0,L|512:128,1,507.5
416,64,177169,6,0,L|416:352|416:288,2,280
352,64,177169,6,0,L|352:352|352:288,2,280
288,64,177169,6,0,L|288:352|288:288,2,280
480,64,177169,6,0,L|480:352|480:288,2,280
96,64,177169,6,0,L|96:352|96:288,2,280
32,64,177169,6,0,L|32:352|32:288,2,280
224,64,177169,6,0,L|224:352|224:288,2,280
160,64,177169,6,0,L|160:352|160:288,2,280
256,192,177409,12,0,177889,0:0:0:0:
0,0,177409,6,0,L|512:0,1,507.5
0,32,177409,6,0,L|512:32,1,507.5
0,64,177409,6,0,L|512:64,1,507.5
0,96,177409,6,0,L|512:96,1,507.5
0,128,177409,6,0,L|512:128,1,507.5
0,160,177409,6,0,L|512:160,1,507.5
0,192,177409,6,0,L|512:192,1,507.5
0,224,177409,6,0,L|512:224,1,507.5
0,256,177409,6,0,L|512:256,1,507.5
0,288,177409,6,0,L|512:288,1,507.5
0,320,177409,6,0,L|512:320,1,507.5
0,352,177409,6,0,L|512:352,1,507.5
0,384,177409,6,0,L|512:384,1,507.5
32,64,177649,6,0,L|32:352|32:288,2,280
96,64,177649,6,0,L|96:352|96:288,2,280
160,64,177649,6,0,L|160:352|160:288,2,280
224,64,177649,6,0,L|224:352|224:288,2,280
352,64,177649,6,0,L|352:352|352:288,2,280
416,64,177649,6,0,L|416:352|416:288,2,280
480,64,177649,6,0,L|480:352|480:288,2,280
288,64,177649,6,0,L|288:352|288:288,2,280
0,256,177889,6,0,L|512:256,1,507.5
0,224,177889,6,0,L|512:224,1,507.5
0,192,177889,6,0,L|512:192,1,507.5
0,288,177889,6,0,L|512:288,1,507.5
0,384,177889,6,0,L|512:384,1,507.5
0,352,177889,6,0,L|512:352,1,507.5
0,320,177889,6,0,L|512:320,1,507.5
0,32,177889,6,0,L|512:32,1,507.5
0,0,177889,6,0,L|512:0,1,507.5
256,192,177889,12,0,178369,0:0:0:0:
0,64,177889,6,0,L|512:64,1,507.5
0,160,177889,6,0,L|512:160,1,507.5
0,128,177889,6,0,L|512:128,1,507.5
0,96,177889,6,0,L|512:96,1,507.5
32,64,178129,6,0,L|32:352|32:288,2,280
96,64,178129,6,0,L|96:352|96:288,2,280
160,64,178129,6,0,L|160:352|160:288,2,280
224,64,178129,6,0,L|224:352|224:288,2,280
352,64,178129,6,0,L|352:352|352:288,2,280
416,64,178129,6,0,L|416:352|416:288,2,280
480,64,178129,6,0,L|480:352|480:288,2,280
288,64,178129,6,0,L|288:352|288:288,2,280
256,192,178369,12,0,178849,0:0:0:0:
0,0,178369,6,0,L|512:0,1,507.5
0,32,178369,6,0,L|512:32,1,507.5
0,64,178369,6,0,L|512:64,1,507.5
0,96,178369,6,0,L|512:96,1,507.5
0,128,178369,6,0,L|512:128,1,507.5
0,160,178369,6,0,L|512:160,1,507.5
0,192,178369,6,0,L|512:192,1,507.5
0,224,178369,6,0,L|512:224,1,507.5
0,256,178369,6,0,L|512:256,1,507.5
0,288,178369,6,0,L|512:288,1,507.5
0,320,178369,6,0,L|512:320,1,507.5
0,352,178369,6,0,L|512:352,1,507.5
0,384,178369,6,0,L|512:384,1,507.5
416,64,178609,6,0,L|416:352|416:288,2,280
352,64,178609,6,0,L|352:352|352:288,2,280
288,64,178609,6,0,L|288:352|288:288,2,280
480,64,178609,6,0,L|480:352|480:288,2,280
96,64,178609,6,0,L|96:352|96:288,2,280
32,64,178609,6,0,L|32:352|32:288,2,280
224,64,178609,6,0,L|224:352|224:288,2,280
160,64,178609,6,0,L|160:352|160:288,2,280
256,192,178849,12,0,179329,0:0:0:0:
0,0,178849,6,0,L|512:0,1,507.5
0,32,178849,6,0,L|512:32,1,507.5
0,64,178849,6,0,L|512:64,1,507.5
0,96,178849,6,0,L|512:96,1,507.5
0,128,178849,6,0,L|512:128,1,507.5
0,160,178849,6,0,L|512:160,1,507.5
0,192,178849,6,0,L|512:192,1,507.5
0,224,178849,6,0,L|512:224,1,507.5
0,256,178849,6,0,L|512:256,1,507.5
0,288,178849,6,0,L|512:288,1,507.5
0,320,178849,6,0,L|512:320,1,507.5
0,352,178849,6,0,L|512:352,1,507.5
0,384,178849,6,0,L|512:384,1,507.5
32,64,179089,6,0,L|32:352|32:288,2,280
96,64,179089,6,0,L|96:352|96:288,2,280
160,64,179089,6,0,L|160:352|160:288,2,280
224,64,179089,6,0,L|224:352|224:288,2,280
352,64,179089,6,0,L|352:352|352:288,2,280
416,64,179089,6,0,L|416:352|416:288,2,280
480,64,179089,6,0,L|480:352|480:288,2,280
288,64,179089,6,0,L|288:352|288:288,2,280
0,256,179329,6,0,L|512:256,1,507.5
0,224,179329,6,0,L|512:224,1,507.5
0,192,179329,6,0,L|512:192,1,507.5
0,288,179329,6,0,L|512:288,1,507.5
0,384,179329,6,0,L|512:384,1,507.5
0,352,179329,6,0,L|512:352,1,507.5
0,320,179329,6,0,L|512:320,1,507.5
0,32,179329,6,0,L|512:32,1,507.5
0,0,179329,6,0,L|512:0,1,507.5
256,192,179329,12,0,179809,0:0:0:0:
0,64,179329,6,0,L|512:64,1,507.5
0,160,179329,6,0,L|512:160,1,507.5
0,128,179329,6,0,L|512:128,1,507.5
0,96,179329,6,0,L|512:96,1,507.5
416,64,179569,6,0,L|416:352|416:288,2,280
352,64,179569,6,0,L|352:352|352:288,2,280
288,64,179569,6,0,L|288:352|288:288,2,280
480,64,179569,6,0,L|480:352|480:288,2,280
96,64,179569,6,0,L|96:352|96:288,2,280
32,64,179569,6,0,L|32:352|32:288,2,280
224,64,179569,6,0,L|224:352|224:288,2,280
160,64,179569,6,0,L|160:352|160:288,2,280
0,256,179809,6,0,L|512:256,1,507.5
0,224,179809,6,0,L|512:224,1,507.5
0,192,179809,6,0,L|512:192,1,507.5
0,288,179809,6,0,L|512:288,1,507.5
0,384,179809,6,0,L|512:384,1,507.5
0,352,179809,6,0,L|512:352,1,507.5
0,320,179809,6,0,L|512:320,1,507.5
0,32,179809,6,0,L|512:32,1,507.5
0,0,179809,6,0,L|512:0,1,507.5
256,192,179809,12,0,180289,0:0:0:0:
0,64,179809,6,0,L|512:64,1,507.5
0,160,179809,6,0,L|512:160,1,507.5
0,128,179809,6,0,L|512:128,1,507.5
0,96,179809,6,0,L|512:96,1,507.5
416,64,180049,6,0,L|416:352|416:288,2,280
352,64,180049,6,0,L|352:352|352:288,2,280
288,64,180049,6,0,L|288:352|288:288,2,280
480,64,180049,6,0,L|480:352|480:288,2,280
96,64,180049,6,0,L|96:352|96:288,2,280
32,64,180049,6,0,L|32:352|32:288,2,280
224,64,180049,6,0,L|224:352|224:288,2,280
160,64,180049,6,0,L|160:352|160:288,2,280
0,256,180289,6,0,L|512:256,1,507.5
0,224,180289,6,0,L|512:224,1,507.5
0,192,180289,6,0,L|512:192,1,507.5
0,288,180289,6,0,L|512:288,1,507.5
0,384,180289,6,0,L|512:384,1,507.5
0,352,180289,6,0,L|512:352,1,507.5
0,320,180289,6,0,L|512:320,1,507.5
0,32,180289,6,0,L|512:32,1,507.5
0,0,180289,6,0,L|512:0,1,507.5
256,192,180289,12,0,180769,0:0:0:0:
0,64,180289,6,0,L|512:64,1,507.5
0,160,180289,6,0,L|512:160,1,507.5
0,128,180289,6,0,L|512:128,1,507.5
0,96,180289,6,0,L|512:96,1,507.5
416,64,180529,6,0,L|416:352|416:288,2,280
352,64,180529,6,0,L|352:352|352:288,2,280
288,64,180529,6,0,L|288:352|288:288,2,280
480,64,180529,6,0,L|480:352|480:288,2,280
96,64,180529,6,0,L|96:352|96:288,2,280
32,64,180529,6,0,L|32:352|32:288,2,280
224,64,180529,6,0,L|224:352|224:288,2,280
160,64,180529,6,0,L|160:352|160:288,2,280
0,256,180769,6,0,L|512:256,1,507.5
0,224,180769,6,0,L|512:224,1,507.5
0,192,180769,6,0,L|512:192,1,507.5
0,288,180769,6,0,L|512:288,1,507.5
0,384,180769,6,0,L|512:384,1,507.5
0,352,180769,6,0,L|512:352,1,507.5
0,320,180769,6,0,L|512:320,1,507.5
0,32,180769,6,0,L|512:32,1,507.5
0,0,180769,6,0,L|512:0,1,507.5
256,192,180769,12,0,181249,0:0:0:0:
0,64,180769,6,0,L|512:64,1,507.5
0,160,180769,6,0,L|512:160,1,507.5
0,128,180769,6,0,L|512:128,1,507.5
0,96,180769,6,0,L|512:96,1,507.5
416,64,181009,6,0,L|416:352|416:288,2,280
352,64,181009,6,0,L|352:352|352:288,2,280
288,64,181009,6,0,L|288:352|288:288,2,280
480,64,181009,6,0,L|480:352|480:288,2,280
96,64,181009,6,0,L|96:352|96:288,2,280
32,64,181009,6,0,L|32:352|32:288,2,280
224,64,181009,6,0,L|224:352|224:288,2,280
160,64,181009,6,0,L|160:352|160:288,2,280
0,256,181249,6,0,L|512:256,1,507.5
0,224,181249,6,0,L|512:224,1,507.5
0,192,181249,6,0,L|512:192,1,507.5
0,288,181249,6,0,L|512:288,1,507.5
0,384,181249,6,0,L|512:384,1,507.5
0,352,181249,6,0,L|512:352,1,507.5
0,320,181249,6,0,L|512:320,1,507.5
0,32,181249,6,0,L|512:32,1,507.5
0,0,181249,6,0,L|512:0,1,507.5
256,192,181249,12,0,181729,0:0:0:0:
0,64,181249,6,0,L|512:64,1,507.5
0,160,181249,6,0,L|512:160,1,507.5
0,128,181249,6,0,L|512:128,1,507.5
0,96,181249,6,0,L|512:96,1,507.5
32,64,181489,6,0,L|32:352|32:288,2,280
96,64,181489,6,0,L|96:352|96:288,2,280
160,64,181489,6,0,L|160:352|160:288,2,280
224,64,181489,6,0,L|224:352|224:288,2,280
352,64,181489,6,0,L|352:352|352:288,2,280
416,64,181489,6,0,L|416:352|416:288,2,280
480,64,181489,6,0,L|480:352|480:288,2,280
288,64,181489,6,0,L|288:352|288:288,2,280
0,256,181729,6,0,L|512:256,1,507.5
0,224,181729,6,0,L|512:224,1,507.5
0,192,181729,6,0,L|512:192,1,507.5
0,288,181729,6,0,L|512:288,1,507.5
0,384,181729,6,0,L|512:384,1,507.5
0,352,181729,6,0,L|512:352,1,507.5
0,320,181729,6,0,L|512:320,1,507.5
0,32,181729,6,0,L|512:32,1,507.5
0,0,181729,6,0,L|512:0,1,507.5
256,192,181729,12,0,182209,0:0:0:0:
0,64,181729,6,0,L|512:64,1,507.5
0,160,181729,6,0,L|512:160,1,507.5
0,128,181729,6,0,L|512:128,1,507.5
0,96,181729,6,0,L|512:96,1,507.5
32,64,181969,6,0,L|32:352|32:288,2,280
96,64,181969,6,0,L|96:352|96:288,2,280
160,64,181969,6,0,L|160:352|160:288,2,280
224,64,181969,6,0,L|224:352|224:288,2,280
352,64,181969,6,0,L|352:352|352:288,2,280
416,64,181969,6,0,L|416:352|416:288,2,280
480,64,181969,6,0,L|480:352|480:288,2,280
288,64,181969,6,0,L|288:352|288:288,2,280
0,256,182209,6,0,L|512:256,1,507.5
0,224,182209,6,0,L|512:224,1,507.5
0,192,182209,6,0,L|512:192,1,507.5
0,288,182209,6,0,L|512:288,1,507.5
0,384,182209,6,0,L|512:384,1,507.5
0,352,182209,6,0,L|512:352,1,507.5
0,320,182209,6,0,L|512:320,1,507.5
0,32,182209,6,0,L|512:32,1,507.5
0,0,182209,6,0,L|512:0,1,507.5
256,192,182209,12,0,182689,0:0:0:0:
0,64,182209,6,0,L|512:64,1,507.5
0,160,182209,6,0,L|512:160,1,507.5
0,128,182209,6,0,L|512:128,1,507.5
0,96,182209,6,0,L|512:96,1,507.5
32,64,182449,6,0,L|32:352|32:288,2,280
96,64,182449,6,0,L|96:352|96:288,2,280
160,64,182449,6,0,L|160:352|160:288,2,280
224,64,182449,6,0,L|224:352|224:288,2,280
352,64,182449,6,0,L|352:352|352:288,2,280
416,64,182449,6,0,L|416:352|416:288,2,280
480,64,182449,6,0,L|480:352|480:288,2,280
288,64,182449,6,0,L|288:352|288:288,2,280
256,192,182689,12,0,183169,0:0:0:0:
0,0,182689,6,0,L|512:0,1,507.5
0,32,182689,6,0,L|512:32,1,507.5
0,64,182689,6,0,L|512:64,1,507.5
0,96,182689,6,0,L|512:96,1,507.5
0,128,182689,6,0,L|512:128,1,507.5
0,160,182689,6,0,L|512:160,1,507.5
0,192,182689,6,0,L|512:192,1,507.5
0,224,182689,6,0,L|512:224,1,507.5
0,256,182689,6,0,L|512:256,1,507.5
0,288,182689,6,0,L|512:288,1,507.5
0,320,182689,6,0,L|512:320,1,507.5
0,352,182689,6,0,L|512:352,1,507.5
0,384,182689,6,0,L|512:384,1,507.5
32,64,182929,6,0,L|32:352|32:288,2,280
96,64,182929,6,0,L|96:352|96:288,2,280
160,64,182929,6,0,L|160:352|160:288,2,280
224,64,182929,6,0,L|224:352|224:288,2,280
352,64,182929,6,0,L|352:352|352:288,2,280
416,64,182929,6,0,L|416:352|416:288,2,280
480,64,182929,6,0,L|480:352|480:288,2,280
288,64,182929,6,0,L|288:352|288:288,2,280
256,192,183169,12,0,183649,0:0:0:0:
0,0,183169,6,0,L|512:0,1,507.5
0,32,183169,6,0,L|512:32,1,507.5
0,64,183169,6,0,L|512:64,1,507.5
0,96,183169,6,0,L|512:96,1,507.5
0,128,183169,6,0,L|512:128,1,507.5
0,160,183169,6,0,L|512:160,1,507.5
0,192,183169,6,0,L|512:192,1,507.5
0,224,183169,6,0,L|512:224,1,507.5
0,256,183169,6,0,L|512:256,1,507.5
0,288,183169,6,0,L|512:288,1,507.5
0,320,183169,6,0,L|512:320,1,507.5
0,352,183169,6,0,L|512:352,1,507.5
0,384,183169,6,0,L|512:384,1,507.5
416,64,183409,6,0,L|416:352|416:288,2,280
352,64,183409,6,0,L|352:352|352:288,2,280
288,64,183409,6,0,L|288:352|288:288,2,280
480,64,183409,6,0,L|480:352|480:288,2,280
96,64,183409,6,0,L|96:352|96:288,2,280
32,64,183409,6,0,L|32:352|32:288,2,280
224,64,183409,6,0,L|224:352|224:288,2,280
160,64,183409,6,0,L|160:352|160:288,2,280
0,256,183649,6,0,L|512:256,1,507.5
0,224,183649,6,0,L|512:224,1,507.5
0,192,183649,6,0,L|512:192,1,507.5
0,288,183649,6,0,L|512:288,1,507.5
0,384,183649,6,0,L|512:384,1,507.5
0,352,183649,6,0,L|512:352,1,507.5
0,320,183649,6,0,L|512:320,1,507.5
0,32,183649,6,0,L|512:32,1,507.5
0,0,183649,6,0,L|512:0,1,507.5
256,192,183649,12,0,184129,0:0:0:0:
0,64,183649,6,0,L|512:64,1,507.5
0,160,183649,6,0,L|512:160,1,507.5
0,128,183649,6,0,L|512:128,1,507.5
0,96,183649,6,0,L|512:96,1,507.5
416,64,183889,6,0,L|416:352|416:288,2,280
352,64,183889,6,0,L|352:352|352:288,2,280
288,64,183889,6,0,L|288:352|288:288,2,280
480,64,183889,6,0,L|480:352|480:288,2,280
96,64,183889,6,0,L|96:352|96:288,2,280
32,64,183889,6,0,L|32:352|32:288,2,280
224,64,183889,6,0,L|224:352|224:288,2,280
160,64,183889,6,0,L|160:352|160:288,2,280
256,192,184129,12,0,184609,0:0:0:0:
0,0,184129,6,0,L|512:0,1,507.5
0,32,184129,6,0,L|512:32,1,507.5
0,64,184129,6,0,L|512:64,1,507.5
0,96,184129,6,0,L|512:96,1,507.5
0,128,184129,6,0,L|512:128,1,507.5
0,160,184129,6,0,L|512:160,1,507.5
0,192,184129,6,0,L|512:192,1,507.5
0,224,184129,6,0,L|512:224,1,507.5
0,256,184129,6,0,L|512:256,1,507.5
0,288,184129,6,0,L|512:288,1,507.5
0,320,184129,6,0,L|512:320,1,507.5
0,352,184129,6,0,L|512:352,1,507.5
0,384,184129,6,0,L|512:384,1,507.5
0,0,184609,6,0,L|512:0,1,507.5
0,32,184609,6,0,L|512:32,1,507.5
0,64,184609,6,0,L|512:64,1,507.5
0,96,184609,6,0,L|512:96,1,507.5
0,128,184609,6,0,L|512:128,1,507.5
0,160,184609,6,0,L|512:160,1,507.5
0,192,184609,6,0,L|512:192,1,507.5
0,224,184609,6,0,L|512:224,1,507.5
0,256,184609,6,0,L|512:256,1,507.5
0,288,184609,6,0,L|512:288,1,507.5
0,320,184609,6,0,L|512:320,1,507.5
0,352,184609,6,0,L|512:352,1,507.5
0,384,184609,6,0,L|512:384,1,507.5
256,192,184609,12,0,185089,0:0:0:0:
32,64,184849,6,0,L|32:352|32:288,2,280
96,64,184849,6,0,L|96:352|96:288,2,280
160,64,184849,6,0,L|160:352|160:288,2,280
224,64,184849,6,0,L|224:352|224:288,2,280
352,64,184849,6,0,L|352:352|352:288,2,280
416,64,184849,6,0,L|416:352|416:288,2,280
480,64,184849,6,0,L|480:352|480:288,2,280
288,64,184849,6,0,L|288:352|288:288,2,280
0,256,185089,6,0,L|512:256,1,507.5
0,224,185089,6,0,L|512:224,1,507.5
0,192,185089,6,0,L|512:192,1,507.5
0,288,185089,6,0,L|512:288,1,507.5
0,384,185089,6,0,L|512:384,1,507.5
0,352,185089,6,0,L|512:352,1,507.5
0,320,185089,6,0,L|512:320,1,507.5
0,32,185089,6,0,L|512:32,1,507.5
0,0,185089,6,0,L|512:0,1,507.5
256,192,185089,12,0,185569,0:0:0:0:
0,64,185089,6,0,L|512:64,1,507.5
0,160,185089,6,0,L|512:160,1,507.5
0,128,185089,6,0,L|512:128,1,507.5
0,96,185089,6,0,L|512:96,1,507.5
416,64,185329,6,0,L|416:352|416:288,2,280
352,64,185329,6,0,L|352:352|352:288,2,280
288,64,185329,6,0,L|288:352|288:288,2,280
480,64,185329,6,0,L|480:352|480:288,2,280
96,64,185329,6,0,L|96:352|96:288,2,280
32,64,185329,6,0,L|32:352|32:288,2,280
224,64,185329,6,0,L|224:352|224:288,2,280
160,64,185329,6,0,L|160:352|160:288,2,280
256,192,185569,12,0,186049,0:0:0:0:
0,0,185569,6,0,L|512:0,1,507.5
0,32,185569,6,0,L|512:32,1,507.5
0,64,185569,6,0,L|512:64,1,507.5
0,96,185569,6,0,L|512:96,1,507.5
0,128,185569,6,0,L|512:128,1,507.5
0,160,185569,6,0,L|512:160,1,507.5
0,192,185569,6,0,L|512:192,1,507.5
0,224,185569,6,0,L|512:224,1,507.5
0,256,185569,6,0,L|512:256,1,507.5
0,288,185569,6,0,L|512:288,1,507.5
0,320,185569,6,0,L|512:320,1,507.5
0,352,185569,6,0,L|512:352,1,507.5
0,384,185569,6,0,L|512:384,1,507.5
416,64,185809,6,0,L|416:352|416:288,2,280
352,64,185809,6,0,L|352:352|352:288,2,280
288,64,185809,6,0,L|288:352|288:288,2,280
480,64,185809,6,0,L|480:352|480:288,2,280
96,64,185809,6,0,L|96:352|96:288,2,280
32,64,185809,6,0,L|32:352|32:288,2,280
224,64,185809,6,0,L|224:352|224:288,2,280
160,64,185809,6,0,L|160:352|160:288,2,280
0,256,186049,6,0,L|512:256,1,507.5
0,224,186049,6,0,L|512:224,1,507.5
0,192,186049,6,0,L|512:192,1,507.5
0,288,186049,6,0,L|512:288,1,507.5
0,384,186049,6,0,L|512:384,1,507.5
0,352,186049,6,0,L|512:352,1,507.5
0,320,186049,6,0,L|512:320,1,507.5
0,32,186049,6,0,L|512:32,1,507.5
0,0,186049,6,0,L|512:0,1,507.5
256,192,186049,12,0,186529,0:0:0:0:
0,64,186049,6,0,L|512:64,1,507.5
0,160,186049,6,0,L|512:160,1,507.5
0,128,186049,6,0,L|512:128,1,507.5
0,96,186049,6,0,L|512:96,1,507.5
32,64,186289,6,0,L|32:352|32:288,2,280
96,64,186289,6,0,L|96:352|96:288,2,280
160,64,186289,6,0,L|160:352|160:288,2,280
224,64,186289,6,0,L|224:352|224:288,2,280
352,64,186289,6,0,L|352:352|352:288,2,280
416,64,186289,6,0,L|416:352|416:288,2,280
480,64,186289,6,0,L|480:352|480:288,2,280
288,64,186289,6,0,L|288:352|288:288,2,280
0,256,186529,6,0,L|512:256,1,507.5
0,224,186529,6,0,L|512:224,1,507.5
0,192,186529,6,0,L|512:192,1,507.5
0,288,186529,6,0,L|512:288,1,507.5
0,384,186529,6,0,L|512:384,1,507.5
0,352,186529,6,0,L|512:352,1,507.5
0,320,186529,6,0,L|512:320,1,507.5
0,32,186529,6,0,L|512:32,1,507.5
0,0,186529,6,0,L|512:0,1,507.5
256,192,186529,12,0,187009,0:0:0:0:
0,64,186529,6,0,L|512:64,1,507.5
0,160,186529,6,0,L|512:160,1,507.5
0,128,186529,6,0,L|512:128,1,507.5
0,96,186529,6,0,L|512:96,1,507.5
416,64,186769,6,0,L|416:352|416:288,2,280
352,64,186769,6,0,L|352:352|352:288,2,280
288,64,186769,6,0,L|288:352|288:288,2,280
480,64,186769,6,0,L|480:352|480:288,2,280
96,64,186769,6,0,L|96:352|96:288,2,280
32,64,186769,6,0,L|32:352|32:288,2,280
224,64,186769,6,0,L|224:352|224:288,2,280
160,64,186769,6,0,L|160:352|160:288,2,280
256,192,187009,12,0,187489,0:0:0:0:
0,0,187009,6,0,L|512:0,1,507.5
0,32,187009,6,0,L|512:32,1,507.5
0,64,187009,6,0,L|512:64,1,507.5
0,96,187009,6,0,L|512:96,1,507.5
0,128,187009,6,0,L|512:128,1,507.5
0,160,187009,6,0,L|512:160,1,507.5
0,192,187009,6,0,L|512:192,1,507.5
0,224,187009,6,0,L|512:224,1,507.5
0,256,187009,6,0,L|512:256,1,507.5
0,288,187009,6,0,L|512:288,1,507.5
0,320,187009,6,0,L|512:320,1,507.5
0,352,187009,6,0,L|512:352,1,507.5
0,384,187009,6,0,L|512:384,1,507.5
32,64,187249,6,0,L|32:352|32:288,2,280
96,64,187249,6,0,L|96:352|96:288,2,280
160,64,187249,6,0,L|160:352|160:288,2,280
224,64,187249,6,0,L|224:352|224:288,2,280
352,64,187249,6,0,L|352:352|352:288,2,280
416,64,187249,6,0,L|416:352|416:288,2,280
480,64,187249,6,0,L|480:352|480:288,2,280
288,64,187249,6,0,L|288:352|288:288,2,280
256,192,187489,12,0,187969,0:0:0:0:
0,0,187489,6,0,L|512:0,1,507.5
0,32,187489,6,0,L|512:32,1,507.5
0,64,187489,6,0,L|512:64,1,507.5
0,96,187489,6,0,L|512:96,1,507.5
0,128,187489,6,0,L|512:128,1,507.5
0,160,187489,6,0,L|512:160,1,507.5
0,192,187489,6,0,L|512:192,1,507.5
0,224,187489,6,0,L|512:224,1,507.5
0,256,187489,6,0,L|512:256,1,507.5
0,288,187489,6,0,L|512:288,1,507.5
0,320,187489,6,0,L|512:320,1,507.5
0,352,187489,6,0,L|512:352,1,507.5
0,384,187489,6,0,L|512:384,1,507.5
32,64,187729,6,0,L|32:352|32:288,2,280
96,64,187729,6,0,L|96:352|96:288,2,280
160,64,187729,6,0,L|160:352|160:288,2,280
224,64,187729,6,0,L|224:352|224:288,2,280
352,64,187729,6,0,L|352:352|352:288,2,280
416,64,187729,6,0,L|416:352|416:288,2,280
480,64,187729,6,0,L|480:352|480:288,2,280
288,64,187729,6,0,L|288:352|288:288,2,280
256,192,187969,12,0,188449,0:0:0:0:
0,0,187969,6,0,L|512:0,1,507.5
0,32,187969,6,0,L|512:32,1,507.5
0,64,187969,6,0,L|512:64,1,507.5
0,96,187969,6,0,L|512:96,1,507.5
0,128,187969,6,0,L|512:128,1,507.5
0,160,187969,6,0,L|512:160,1,507.5
0,192,187969,6,0,L|512:192,1,507.5
0,224,187969,6,0,L|512:224,1,507.5
0,256,187969,6,0,L|512:256,1,507.5
0,288,187969,6,0,L|512:288,1,507.5
0,320,187969,6,0,L|512:320,1,507.5
0,352,187969,6,0,L|512:352,1,507.5
0,384,187969,6,0,L|512:384,1,507.5
32,64,188209,6,0,L|32:352|32:288,2,280
96,64,188209,6,0,L|96:352|96:288,2,280
160,64,188209,6,0,L|160:352|160:288,2,280
224,64,188209,6,0,L|224:352|224:288,2,280
352,64,188209,6,0,L|352:352|352:288,2,280
416,64,188209,6,0,L|416:352|416:288,2,280
480,64,188209,6,0,L|480:352|480:288,2,280
288,64,188209,6,0,L|288:352|288:288,2,280
256,192,188449,12,0,188929,0:0:0:0:
0,0,188449,6,0,L|512:0,1,507.5
0,32,188449,6,0,L|512:32,1,507.5
0,64,188449,6,0,L|512:64,1,507.5
0,96,188449,6,0,L|512:96,1,507.5
0,128,188449,6,0,L|512:128,1,507.5
0,160,188449,6,0,L|512:160,1,507.5
0,192,188449,6,0,L|512:192,1,507.5
0,224,188449,6,0,L|512:224,1,507.5
0,256,188449,6,0,L|512:256,1,507.5
0,288,188449,6,0,L|512:288,1,507.5
0,320,188449,6,0,L|512:320,1,507.5
0,352,188449,6,0,L|512:352,1,507.5
0,384,188449,6,0,L|512:384,1,507.5
32,64,188689,6,0,L|32:352|32:288,2,280
96,64,188689,6,0,L|96:352|96:288,2,280
160,64,188689,6,0,L|160:352|160:288,2,280
224,64,188689,6,0,L|224:352|224:288,2,280
352,64,188689,6,0,L|352:352|352:288,2,280
416,64,188689,6,0,L|416:352|416:288,2,280
480,64,188689,6,0,L|480:352|480:288,2,280
288,64,188689,6,0,L|288:352|288:288,2,280
256,192,188929,12,0,189409,0:0:0:0:
0,0,188929,6,0,L|512:0,1,507.5
0,32,188929,6,0,L|512:32,1,507.5
0,64,188929,6,0,L|512:64,1,507.5
0,96,188929,6,0,L|512:96,1,507.5
0,128,188929,6,0,L|512:128,1,507.5
0,160,188929,6,0,L|512:160,1,507.5
0,192,188929,6,0,L|512:192,1,507.5
0,224,188929,6,0,L|512:224,1,507.5
0,256,188929,6,0,L|512:256,1,507.5
0,288,188929,6,0,L|512:288,1,507.5
0,320,188929,6,0,L|512:320,1,507.5
0,352,188929,6,0,L|512:352,1,507.5
0,384,188929,6,0,L|512:384,1,507.5
416,64,189169,6,0,L|416:352|416:288,2,280
352,64,189169,6,0,L|352:352|352:288,2,280
288,64,189169,6,0,L|288:352|288:288,2,280
480,64,189169,6,0,L|480:352|480:288,2,280
96,64,189169,6,0,L|96:352|96:288,2,280
32,64,189169,6,0,L|32:352|32:288,2,280
224,64,189169,6,0,L|224:352|224:288,2,280
160,64,189169,6,0,L|160:352|160:288,2,280
256,192,189409,12,0,189889,0:0:0:0:
0,0,189409,6,0,L|512:0,1,507.5
0,32,189409,6,0,L|512:32,1,507.5
0,64,189409,6,0,L|512:64,1,507.5
0,96,189409,6,0,L|512:96,1,507.5
0,128,189409,6,0,L|512:128,1,507.5
0,160,189409,6,0,L|512:160,1,507.5
0,192,189409,6,0,L|512:192,1,507.5
0,224,189409,6,0,L|512:224,1,507.5
0,256,189409,6,0,L|512:256,1,507.5
0,288,189409,6,0,L|512:288,1,507.5
0,320,189409,6,0,L|512:320,1,507.5
0,352,189409,6,0,L|512:352,1,507.5
0,384,189409,6,0,L|512:384,1,507.5
416,64,189649,6,0,L|416:352|416:288,2,280
352,64,189649,6,0,L|352:352|352:288,2,280
288,64,189649,6,0,L|288:352|288:288,2,280
480,64,189649,6,0,L|480:352|480:288,2,280
96,64,189649,6,0,L|96:352|96:288,2,280
32,64,189649,6,0,L|32:352|32:288,2,280
224,64,189649,6,0,L|224:352|224:288,2,280
160,64,189649,6,0,L|160:352|160:288,2,280
256,192,189889,12,0,190369,0:0:0:0:
0,0,189889,6,0,L|512:0,1,507.5
0,32,189889,6,0,L|512:32,1,507.5
0,64,189889,6,0,L|512:64,1,507.5
0,96,189889,6,0,L|512:96,1,507.5
0,128,189889,6,0,L|512:128,1,507.5
0,160,189889,6,0,L|512:160,1,507.5
0,192,189889,6,0,L|512:192,1,507.5
0,224,189889,6,0,L|512:224,1,507.5
0,256,189889,6,0,L|512:256,1,507.5
0,288,189889,6,0,L|512:288,1,507.5
0,320,189889,6,0,L|512:320,1,507.5
0,352,189889,6,0,L|512:352,1,507.5
0,384,189889,6,0,L|512:384,1,507.5
416,64,190129,6,0,L|416:352|416:288,2,280
352,64,190129,6,0,L|352:352|352:288,2,280
288,64,190129,6,0,L|288:352|288:288,2,280
480,64,190129,6,0,L|480:352|480:288,2,280
96,64,190129,6,0,L|96:352|96:288,2,280
32,64,190129,6,0,L|32:352|32:288,2,280
224,64,190129,6,0,L|224:352|224:288,2,280
160,64,190129,6,0,L|160:352|160:288,2,280
0,256,190369,6,0,L|512:256,1,507.5
0,224,190369,6,0,L|512:224,1,507.5
0,192,190369,6,0,L|512:192,1,507.5
0,288,190369,6,0,L|512:288,1,507.5
0,384,190369,6,0,L|512:384,1,507.5
0,352,190369,6,0,L|512:352,1,507.5
0,320,190369,6,0,L|512:320,1,507.5
0,32,190369,6,0,L|512:32,1,507.5
0,0,190369,6,0,L|512:0,1,507.5
256,192,190369,12,0,190849,0:0:0:0:
0,64,190369,6,0,L|512:64,1,507.5
0,160,190369,6,0,L|512:160,1,507.5
0,128,190369,6,0,L|512:128,1,507.5
0,96,190369,6,0,L|512:96,1,507.5
416,64,190609,6,0,L|416:352|416:288,2,280
352,64,190609,6,0,L|352:352|352:288,2,280
288,64,190609,6,0,L|288:352|288:288,2,280
480,64,190609,6,0,L|480:352|480:288,2,280
96,64,190609,6,0,L|96:352|96:288,2,280
32,64,190609,6,0,L|32:352|32:288,2,280
224,64,190609,6,0,L|224:352|224:288,2,280
160,64,190609,6,0,L|160:352|160:288,2,280
0,256,190849,6,0,L|512:256,1,507.5
0,224,190849,6,0,L|512:224,1,507.5
0,192,190849,6,0,L|512:192,1,507.5
0,288,190849,6,0,L|512:288,1,507.5
0,384,190849,6,0,L|512:384,1,507.5
0,352,190849,6,0,L|512:352,1,507.5
0,320,190849,6,0,L|512:320,1,507.5
0,32,190849,6,0,L|512:32,1,507.5
0,0,190849,6,0,L|512:0,1,507.5
256,192,190849,12,0,191329,0:0:0:0:
0,64,190849,6,0,L|512:64,1,507.5
0,160,190849,6,0,L|512:160,1,507.5
0,128,190849,6,0,L|512:128,1,507.5
0,96,190849,6,0,L|512:96,1,507.5
32,64,191089,6,0,L|32:352|32:288,2,280
96,64,191089,6,0,L|96:352|96:288,2,280
160,64,191089,6,0,L|160:352|160:288,2,280
224,64,191089,6,0,L|224:352|224:288,2,280
352,64,191089,6,0,L|352:352|352:288,2,280
416,64,191089,6,0,L|416:352|416:288,2,280
480,64,191089,6,0,L|480:352|480:288,2,280
288,64,191089,6,0,L|288:352|288:288,2,280
256,192,191329,12,0,191809,0:0:0:0:
0,0,191329,6,0,L|512:0,1,507.5
0,32,191329,6,0,L|512:32,1,507.5
0,64,191329,6,0,L|512:64,1,507.5
0,96,191329,6,0,L|512:96,1,507.5
0,128,191329,6,0,L|512:128,1,507.5
0,160,191329,6,0,L|512:160,1,507.5
0,192,191329,6,0,L|512:192,1,507.5
0,224,191329,6,0,L|512:224,1,507.5
0,256,191329,6,0,L|512:256,1,507.5
0,288,191329,6,0,L|512:288,1,507.5
0,320,191329,6,0,L|512:320,1,507.5
0,352,191329,6,0,L|512:352,1,507.5
0,384,191329,6,0,L|512:384,1,507.5
32,64,191569,6,0,L|32:352|32:288,2,280
96,64,191569,6,0,L|96:352|96:288,2,280
160,64,191569,6,0,L|160:352|160:288,2,280
224,64,191569,6,0,L|224:352|224:288,2,280
352,64,191569,6,0,L|352:352|352:288,2,280
416,64,191569,6,0,L|416:352|416:288,2,280
480,64,191569,6,0,L|480:352|480:288,2,280
288,64,191569,6,0,L|288:352|288:288,2,280
0,256,191809,6,0,L|512:256,1,507.5
0,224,191809,6,0,L|512:224,1,507.5
0,192,191809,6,0,L|512:192,1,507.5
0,288,191809,6,0,L|512:288,1,507.5
0,384,191809,6,0,L|512:384,1,507.5
0,352,191809,6,0,L|512:352,1,507.5
0,320,191809,6,0,L|512:320,1,507.5
0,32,191809,6,0,L|512:32,1,507.5
0,0,191809,6,0,L|512:0,1,507.5
256,192,191809,12,0,192289,0:0:0:0:
0,64,191809,6,0,L|512:64,1,507.5
0,160,191809,6,0,L|512:160,1,507.5
0,128,191809,6,0,L|512:128,1,507.5
0,96,191809,6,0,L|512:96,1,507.5
0,288,192289,6,0,L|512:288,1,507.5
0,256,192289,6,0,L|512:256,1,507.5
0,224,192289,6,0,L|512:224,1,507.5
0,320,192289,6,0,L|512:320,1,507.5
256,192,192289,12,0,192769,0:0:0:0:
0,384,192289,6,0,L|512:384,1,507.5
0,352,192289,6,0,L|512:352,1,507.5
0,64,192289,6,0,L|512:64,1,507.5
0,32,192289,6,0,L|512:32,1,507.5
0,0,192289,6,0,L|512:0,1,507.5
0,96,192289,6,0,L|512:96,1,507.5
0,192,192289,6,0,L|512:192,1,507.5
0,160,192289,6,0,L|512:160,1,507.5
0,128,192289,6,0,L|512:128,1,507.5
416,64,192529,6,0,L|416:352|416:288,2,280
352,64,192529,6,0,L|352:352|352:288,2,280
288,64,192529,6,0,L|288:352|288:288,2,280
480,64,192529,6,0,L|480:352|480:288,2,280
96,64,192529,6,0,L|96:352|96:288,2,280
32,64,192529,6,0,L|32:352|32:288,2,280
224,64,192529,6,0,L|224:352|224:288,2,280
160,64,192529,6,0,L|160:352|160:288,2,280
256,192,192769,12,0,193249,0:0:0:0:
0,0,192769,6,0,L|512:0,1,507.5
0,32,192769,6,0,L|512:32,1,507.5
0,64,192769,6,0,L|512:64,1,507.5
0,96,192769,6,0,L|512:96,1,507.5
0,128,192769,6,0,L|512:128,1,507.5
0,160,192769,6,0,L|512:160,1,507.5
0,192,192769,6,0,L|512:192,1,507.5
0,224,192769,6,0,L|512:224,1,507.5
0,256,192769,6,0,L|512:256,1,507.5
0,288,192769,6,0,L|512:288,1,507.5
0,320,192769,6,0,L|512:320,1,507.5
0,352,192769,6,0,L|512:352,1,507.5
0,384,192769,6,0,L|512:384,1,507.5
32,64,193009,6,0,L|32:352|32:288,2,280
96,64,193009,6,0,L|96:352|96:288,2,280
160,64,193009,6,0,L|160:352|160:288,2,280
224,64,193009,6,0,L|224:352|224:288,2,280
352,64,193009,6,0,L|352:352|352:288,2,280
416,64,193009,6,0,L|416:352|416:288,2,280
480,64,193009,6,0,L|480:352|480:288,2,280
288,64,193009,6,0,L|288:352|288:288,2,280
0,256,193249,6,0,L|512:256,1,507.5
0,224,193249,6,0,L|512:224,1,507.5
0,192,193249,6,0,L|512:192,1,507.5
0,288,193249,6,0,L|512:288,1,507.5
0,384,193249,6,0,L|512:384,1,507.5
0,352,193249,6,0,L|512:352,1,507.5
0,320,193249,6,0,L|512:320,1,507.5
0,32,193249,6,0,L|512:32,1,507.5
0,0,193249,6,0,L|512:0,1,507.5
256,192,193249,12,0,193729,0:0:0:0:
0,64,193249,6,0,L|512:64,1,507.5
0,160,193249,6,0,L|512:160,1,507.5
0,128,193249,6,0,L|512:128,1,507.5
0,96,193249,6,0,L|512:96,1,507.5
32,64,193489,6,0,L|32:352|32:288,2,280
96,64,193489,6,0,L|96:352|96:288,2,280
160,64,193489,6,0,L|160:352|160:288,2,280
224,64,193489,6,0,L|224:352|224:288,2,280
352,64,193489,6,0,L|352:352|352:288,2,280
416,64,193489,6,0,L|416:352|416:288,2,280
480,64,193489,6,0,L|480:352|480:288,2,280
288,64,193489,6,0,L|288:352|288:288,2,280
256,192,193729,12,0,194209,0:0:0:0:
0,0,193729,6,0,L|512:0,1,507.5
0,32,193729,6,0,L|512:32,1,507.5
0,64,193729,6,0,L|512:64,1,507.5
0,96,193729,6,0,L|512:96,1,507.5
0,128,193729,6,0,L|512:128,1,507.5
0,160,193729,6,0,L|512:160,1,507.5
0,192,193729,6,0,L|512:192,1,507.5
0,224,193729,6,0,L|512:224,1,507.5
0,256,193729,6,0,L|512:256,1,507.5
0,288,193729,6,0,L|512:288,1,507.5
0,320,193729,6,0,L|512:320,1,507.5
0,352,193729,6,0,L|512:352,1,507.5
0,384,193729,6,0,L|512:384,1,507.5
416,64,193969,6,0,L|416:352|416:288,2,280
352,64,193969,6,0,L|352:352|352:288,2,280
288,64,193969,6,0,L|288:352|288:288,2,280
480,64,193969,6,0,L|480:352|480:288,2,280
96,64,193969,6,0,L|96:352|96:288,2,280
32,64,193969,6,0,L|32:352|32:288,2,280
224,64,193969,6,0,L|224:352|224:288,2,280
160,64,193969,6,0,L|160:352|160:288,2,280
256,192,194209,12,0,194689,0:0:0:0:
0,0,194209,6,0,L|512:0,1,507.5
0,32,194209,6,0,L|512:32,1,507.5
0,64,194209,6,0,L|512:64,1,507.5
0,96,194209,6,0,L|512:96,1,507.5
0,128,194209,6,0,L|512:128,1,507.5
0,160,194209,6,0,L|512:160,1,507.5
0,192,194209,6,0,L|512:192,1,507.5
0,224,194209,6,0,L|512:224,1,507.5
0,256,194209,6,0,L|512:256,1,507.5
0,288,194209,6,0,L|512:288,1,507.5
0,320,194209,6,0,L|512:320,1,507.5
0,352,194209,6,0,L|512:352,1,507.5
0,384,194209,6,0,L|512:384,1,507.5
32,64,194449,6,0,L|32:352|32:288,2,280
96,64,194449,6,0,L|96:352|96:288,2,280
160,64,194449,6,0,L|160:352|160:288,2,280
224,64,194449,6,0,L|224:352|224:288,2,280
352,64,194449,6,0,L|352:352|352:288,2,280
416,64,194449,6,0,L|416:352|416:288,2,280
480,64,194449,6,0,L|480:352|480:288,2,280
288,64,194449,6,0,L|288:352|288:288,2,280
0,256,194689,6,0,L|512:256,1,507.5
0,224,194689,6,0,L|512:224,1,507.5
0,192,194689,6,0,L|512:192,1,507.5
0,288,194689,6,0,L|512:288,1,507.5
0,384,194689,6,0,L|512:384,1,507.5
0,352,194689,6,0,L|512:352,1,507.5
0,320,194689,6,0,L|512:320,1,507.5
0,32,194689,6,0,L|512:32,1,507.5
0,0,194689,6,0,L|512:0,1,507.5
256,192,194689,12,0,195169,0:0:0:0:
0,64,194689,6,0,L|512:64,1,507.5
0,160,194689,6,0,L|512:160,1,507.5
0,128,194689,6,0,L|512:128,1,507.5
0,96,194689,6,0,L|512:96,1,507.5
416,64,194929,6,0,L|416:352|416:288,2,280
352,64,194929,6,0,L|352:352|352:288,2,280
288,64,194929,6,0,L|288:352|288:288,2,280
480,64,194929,6,0,L|480:352|480:288,2,280
96,64,194929,6,0,L|96:352|96:288,2,280
32,64,194929,6,0,L|32:352|32:288,2,280
224,64,194929,6,0,L|224:352|224:288,2,280
160,64,194929,6,0,L|160:352|160:288,2,280
0,256,195169,6,0,L|512:256,1,507.5
0,224,195169,6,0,L|512:224,1,507.5
0,192,195169,6,0,L|512:192,1,507.5
0,288,195169,6,0,L|512:288,1,507.5
0,384,195169,6,0,L|512:384,1,507.5
0,352,195169,6,0,L|512:352,1,507.5
0,320,195169,6,0,L|512:320,1,507.5
0,32,195169,6,0,L|512:32,1,507.5
0,0,195169,6,0,L|512:0,1,507.5
256,192,195169,12,0,195649,0:0:0:0:
0,64,195169,6,0,L|512:64,1,507.5
0,160,195169,6,0,L|512:160,1,507.5
0,128,195169,6,0,L|512:128,1,507.5
0,96,195169,6,0,L|512:96,1,507.5
416,64,195409,6,0,L|416:352|416:288,2,280
352,64,195409,6,0,L|352:352|352:288,2,280
288,64,195409,6,0,L|288:352|288:288,2,280
480,64,195409,6,0,L|480:352|480:288,2,280
96,64,195409,6,0,L|96:352|96:288,2,280
32,64,195409,6,0,L|32:352|32:288,2,280
224,64,195409,6,0,L|224:352|224:288,2,280
160,64,195409,6,0,L|160:352|160:288,2,280
0,256,195649,6,0,L|512:256,1,507.5
0,224,195649,6,0,L|512:224,1,507.5
0,192,195649,6,0,L|512:192,1,507.5
0,288,195649,6,0,L|512:288,1,507.5
0,384,195649,6,0,L|512:384,1,507.5
0,352,195649,6,0,L|512:352,1,507.5
0,320,195649,6,0,L|512:320,1,507.5
0,32,195649,6,0,L|512:32,1,507.5
0,0,195649,6,0,L|512:0,1,507.5
256,192,195649,12,0,196129,0:0:0:0:
0,64,195649,6,0,L|512:64,1,507.5
0,160,195649,6,0,L|512:160,1,507.5
0,128,195649,6,0,L|512:128,1,507.5
0,96,195649,6,0,L|512:96,1,507.5
416,64,195889,6,0,L|416:352|416:288,2,280
352,64,195889,6,0,L|352:352|352:288,2,280
288,64,195889,6,0,L|288:352|288:288,2,280
480,64,195889,6,0,L|480:352|480:288,2,280
96,64,195889,6,0,L|96:352|96:288,2,280
32,64,195889,6,0,L|32:352|32:288,2,280
224,64,195889,6,0,L|224:352|224:288,2,280
160,64,195889,6,0,L|160:352|160:288,2,280
0,256,196129,6,0,L|512:256,1,507.5
0,224,196129,6,0,L|512:224,1,507.5
0,192,196129,6,0,L|512:192,1,507.5
0,288,196129,6,0,L|512:288,1,507.5
0,384,196129,6,0,L|512:384,1,507.5
0,352,196129,6,0,L|512:352,1,507.5
0,320,196129,6,0,L|512:320,1,507.5
0,32,196129,6,0,L|512:32,1,507.5
0,0,196129,6,0,L|512:0,1,507.5
256,192,196129,12,0,196609,0:0:0:0:
0,64,196129,6,0,L|512:64,1,507.5
0,160,196129,6,0,L|512:160,1,507.5
0,128,196129,6,0,L|512:128,1,507.5
0,96,196129,6,0,L|512:96,1,507.5
416,64,196369,6,0,L|416:352|416:288,2,280
352,64,196369,6,0,L|352:352|352:288,2,280
288,64,196369,6,0,L|288:352|288:288,2,280
480,64,196369,6,0,L|480:352|480:288,2,280
96,64,196369,6,0,L|96:352|96:288,2,280
32,64,196369,6,0,L|32:352|32:288,2,280
224,64,196369,6,0,L|224:352|224:288,2,280
160,64,196369,6,0,L|160:352|160:288,2,280
0,256,196609,6,0,L|512:256,1,507.5
0,224,196609,6,0,L|512:224,1,507.5
0,192,196609,6,0,L|512:192,1,507.5
0,288,196609,6,0,L|512:288,1,507.5
0,384,196609,6,0,L|512:384,1,507.5
0,352,196609,6,0,L|512:352,1,507.5
0,320,196609,6,0,L|512:320,1,507.5
0,32,196609,6,0,L|512:32,1,507.5
0,0,196609,6,0,L|512:0,1,507.5
256,192,196609,12,0,197089,0:0:0:0:
0,64,196609,6,0,L|512:64,1,507.5
0,160,196609,6,0,L|512:160,1,507.5
0,128,196609,6,0,L|512:128,1,507.5
0,96,196609,6,0,L|512:96,1,507.5
32,64,196849,6,0,L|32:352|32:288,2,280
96,64,196849,6,0,L|96:352|96:288,2,280
160,64,196849,6,0,L|160:352|160:288,2,280
224,64,196849,6,0,L|224:352|224:288,2,280
352,64,196849,6,0,L|352:352|352:288,2,280
416,64,196849,6,0,L|416:352|416:288,2,280
480,64,196849,6,0,L|480:352|480:288,2,280
288,64,196849,6,0,L|288:352|288:288,2,280
0,256,197089,6,0,L|512:256,1,507.5
0,224,197089,6,0,L|512:224,1,507.5
0,192,197089,6,0,L|512:192,1,507.5
0,288,197089,6,0,L|512:288,1,507.5
0,384,197089,6,0,L|512:384,1,507.5
0,352,197089,6,0,L|512:352,1,507.5
0,320,197089,6,0,L|512:320,1,507.5
0,32,197089,6,0,L|512:32,1,507.5
0,0,197089,6,0,L|512:0,1,507.5
256,192,197089,12,0,197569,0:0:0:0:
0,64,197089,6,0,L|512:64,1,507.5
0,160,197089,6,0,L|512:160,1,507.5
0,128,197089,6,0,L|512:128,1,507.5
0,96,197089,6,0,L|512:96,1,507.5
32,64,197329,6,0,L|32:352|32:288,2,280
96,64,197329,6,0,L|96:352|96:288,2,280
160,64,197329,6,0,L|160:352|160:288,2,280
224,64,197329,6,0,L|224:352|224:288,2,280
352,64,197329,6,0,L|352:352|352:288,2,280
416,64,197329,6,0,L|416:352|416:288,2,280
480,64,197329,6,0,L|480:352|480:288,2,280
288,64,197329,6,0,L|288:352|288:288,2,280
0,256,197569,6,0,L|512:256,1,507.5
0,224,197569,6,0,L|512:224,1,507.5
0,192,197569,6,0,L|512:192,1,507.5
0,288,197569,6,0,L|512:288,1,507.5
0,384,197569,6,0,L|512:384,1,507.5
0,352,197569,6,0,L|512:352,1,507.5
0,320,197569,6,0,L|512:320,1,507.5
0,32,197569,6,0,L|512:32,1,507.5
0,0,197569,6,0,L|512:0,1,507.5
256,192,197569,12,0,198049,0:0:0:0:
0,64,197569,6,0,L|512:64,1,507.5
0,160,197569,6,0,L|512:160,1,507.5
0,128,197569,6,0,L|512:128,1,507.5
0,96,197569,6,0,L|512:96,1,507.5
32,64,197809,6,0,L|32:352|32:288,2,280
96,64,197809,6,0,L|96:352|96:288,2,280
160,64,197809,6,0,L|160:352|160:288,2,280
224,64,197809,6,0,L|224:352|224:288,2,280
352,64,197809,6,0,L|352:352|352:288,2,280
416,64,197809,6,0,L|416:352|416:288,2,280
480,64,197809,6,0,L|480:352|480:288,2,280
288,64,197809,6,0,L|288:352|288:288,2,280
256,192,198049,12,0,198529,0:0:0:0:
0,0,198049,6,0,L|512:0,1,507.5
0,32,198049,6,0,L|512:32,1,507.5
0,64,198049,6,0,L|512:64,1,507.5
0,96,198049,6,0,L|512:96,1,507.5
0,128,198049,6,0,L|512:128,1,507.5
0,160,198049,6,0,L|512:160,1,507.5
0,192,198049,6,0,L|512:192,1,507.5
0,224,198049,6,0,L|512:224,1,507.5
0,256,198049,6,0,L|512:256,1,507.5
0,288,198049,6,0,L|512:288,1,507.5
0,320,198049,6,0,L|512:320,1,507.5
0,352,198049,6,0,L|512:352,1,507.5
0,384,198049,6,0,L|512:384,1,507.5
32,64,198289,6,0,L|32:352|32:288,2,280
96,64,198289,6,0,L|96:352|96:288,2,280
160,64,198289,6,0,L|160:352|160:288,2,280
224,64,198289,6,0,L|224:352|224:288,2,280
352,64,198289,6,0,L|352:352|352:288,2,280
416,64,198289,6,0,L|416:352|416:288,2,280
480,64,198289,6,0,L|480:352|480:288,2,280
288,64,198289,6,0,L|288:352|288:288,2,280
256,192,198529,12,0,199009,0:0:0:0:
0,0,198529,6,0,L|512:0,1,507.5
0,32,198529,6,0,L|512:32,1,507.5
0,64,198529,6,0,L|512:64,1,507.5
0,96,198529,6,0,L|512:96,1,507.5
0,128,198529,6,0,L|512:128,1,507.5
0,160,198529,6,0,L|512:160,1,507.5
0,192,198529,6,0,L|512:192,1,507.5
0,224,198529,6,0,L|512:224,1,507.5
0,256,198529,6,0,L|512:256,1,507.5
0,288,198529,6,0,L|512:288,1,507.5
0,320,198529,6,0,L|512:320,1,507.5
0,352,198529,6,0,L|512:352,1,507.5
0,384,198529,6,0,L|512:384,1,507.5
416,64,198769,6,0,L|416:352|416:288,2,280
352,64,198769,6,0,L|352:352|352:288,2,280
288,64,198769,6,0,L|288:352|288:288,2,280
480,64,198769,6,0,L|480:352|480:288,2,280
96,64,198769,6,0,L|96:352|96:288,2,280
32,64,198769,6,0,L|32:352|32:288,2,280
224,64,198769,6,0,L|224:352|224:288,2,280
160,64,198769,6,0,L|160:352|160:288,2,280
0,256,199009,6,0,L|512:256,1,507.5
0,224,199009,6,0,L|512:224,1,507.5
0,192,199009,6,0,L|512:192,1,507.5
0,288,199009,6,0,L|512:288,1,507.5
0,384,199009,6,0,L|512:384,1,507.5
0,352,199009,6,0,L|512:352,1,507.5
0,320,199009,6,0,L|512:320,1,507.5
0,32,199009,6,0,L|512:32,1,507.5
0,0,199009,6,0,L|512:0,1,507.5
256,192,199009,12,0,199489,0:0:0:0:
0,64,199009,6,0,L|512:64,1,507.5
0,160,199009,6,0,L|512:160,1,507.5
0,128,199009,6,0,L|512:128,1,507.5
0,96,199009,6,0,L|512:96,1,507.5
416,64,199249,6,0,L|416:352|416:288,2,280
352,64,199249,6,0,L|352:352|352:288,2,280
288,64,199249,6,0,L|288:352|288:288,2,280
480,64,199249,6,0,L|480:352|480:288,2,280
96,64,199249,6,0,L|96:352|96:288,2,280
32,64,199249,6,0,L|32:352|32:288,2,280
224,64,199249,6,0,L|224:352|224:288,2,280
160,64,199249,6,0,L|160:352|160:288,2,280
256,192,199489,12,0,199969,0:0:0:0:
0,0,199489,6,0,L|512:0,1,507.5
0,32,199489,6,0,L|512:32,1,507.5
0,64,199489,6,0,L|512:64,1,507.5
0,96,199489,6,0,L|512:96,1,507.5
0,128,199489,6,0,L|512:128,1,507.5
0,160,199489,6,0,L|512:160,1,507.5
0,192,199489,6,0,L|512:192,1,507.5
0,224,199489,6,0,L|512:224,1,507.5
0,256,199489,6,0,L|512:256,1,507.5
0,288,199489,6,0,L|512:288,1,507.5
0,320,199489,6,0,L|512:320,1,507.5
0,352,199489,6,0,L|512:352,1,507.5
0,384,199489,6,0,L|512:384,1,507.5
0,0,199969,6,0,L|512:0,1,507.5
0,32,199969,6,0,L|512:32,1,507.5
0,64,199969,6,0,L|512:64,1,507.5
0,96,199969,6,0,L|512:96,1,507.5
0,128,199969,6,0,L|512:128,1,507.5
0,160,199969,6,0,L|512:160,1,507.5
0,192,199969,6,0,L|512:192,1,507.5
0,224,199969,6,0,L|512:224,1,507.5
0,256,199969,6,0,L|512:256,1,507.5
0,288,199969,6,0,L|512:288,1,507.5
0,320,199969,6,0,L|512:320,1,507.5
0,352,199969,6,0,L|512:352,1,507.5
0,384,199969,6,0,L|512:384,1,507.5
256,192,199969,12,0,200449,0:0:0:0:
32,64,200209,6,0,L|32:352|32:288,2,280
96,64,200209,6,0,L|96:352|96:288,2,280
160,64,200209,6,0,L|160:352|160:288,2,280
224,64,200209,6,0,L|224:352|224:288,2,280
352,64,200209,6,0,L|352:352|352:288,2,280
416,64,200209,6,0,L|416:352|416:288,2,280
480,64,200209,6,0,L|480:352|480:288,2,280
288,64,200209,6,0,L|288:352|288:288,2,280
0,256,200449,6,0,L|512:256,1,507.5
0,224,200449,6,0,L|512:224,1,507.5
0,192,200449,6,0,L|512:192,1,507.5
0,288,200449,6,0,L|512:288,1,507.5
0,384,200449,6,0,L|512:384,1,507.5
0,352,200449,6,0,L|512:352,1,507.5
0,320,200449,6,0,L|512:320,1,507.5
0,32,200449,6,0,L|512:32,1,507.5
0,0,200449,6,0,L|512:0,1,507.5
256,192,200449,12,0,200929,0:0:0:0:
0,64,200449,6,0,L|512:64,1,507.5
0,160,200449,6,0,L|512:160,1,507.5
0,128,200449,6,0,L|512:128,1,507.5
0,96,200449,6,0,L|512:96,1,507.5
416,64,200689,6,0,L|416:352|416:288,2,280
352,64,200689,6,0,L|352:352|352:288,2,280
288,64,200689,6,0,L|288:352|288:288,2,280
480,64,200689,6,0,L|480:352|480:288,2,280
96,64,200689,6,0,L|96:352|96:288,2,280
32,64,200689,6,0,L|32:352|32:288,2,280
224,64,200689,6,0,L|224:352|224:288,2,280
160,64,200689,6,0,L|160:352|160:288,2,280
256,192,200929,12,0,201409,0:0:0:0:
0,0,200929,6,0,L|512:0,1,507.5
0,32,200929,6,0,L|512:32,1,507.5
0,64,200929,6,0,L|512:64,1,507.5
0,96,200929,6,0,L|512:96,1,507.5
0,128,200929,6,0,L|512:128,1,507.5
0,160,200929,6,0,L|512:160,1,507.5
0,192,200929,6,0,L|512:192,1,507.5
0,224,200929,6,0,L|512:224,1,507.5
0,256,200929,6,0,L|512:256,1,507.5
0,288,200929,6,0,L|512:288,1,507.5
0,320,200929,6,0,L|512:320,1,507.5
0,352,200929,6,0,L|512:352,1,507.5
0,384,200929,6,0,L|512:384,1,507.5
416,64,201169,6,0,L|416:352|416:288,2,280
352,64,201169,6,0,L|352:352|352:288,2,280
288,64,201169,6,0,L|288:352|288:288,2,280
480,64,201169,6,0,L|480:352|480:288,2,280
96,64,201169,6,0,L|96:352|96:288,2,280
32,64,201169,6,0,L|32:352|32:288,2,280
224,64,201169,6,0,L|224:352|224:288,2,280
160,64,201169,6,0,L|160:352|160:288,2,280
0,256,201409,6,0,L|512:256,1,507.5
0,224,201409,6,0,L|512:224,1,507.5
0,192,201409,6,0,L|512:192,1,507.5
0,288,201409,6,0,L|512:288,1,507.5
0,384,201409,6,0,L|512:384,1,507.5
0,352,201409,6,0,L|512:352,1,507.5
0,320,201409,6,0,L|512:320,1,507.5
0,32,201409,6,0,L|512:32,1,507.5
0,0,201409,6,0,L|512:0,1,507.5
256,192,201409,12,0,201889,0:0:0:0:
0,64,201409,6,0,L|512:64,1,507.5
0,160,201409,6,0,L|512:160,1,507.5
0,128,201409,6,0,L|512:128,1,507.5
0,96,201409,6,0,L|512:96,1,507.5
32,64,201649,6,0,L|32:352|32:288,2,280
96,64,201649,6,0,L|96:352|96:288,2,280
160,64,201649,6,0,L|160:352|160:288,2,280
224,64,201649,6,0,L|224:352|224:288,2,280
352,64,201649,6,0,L|352:352|352:288,2,280
416,64,201649,6,0,L|416:352|416:288,2,280
480,64,201649,6,0,L|480:352|480:288,2,280
288,64,201649,6,0,L|288:352|288:288,2,280
0,256,201889,6,0,L|512:256,1,507.5
0,224,201889,6,0,L|512:224,1,507.5
0,192,201889,6,0,L|512:192,1,507.5
0,288,201889,6,0,L|512:288,1,507.5
0,384,201889,6,0,L|512:384,1,507.5
0,352,201889,6,0,L|512:352,1,507.5
0,320,201889,6,0,L|512:320,1,507.5
0,32,201889,6,0,L|512:32,1,507.5
0,0,201889,6,0,L|512:0,1,507.5
256,192,201889,12,0,202369,0:0:0:0:
0,64,201889,6,0,L|512:64,1,507.5
0,160,201889,6,0,L|512:160,1,507.5
0,128,201889,6,0,L|512:128,1,507.5
0,96,201889,6,0,L|512:96,1,507.5
416,64,202129,6,0,L|416:352|416:288,2,280
352,64,202129,6,0,L|352:352|352:288,2,280
288,64,202129,6,0,L|288:352|288:288,2,280
480,64,202129,6,0,L|480:352|480:288,2,280
96,64,202129,6,0,L|96:352|96:288,2,280
32,64,202129,6,0,L|32:352|32:288,2,280
224,64,202129,6,0,L|224:352|224:288,2,280
160,64,202129,6,0,L|160:352|160:288,2,280
256,192,202369,12,0,202849,0:0:0:0:
0,0,202369,6,0,L|512:0,1,507.5
0,32,202369,6,0,L|512:32,1,507.5
0,64,202369,6,0,L|512:64,1,507.5
0,96,202369,6,0,L|512:96,1,507.5
0,128,202369,6,0,L|512:128,1,507.5
0,160,202369,6,0,L|512:160,1,507.5
0,192,202369,6,0,L|512:192,1,507.5
0,224,202369,6,0,L|512:224,1,507.5
0,256,202369,6,0,L|512:256,1,507.5
0,288,202369,6,0,L|512:288,1,507.5
0,320,202369,6,0,L|512:320,1,507.5
0,352,202369,6,0,L|512:352,1,507.5
0,384,202369,6,0,L|512:384,1,507.5
32,64,202609,6,0,L|32:352|32:288,2,280
96,64,202609,6,0,L|96:352|96:288,2,280
160,64,202609,6,0,L|160:352|160:288,2,280
224,64,202609,6,0,L|224:352|224:288,2,280
352,64,202609,6,0,L|352:352|352:288,2,280
416,64,202609,6,0,L|416:352|416:288,2,280
480,64,202609,6,0,L|480:352|480:288,2,280
288,64,202609,6,0,L|288:352|288:288,2,280
256,192,202849,12,0,203329,0:0:0:0:
0,0,202849,6,0,L|512:0,1,507.5
0,32,202849,6,0,L|512:32,1,507.5
0,64,202849,6,0,L|512:64,1,507.5
0,96,202849,6,0,L|512:96,1,507.5
0,128,202849,6,0,L|512:128,1,507.5
0,160,202849,6,0,L|512:160,1,507.5
0,192,202849,6,0,L|512:192,1,507.5
0,224,202849,6,0,L|512:224,1,507.5
0,256,202849,6,0,L|512:256,1,507.5
0,288,202849,6,0,L|512:288,1,507.5
0,320,202849,6,0,L|512:320,1,507.5
0,352,202849,6,0,L|512:352,1,507.5
0,384,202849,6,0,L|512:384,1,507.5
32,64,203089,6,0,L|32:352|32:288,2,280
96,64,203089,6,0,L|96:352|96:288,2,280
160,64,203089,6,0,L|160:352|160:288,2,280
224,64,203089,6,0,L|224:352|224:288,2,280
352,64,203089,6,0,L|352:352|352:288,2,280
416,64,203089,6,0,L|416:352|416:288,2,280
480,64,203089,6,0,L|480:352|480:288,2,280
288,64,203089,6,0,L|288:352|288:288,2,280
256,192,203329,12,0,203809,0:0:0:0:
0,0,203329,6,0,L|512:0,1,507.5
0,32,203329,6,0,L|512:32,1,507.5
0,64,203329,6,0,L|512:64,1,507.5
0,96,203329,6,0,L|512:96,1,507.5
0,128,203329,6,0,L|512:128,1,507.5
0,160,203329,6,0,L|512:160,1,507.5
0,192,203329,6,0,L|512:192,1,507.5
0,224,203329,6,0,L|512:224,1,507.5
0,256,203329,6,0,L|512:256,1,507.5
0,288,203329,6,0,L|512:288,1,507.5
0,320,203329,6,0,L|512:320,1,507.5
0,352,203329,6,0,L|512:352,1,507.5
0,384,203329,6,0,L|512:384,1,507.5
32,64,203569,6,0,L|32:352|32:288,2,280
96,64,203569,6,0,L|96:352|96:288,2,280
160,64,203569,6,0,L|160:352|160:288,2,280
224,64,203569,6,0,L|224:352|224:288,2,280
352,64,203569,6,0,L|352:352|352:288,2,280
416,64,203569,6,0,L|416:352|416:288,2,280
480,64,203569,6,0,L|480:352|480:288,2,280
288,64,203569,6,0,L|288:352|288:288,2,280
256,192,203809,12,0,204289,0:0:0:0:
0,0,203809,6,0,L|512:0,1,507.5
0,32,203809,6,0,L|512:32,1,507.5
0,64,203809,6,0,L|512:64,1,507.5
0,96,203809,6,0,L|512:96,1,507.5
0,128,203809,6,0,L|512:128,1,507.5
0,160,203809,6,0,L|512:160,1,507.5
0,192,203809,6,0,L|512:192,1,507.5
0,224,203809,6,0,L|512:224,1,507.5
0,256,203809,6,0,L|512:256,1,507.5
0,288,203809,6,0,L|512:288,1,507.5
0,320,203809,6,0,L|512:320,1,507.5
0,352,203809,6,0,L|512:352,1,507.5
0,384,203809,6,0,L|512:384,1,507.5
32,64,204049,6,0,L|32:352|32:288,2,280
96,64,204049,6,0,L|96:352|96:288,2,280
160,64,204049,6,0,L|160:352|160:288,2,280
224,64,204049,6,0,L|224:352|224:288,2,280
352,64,204049,6,0,L|352:352|352:288,2,280
416,64,204049,6,0,L|416:352|416:288,2,280
480,64,204049,6,0,L|480:352|480:288,2,280
288,64,204049,6,0,L|288:352|288:288,2,280
256,192,204289,12,0,204769,0:0:0:0:
0,0,204289,6,0,L|512:0,1,507.5
0,32,204289,6,0,L|512:32,1,507.5
0,64,204289,6,0,L|512:64,1,507.5
0,96,204289,6,0,L|512:96,1,507.5
0,128,204289,6,0,L|512:128,1,507.5
0,160,204289,6,0,L|512:160,1,507.5
0,192,204289,6,0,L|512:192,1,507.5
0,224,204289,6,0,L|512:224,1,507.5
0,256,204289,6,0,L|512:256,1,507.5
0,288,204289,6,0,L|512:288,1,507.5
0,320,204289,6,0,L|512:320,1,507.5
0,352,204289,6,0,L|512:352,1,507.5
0,384,204289,6,0,L|512:384,1,507.5
416,64,204529,6,0,L|416:352|416:288,2,280
352,64,204529,6,0,L|352:352|352:288,2,280
288,64,204529,6,0,L|288:352|288:288,2,280
480,64,204529,6,0,L|480:352|480:288,2,280
96,64,204529,6,0,L|96:352|96:288,2,280
32,64,204529,6,0,L|32:352|32:288,2,280
224,64,204529,6,0,L|224:352|224:288,2,280
160,64,204529,6,0,L|160:352|160:288,2,280
256,192,204769,12,0,205249,0:0:0:0:
0,0,204769,6,0,L|512:0,1,507.5
0,32,204769,6,0,L|512:32,1,507.5
0,64,204769,6,0,L|512:64,1,507.5
0,96,204769,6,0,L|512:96,1,507.5
0,128,204769,6,0,L|512:128,1,507.5
0,160,204769,6,0,L|512:160,1,507.5
0,192,204769,6,0,L|512:192,1,507.5
0,224,204769,6,0,L|512:224,1,507.5
0,256,204769,6,0,L|512:256,1,507.5
0,288,204769,6,0,L|512:288,1,507.5
0,320,204769,6,0,L|512:320,1,507.5
0,352,204769,6,0,L|512:352,1,507.5
0,384,204769,6,0,L|512:384,1,507.5
416,64,205009,6,0,L|416:352|416:288,2,280
352,64,205009,6,0,L|352:352|352:288,2,280
288,64,205009,6,0,L|288:352|288:288,2,280
480,64,205009,6,0,L|480:352|480:288,2,280
96,64,205009,6,0,L|96:352|96:288,2,280
32,64,205009,6,0,L|32:352|32:288,2,280
224,64,205009,6,0,L|224:352|224:288,2,280
160,64,205009,6,0,L|160:352|160:288,2,280
256,192,205249,12,0,205729,0:0:0:0:
0,0,205249,6,0,L|512:0,1,507.5
0,32,205249,6,0,L|512:32,1,507.5
0,64,205249,6,0,L|512:64,1,507.5
0,96,205249,6,0,L|512:96,1,507.5
0,128,205249,6,0,L|512:128,1,507.5
0,160,205249,6,0,L|512:160,1,507.5
0,192,205249,6,0,L|512:192,1,507.5
0,224,205249,6,0,L|512:224,1,507.5
0,256,205249,6,0,L|512:256,1,507.5
0,288,205249,6,0,L|512:288,1,507.5
0,320,205249,6,0,L|512:320,1,507.5
0,352,205249,6,0,L|512:352,1,507.5
0,384,205249,6,0,L|512:384,1,507.5
416,64,205489,6,0,L|416:352|416:288,2,280
352,64,205489,6,0,L|352:352|352:288,2,280
288,64,205489,6,0,L|288:352|288:288,2,280
480,64,205489,6,0,L|480:352|480:288,2,280
96,64,205489,6,0,L|96:352|96:288,2,280
32,64,205489,6,0,L|32:352|32:288,2,280
224,64,205489,6,0,L|224:352|224:288,2,280
160,64,205489,6,0,L|160:352|160:288,2,280
0,256,205729,6,0,L|512:256,1,507.5
0,224,205729,6,0,L|512:224,1,507.5
0,192,205729,6,0,L|512:192,1,507.5
0,288,205729,6,0,L|512:288,1,507.5
0,384,205729,6,0,L|512:384,1,507.5
0,352,205729,6,0,L|512:352,1,507.5
0,320,205729,6,0,L|512:320,1,507.5
0,32,205729,6,0,L|512:32,1,507.5
0,0,205729,6,0,L|512:0,1,507.5
256,192,205729,12,0,206209,0:0:0:0:
0,64,205729,6,0,L|512:64,1,507.5
0,160,205729,6,0,L|512:160,1,507.5
0,128,205729,6,0,L|512:128,1,507.5
0,96,205729,6,0,L|512:96,1,507.5
416,64,205969,6,0,L|416:352|416:288,2,280
352,64,205969,6,0,L|352:352|352:288,2,280
288,64,205969,6,0,L|288:352|288:288,2,280
480,64,205969,6,0,L|480:352|480:288,2,280
96,64,205969,6,0,L|96:352|96:288,2,280
32,64,205969,6,0,L|32:352|32:288,2,280
224,64,205969,6,0,L|224:352|224:288,2,280
160,64,205969,6,0,L|160:352|160:288,2,280
0,256,206209,6,0,L|512:256,1,507.5
0,224,206209,6,0,L|512:224,1,507.5
0,192,206209,6,0,L|512:192,1,507.5
0,288,206209,6,0,L|512:288,1,507.5
0,384,206209,6,0,L|512:384,1,507.5
0,352,206209,6,0,L|512:352,1,507.5
0,320,206209,6,0,L|512:320,1,507.5
0,32,206209,6,0,L|512:32,1,507.5
0,0,206209,6,0,L|512:0,1,507.5
256,192,206209,12,0,206689,0:0:0:0:
0,64,206209,6,0,L|512:64,1,507.5
0,160,206209,6,0,L|512:160,1,507.5
0,128,206209,6,0,L|512:128,1,507.5
0,96,206209,6,0,L|512:96,1,507.5
32,64,206449,6,0,L|32:352|32:288,2,280
96,64,206449,6,0,L|96:352|96:288,2,280
160,64,206449,6,0,L|160:352|160:288,2,280
224,64,206449,6,0,L|224:352|224:288,2,280
352,64,206449,6,0,L|352:352|352:288,2,280
416,64,206449,6,0,L|416:352|416:288,2,280
480,64,206449,6,0,L|480:352|480:288,2,280
288,64,206449,6,0,L|288:352|288:288,2,280
256,192,206689,12,0,207169,0:0:0:0:
0,0,206689,6,0,L|512:0,1,507.5
0,32,206689,6,0,L|512:32,1,507.5
0,64,206689,6,0,L|512:64,1,507.5
0,96,206689,6,0,L|512:96,1,507.5
0,128,206689,6,0,L|512:128,1,507.5
0,160,206689,6,0,L|512:160,1,507.5
0,192,206689,6,0,L|512:192,1,507.5
0,224,206689,6,0,L|512:224,1,507.5
0,256,206689,6,0,L|512:256,1,507.5
0,288,206689,6,0,L|512:288,1,507.5
0,320,206689,6,0,L|512:320,1,507.5
0,352,206689,6,0,L|512:352,1,507.5
0,384,206689,6,0,L|512:384,1,507.5
32,64,206929,6,0,L|32:352|32:288,2,280
96,64,206929,6,0,L|96:352|96:288,2,280
160,64,206929,6,0,L|160:352|160:288,2,280
224,64,206929,6,0,L|224:352|224:288,2,280
352,64,206929,6,0,L|352:352|352:288,2,280
416,64,206929,6,0,L|416:352|416:288,2,280
480,64,206929,6,0,L|480:352|480:288,2,280
288,64,206929,6,0,L|288:352|288:288,2,280
0,256,207169,6,0,L|512:256,1,507.5
0,224,207169,6,0,L|512:224,1,507.5
0,192,207169,6,0,L|512:192,1,507.5
0,288,207169,6,0,L|512:288,1,507.5
0,384,207169,6,0,L|512:384,1,507.5
0,352,207169,6,0,L|512:352,1,507.5
0,320,207169,6,0,L|512:320,1,507.5
0,32,207169,6,0,L|512:32,1,507.5
0,0,207169,6,0,L|512:0,1,507.5
256,192,207169,12,0,207649,0:0:0:0:
0,64,207169,6,0,L|512:64,1,507.5
0,160,207169,6,0,L|512:160,1,507.5
0,128,207169,6,0,L|512:128,1,507.5
0,96,207169,6,0,L|512:96,1,507.5
0,288,207649,6,0,L|512:288,1,507.5
0,256,207649,6,0,L|512:256,1,507.5
0,224,207649,6,0,L|512:224,1,507.5
0,320,207649,6,0,L|512:320,1,507.5
256,192,207649,12,0,208129,0:0:0:0:
0,384,207649,6,0,L|512:384,1,507.5
0,352,207649,6,0,L|512:352,1,507.5
0,64,207649,6,0,L|512:64,1,507.5
0,32,207649,6,0,L|512:32,1,507.5
0,0,207649,6,0,L|512:0,1,507.5
0,96,207649,6,0,L|512:96,1,507.5
0,192,207649,6,0,L|512:192,1,507.5
0,160,207649,6,0,L|512:160,1,507.5
0,128,207649,6,0,L|512:128,1,507.5
416,64,207889,6,0,L|416:352|416:288,2,280
352,64,207889,6,0,L|352:352|352:288,2,280
288,64,207889,6,0,L|288:352|288:288,2,280
480,64,207889,6,0,L|480:352|480:288,2,280
96,64,207889,6,0,L|96:352|96:288,2,280
32,64,207889,6,0,L|32:352|32:288,2,280
224,64,207889,6,0,L|224:352|224:288,2,280
160,64,207889,6,0,L|160:352|160:288,2,280
256,192,208129,12,0,208609,0:0:0:0:
0,0,208129,6,0,L|512:0,1,507.5
0,32,208129,6,0,L|512:32,1,507.5
0,64,208129,6,0,L|512:64,1,507.5
0,96,208129,6,0,L|512:96,1,507.5
0,128,208129,6,0,L|512:128,1,507.5
0,160,208129,6,0,L|512:160,1,507.5
0,192,208129,6,0,L|512:192,1,507.5
0,224,208129,6,0,L|512:224,1,507.5
0,256,208129,6,0,L|512:256,1,507.5
0,288,208129,6,0,L|512:288,1,507.5
0,320,208129,6,0,L|512:320,1,507.5
0,352,208129,6,0,L|512:352,1,507.5
0,384,208129,6,0,L|512:384,1,507.5
32,64,208369,6,0,L|32:352|32:288,2,280
96,64,208369,6,0,L|96:352|96:288,2,280
160,64,208369,6,0,L|160:352|160:288,2,280
224,64,208369,6,0,L|224:352|224:288,2,280
352,64,208369,6,0,L|352:352|352:288,2,280
416,64,208369,6,0,L|416:352|416:288,2,280
480,64,208369,6,0,L|480:352|480:288,2,280
288,64,208369,6,0,L|288:352|288:288,2,280
0,256,208609,6,0,L|512:256,1,507.5
0,224,208609,6,0,L|512:224,1,507.5
0,192,208609,6,0,L|512:192,1,507.5
0,288,208609,6,0,L|512:288,1,507.5
0,384,208609,6,0,L|512:384,1,507.5
0,352,208609,6,0,L|512:352,1,507.5
0,320,208609,6,0,L|512:320,1,507.5
0,32,208609,6,0,L|512:32,1,507.5
0,0,208609,6,0,L|512:0,1,507.5
256,192,208609,12,0,209089,0:0:0:0:
0,64,208609,6,0,L|512:64,1,507.5
0,160,208609,6,0,L|512:160,1,507.5
0,128,208609,6,0,L|512:128,1,507.5
0,96,208609,6,0,L|512:96,1,507.5
32,64,208849,6,0,L|32:352|32:288,2,280
96,64,208849,6,0,L|96:352|96:288,2,280
160,64,208849,6,0,L|160:352|160:288,2,280
224,64,208849,6,0,L|224:352|224:288,2,280
352,64,208849,6,0,L|352:352|352:288,2,280
416,64,208849,6,0,L|416:352|416:288,2,280
480,64,208849,6,0,L|480:352|480:288,2,280
288,64,208849,6,0,L|288:352|288:288,2,280
256,192,209089,12,0,209569,0:0:0:0:
0,0,209089,6,0,L|512:0,1,507.5
0,32,209089,6,0,L|512:32,1,507.5
0,64,209089,6,0,L|512:64,1,507.5
0,96,209089,6,0,L|512:96,1,507.5
0,128,209089,6,0,L|512:128,1,507.5
0,160,209089,6,0,L|512:160,1,507.5
0,192,209089,6,0,L|512:192,1,507.5
0,224,209089,6,0,L|512:224,1,507.5
0,256,209089,6,0,L|512:256,1,507.5
0,288,209089,6,0,L|512:288,1,507.5
0,320,209089,6,0,L|512:320,1,507.5
0,352,209089,6,0,L|512:352,1,507.5
0,384,209089,6,0,L|512:384,1,507.5
416,64,209329,6,0,L|416:352|416:288,2,280
352,64,209329,6,0,L|352:352|352:288,2,280
288,64,209329,6,0,L|288:352|288:288,2,280
480,64,209329,6,0,L|480:352|480:288,2,280
96,64,209329,6,0,L|96:352|96:288,2,280
32,64,209329,6,0,L|32:352|32:288,2,280
224,64,209329,6,0,L|224:352|224:288,2,280
160,64,209329,6,0,L|160:352|160:288,2,280
256,192,209569,12,0,210049,0:0:0:0:
0,0,209569,6,0,L|512:0,1,507.5
0,32,209569,6,0,L|512:32,1,507.5
0,64,209569,6,0,L|512:64,1,507.5
0,96,209569,6,0,L|512:96,1,507.5
0,128,209569,6,0,L|512:128,1,507.5
0,160,209569,6,0,L|512:160,1,507.5
0,192,209569,6,0,L|512:192,1,507.5
0,224,209569,6,0,L|512:224,1,507.5
0,256,209569,6,0,L|512:256,1,507.5
0,288,209569,6,0,L|512:288,1,507.5
0,320,209569,6,0,L|512:320,1,507.5
0,352,209569,6,0,L|512:352,1,507.5
0,384,209569,6,0,L|512:384,1,507.5
32,64,209809,6,0,L|32:352|32:288,2,280
96,64,209809,6,0,L|96:352|96:288,2,280
160,64,209809,6,0,L|160:352|160:288,2,280
224,64,209809,6,0,L|224:352|224:288,2,280
352,64,209809,6,0,L|352:352|352:288,2,280
416,64,209809,6,0,L|416:352|416:288,2,280
480,64,209809,6,0,L|480:352|480:288,2,280
288,64,209809,6,0,L|288:352|288:288,2,280
0,256,210049,6,0,L|512:256,1,507.5
0,224,210049,6,0,L|512:224,1,507.5
0,192,210049,6,0,L|512:192,1,507.5
0,288,210049,6,0,L|512:288,1,507.5
0,384,210049,6,0,L|512:384,1,507.5
0,352,210049,6,0,L|512:352,1,507.5
0,320,210049,6,0,L|512:320,1,507.5
0,32,210049,6,0,L|512:32,1,507.5
0,0,210049,6,0,L|512:0,1,507.5
256,192,210049,12,0,210529,0:0:0:0:
0,64,210049,6,0,L|512:64,1,507.5
0,160,210049,6,0,L|512:160,1,507.5
0,128,210049,6,0,L|512:128,1,507.5
0,96,210049,6,0,L|512:96,1,507.5
416,64,210289,6,0,L|416:352|416:288,2,280
352,64,210289,6,0,L|352:352|352:288,2,280
288,64,210289,6,0,L|288:352|288:288,2,280
480,64,210289,6,0,L|480:352|480:288,2,280
96,64,210289,6,0,L|96:352|96:288,2,280
32,64,210289,6,0,L|32:352|32:288,2,280
224,64,210289,6,0,L|224:352|224:288,2,280
160,64,210289,6,0,L|160:352|160:288,2,280
0,256,210529,6,0,L|512:256,1,507.5
0,224,210529,6,0,L|512:224,1,507.5
0,192,210529,6,0,L|512:192,1,507.5
0,288,210529,6,0,L|512:288,1,507.5
0,384,210529,6,0,L|512:384,1,507.5
0,352,210529,6,0,L|512:352,1,507.5
0,320,210529,6,0,L|512:320,1,507.5
0,32,210529,6,0,L|512:32,1,507.5
0,0,210529,6,0,L|512:0,1,507.5
256,192,210529,12,0,211009,0:0:0:0:
0,64,210529,6,0,L|512:64,1,507.5
0,160,210529,6,0,L|512:160,1,507.5
0,128,210529,6,0,L|512:128,1,507.5
0,96,210529,6,0,L|512:96,1,507.5
416,64,210769,6,0,L|416:352|416:288,2,280
352,64,210769,6,0,L|352:352|352:288,2,280
288,64,210769,6,0,L|288:352|288:288,2,280
480,64,210769,6,0,L|480:352|480:288,2,280
96,64,210769,6,0,L|96:352|96:288,2,280
32,64,210769,6,0,L|32:352|32:288,2,280
224,64,210769,6,0,L|224:352|224:288,2,280
160,64,210769,6,0,L|160:352|160:288,2,280
0,256,211009,6,0,L|512:256,1,507.5
0,224,211009,6,0,L|512:224,1,507.5
0,192,211009,6,0,L|512:192,1,507.5
0,288,211009,6,0,L|512:288,1,507.5
0,384,211009,6,0,L|512:384,1,507.5
0,352,211009,6,0,L|512:352,1,507.5
0,320,211009,6,0,L|512:320,1,507.5
0,32,211009,6,0,L|512:32,1,507.5
0,0,211009,6,0,L|512:0,1,507.5
256,192,211009,12,0,211489,0:0:0:0:
0,64,211009,6,0,L|512:64,1,507.5
0,160,211009,6,0,L|512:160,1,507.5
0,128,211009,6,0,L|512:128,1,507.5
0,96,211009,6,0,L|512:96,1,507.5
416,64,211249,6,0,L|416:352|416:288,2,280
352,64,211249,6,0,L|352:352|352:288,2,280
288,64,211249,6,0,L|288:352|288:288,2,280
480,64,211249,6,0,L|480:352|480:288,2,280
96,64,211249,6,0,L|96:352|96:288,2,280
32,64,211249,6,0,L|32:352|32:288,2,280
224,64,211249,6,0,L|224:352|224:288,2,280
160,64,211249,6,0,L|160:352|160:288,2,280
0,256,211489,6,0,L|512:256,1,507.5
0,224,211489,6,0,L|512:224,1,507.5
0,192,211489,6,0,L|512:192,1,507.5
0,288,211489,6,0,L|512:288,1,507.5
0,384,211489,6,0,L|512:384,1,507.5
0,352,211489,6,0,L|512:352,1,507.5
0,320,211489,6,0,L|512:320,1,507.5
0,32,211489,6,0,L|512:32,1,507.5
0,0,211489,6,0,L|512:0,1,507.5
256,192,211489,12,0,211969,0:0:0:0:
0,64,211489,6,0,L|512:64,1,507.5
0,160,211489,6,0,L|512:160,1,507.5
0,128,211489,6,0,L|512:128,1,507.5
0,96,211489,6,0,L|512:96,1,507.5
416,64,211729,6,0,L|416:352|416:288,2,280
352,64,211729,6,0,L|352:352|352:288,2,280
288,64,211729,6,0,L|288:352|288:288,2,280
480,64,211729,6,0,L|480:352|480:288,2,280
96,64,211729,6,0,L|96:352|96:288,2,280
32,64,211729,6,0,L|32:352|32:288,2,280
224,64,211729,6,0,L|224:352|224:288,2,280
160,64,211729,6,0,L|160:352|160:288,2,280
0,256,211969,6,0,L|512:256,1,507.5
0,224,211969,6,0,L|512:224,1,507.5
0,192,211969,6,0,L|512:192,1,507.5
0,288,211969,6,0,L|512:288,1,507.5
0,384,211969,6,0,L|512:384,1,507.5
0,352,211969,6,0,L|512:352,1,507.5
0,320,211969,6,0,L|512:320,1,507.5
0,32,211969,6,0,L|512:32,1,507.5
0,0,211969,6,0,L|512:0,1,507.5
256,192,211969,12,0,212449,0:0:0:0:
0,64,211969,6,0,L|512:64,1,507.5
0,160,211969,6,0,L|512:160,1,507.5
0,128,211969,6,0,L|512:128,1,507.5
0,96,211969,6,0,L|512:96,1,507.5
32,64,212209,6,0,L|32:352|32:288,2,280
96,64,212209,6,0,L|96:352|96:288,2,280
160,64,212209,6,0,L|160:352|160:288,2,280
224,64,212209,6,0,L|224:352|224:288,2,280
352,64,212209,6,0,L|352:352|352:288,2,280
416,64,212209,6,0,L|416:352|416:288,2,280
480,64,212209,6,0,L|480:352|480:288,2,280
288,64,212209,6,0,L|288:352|288:288,2,280
0,256,212449,6,0,L|512:256,1,507.5
0,224,212449,6,0,L|512:224,1,507.5
0,192,212449,6,0,L|512:192,1,507.5
0,288,212449,6,0,L|512:288,1,507.5
0,384,212449,6,0,L|512:384,1,507.5
0,352,212449,6,0,L|512:352,1,507.5
0,320,212449,6,0,L|512:320,1,507.5
0,32,212449,6,0,L|512:32,1,507.5
0,0,212449,6,0,L|512:0,1,507.5
256,192,212449,12,0,212929,0:0:0:0:
0,64,212449,6,0,L|512:64,1,507.5
0,160,212449,6,0,L|512:160,1,507.5
0,128,212449,6,0,L|512:128,1,507.5
0,96,212449,6,0,L|512:96,1,507.5
32,64,212689,6,0,L|32:352|32:288,2,280
96,64,212689,6,0,L|96:352|96:288,2,280
160,64,212689,6,0,L|160:352|160:288,2,280
224,64,212689,6,0,L|224:352|224:288,2,280
352,64,212689,6,0,L|352:352|352:288,2,280
416,64,212689,6,0,L|416:352|416:288,2,280
480,64,212689,6,0,L|480:352|480:288,2,280
288,64,212689,6,0,L|288:352|288:288,2,280
0,256,212929,6,0,L|512:256,1,507.5
0,224,212929,6,0,L|512:224,1,507.5
0,192,212929,6,0,L|512:192,1,507.5
0,288,212929,6,0,L|512:288,1,507.5
0,384,212929,6,0,L|512:384,1,507.5
0,352,212929,6,0,L|512:352,1,507.5
0,320,212929,6,0,L|512:320,1,507.5
0,32,212929,6,0,L|512:32,1,507.5
0,0,212929,6,0,L|512:0,1,507.5
256,192,212929,12,0,213409,0:0:0:0:
0,64,212929,6,0,L|512:64,1,507.5
0,160,212929,6,0,L|512:160,1,507.5
0,128,212929,6,0,L|512:128,1,507.5
0,96,212929,6,0,L|512:96,1,507.5
32,64,213169,6,0,L|32:352|32:288,2,280
96,64,213169,6,0,L|96:352|96:288,2,280
160,64,213169,6,0,L|160:352|160:288,2,280
224,64,213169,6,0,L|224:352|224:288,2,280
352,64,213169,6,0,L|352:352|352:288,2,280
416,64,213169,6,0,L|416:352|416:288,2,280
480,64,213169,6,0,L|480:352|480:288,2,280
288,64,213169,6,0,L|288:352|288:288,2,280
256,192,213409,12,0,213889,0:0:0:0:
0,0,213409,6,0,L|512:0,1,507.5
0,32,213409,6,0,L|512:32,1,507.5
0,64,213409,6,0,L|512:64,1,507.5
0,96,213409,6,0,L|512:96,1,507.5
0,128,213409,6,0,L|512:128,1,507.5
0,160,213409,6,0,L|512:160,1,507.5
0,192,213409,6,0,L|512:192,1,507.5
0,224,213409,6,0,L|512:224,1,507.5
0,256,213409,6,0,L|512:256,1,507.5
0,288,213409,6,0,L|512:288,1,507.5
0,320,213409,6,0,L|512:320,1,507.5
0,352,213409,6,0,L|512:352,1,507.5
0,384,213409,6,0,L|512:384,1,507.5
32,64,213649,6,0,L|32:352|32:288,2,280
96,64,213649,6,0,L|96:352|96:288,2,280
160,64,213649,6,0,L|160:352|160:288,2,280
224,64,213649,6,0,L|224:352|224:288,2,280
352,64,213649,6,0,L|352:352|352:288,2,280
416,64,213649,6,0,L|416:352|416:288,2,280
480,64,213649,6,0,L|480:352|480:288,2,280
288,64,213649,6,0,L|288:352|288:288,2,280
256,192,213889,12,0,214369,0:0:0:0:
0,0,213889,6,0,L|512:0,1,507.5
0,32,213889,6,0,L|512:32,1,507.5
0,64,213889,6,0,L|512:64,1,507.5
0,96,213889,6,0,L|512:96,1,507.5
0,128,213889,6,0,L|512:128,1,507.5
0,160,213889,6,0,L|512:160,1,507.5
0,192,213889,6,0,L|512:192,1,507.5
0,224,213889,6,0,L|512:224,1,507.5
0,256,213889,6,0,L|512:256,1,507.5
0,288,213889,6,0,L|512:288,1,507.5
0,320,213889,6,0,L|512:320,1,507.5
0,352,213889,6,0,L|512:352,1,507.5
0,384,213889,6,0,L|512:384,1,507.5
416,64,214129,6,0,L|416:352|416:288,2,280
352,64,214129,6,0,L|352:352|352:288,2,280
288,64,214129,6,0,L|288:352|288:288,2,280
480,64,214129,6,0,L|480:352|480:288,2,280
96,64,214129,6,0,L|96:352|96:288,2,280
32,64,214129,6,0,L|32:352|32:288,2,280
224,64,214129,6,0,L|224:352|224:288,2,280
160,64,214129,6,0,L|160:352|160:288,2,280
0,256,214369,6,0,L|512:256,1,507.5
0,224,214369,6,0,L|512:224,1,507.5
0,192,214369,6,0,L|512:192,1,507.5
0,288,214369,6,0,L|512:288,1,507.5
0,384,214369,6,0,L|512:384,1,507.5
0,352,214369,6,0,L|512:352,1,507.5
0,320,214369,6,0,L|512:320,1,507.5
0,32,214369,6,0,L|512:32,1,507.5
0,0,214369,6,0,L|512:0,1,507.5
256,192,214369,12,0,214849,0:0:0:0:
0,64,214369,6,0,L|512:64,1,507.5
0,160,214369,6,0,L|512:160,1,507.5
0,128,214369,6,0,L|512:128,1,507.5
0,96,214369,6,0,L|512:96,1,507.5
416,64,214609,6,0,L|416:352|416:288,2,280
352,64,214609,6,0,L|352:352|352:288,2,280
288,64,214609,6,0,L|288:352|288:288,2,280
480,64,214609,6,0,L|480:352|480:288,2,280
96,64,214609,6,0,L|96:352|96:288,2,280
32,64,214609,6,0,L|32:352|32:288,2,280
224,64,214609,6,0,L|224:352|224:288,2,280
160,64,214609,6,0,L|160:352|160:288,2,280
256,192,214849,12,0,215329,0:0:0:0:
0,0,214849,6,0,L|512:0,1,507.5
0,32,214849,6,0,L|512:32,1,507.5
0,64,214849,6,0,L|512:64,1,507.5
0,96,214849,6,0,L|512:96,1,507.5
0,128,214849,6,0,L|512:128,1,507.5
0,160,214849,6,0,L|512:160,1,507.5
0,192,214849,6,0,L|512:192,1,507.5
0,224,214849,6,0,L|512:224,1,507.5
0,256,214849,6,0,L|512:256,1,507.5
0,288,214849,6,0,L|512:288,1,507.5
0,320,214849,6,0,L|512:320,1,507.5
0,352,214849,6,0,L|512:352,1,507.5
0,384,214849,6,0,L|512:384,1,507.5
0,0,215329,6,0,L|512:0,1,507.5
0,32,215329,6,0,L|512:32,1,507.5
0,64,215329,6,0,L|512:64,1,507.5
0,96,215329,6,0,L|512:96,1,507.5
0,128,215329,6,0,L|512:128,1,507.5
0,160,215329,6,0,L|512:160,1,507.5
0,192,215329,6,0,L|512:192,1,507.5
0,224,215329,6,0,L|512:224,1,507.5
0,256,215329,6,0,L|512:256,1,507.5
0,288,215329,6,0,L|512:288,1,507.5
0,320,215329,6,0,L|512:320,1,507.5
0,352,215329,6,0,L|512:352,1,507.5
0,384,215329,6,0,L|512:384,1,507.5
256,192,215329,12,0,215809,0:0:0:0:
32,64,215569,6,0,L|32:352|32:288,2,280
96,64,215569,6,0,L|96:352|96:288,2,280
160,64,215569,6,0,L|160:352|160:288,2,280
224,64,215569,6,0,L|224:352|224:288,2,280
352,64,215569,6,0,L|352:352|352:288,2,280
416,64,215569,6,0,L|416:352|416:288,2,280
480,64,215569,6,0,L|480:352|480:288,2,280
288,64,215569,6,0,L|288:352|288:288,2,280
256,192,215809,12,0,216289,0:0:0:0:
0,0,215809,6,0,L|512:0,1,507.5
0,32,215809,6,0,L|512:32,1,507.5
0,64,215809,6,0,L|512:64,1,507.5
0,96,215809,6,0,L|512:96,1,507.5
0,128,215809,6,0,L|512:128,1,507.5
0,160,215809,6,0,L|512:160,1,507.5
0,192,215809,6,0,L|512:192,1,507.5
0,224,215809,6,0,L|512:224,1,507.5
0,256,215809,6,0,L|512:256,1,507.5
0,288,215809,6,0,L|512:288,1,507.5
0,320,215809,6,0,L|512:320,1,507.5
0,352,215809,6,0,L|512:352,1,507.5
0,384,215809,6,0,L|512:384,1,507.5
416,64,216049,6,0,L|416:352|416:288,2,280
352,64,216049,6,0,L|352:352|352:288,2,280
288,64,216049,6,0,L|288:352|288:288,2,280
480,64,216049,6,0,L|480:352|480:288,2,280
96,64,216049,6,0,L|96:352|96:288,2,280
32,64,216049,6,0,L|32:352|32:288,2,280
224,64,216049,6,0,L|224:352|224:288,2,280
160,64,216049,6,0,L|160:352|160:288,2,280
0,256,216289,6,0,L|512:256,1,507.5
0,224,216289,6,0,L|512:224,1,507.5
0,192,216289,6,0,L|512:192,1,507.5
0,288,216289,6,0,L|512:288,1,507.5
0,384,216289,6,0,L|512:384,1,507.5
0,352,216289,6,0,L|512:352,1,507.5
0,320,216289,6,0,L|512:320,1,507.5
0,32,216289,6,0,L|512:32,1,507.5
0,0,216289,6,0,L|512:0,1,507.5
256,192,216289,12,0,216769,0:0:0:0:
0,64,216289,6,0,L|512:64,1,507.5
0,160,216289,6,0,L|512:160,1,507.5
0,128,216289,6,0,L|512:128,1,507.5
0,96,216289,6,0,L|512:96,1,507.5
32,64,216529,6,0,L|32:352|32:288,2,280
96,64,216529,6,0,L|96:352|96:288,2,280
160,64,216529,6,0,L|160:352|160:288,2,280
224,64,216529,6,0,L|224:352|224:288,2,280
352,64,216529,6,0,L|352:352|352:288,2,280
416,64,216529,6,0,L|416:352|416:288,2,280
480,64,216529,6,0,L|480:352|480:288,2,280
288,64,216529,6,0,L|288:352|288:288,2,280
256,192,216769,12,0,217249,0:0:0:0:
0,0,216769,6,0,L|512:0,1,507.5
0,32,216769,6,0,L|512:32,1,507.5
0,64,216769,6,0,L|512:64,1,507.5
0,96,216769,6,0,L|512:96,1,507.5
0,128,216769,6,0,L|512:128,1,507.5
0,160,216769,6,0,L|512:160,1,507.5
0,192,216769,6,0,L|512:192,1,507.5
0,224,216769,6,0,L|512:224,1,507.5
0,256,216769,6,0,L|512:256,1,507.5
0,288,216769,6,0,L|512:288,1,507.5
0,320,216769,6,0,L|512:320,1,507.5
0,352,216769,6,0,L|512:352,1,507.5
0,384,216769,6,0,L|512:384,1,507.5
416,64,217009,6,0,L|416:352|416:288,2,280
352,64,217009,6,0,L|352:352|352:288,2,280
288,64,217009,6,0,L|288:352|288:288,2,280
480,64,217009,6,0,L|480:352|480:288,2,280
96,64,217009,6,0,L|96:352|96:288,2,280
32,64,217009,6,0,L|32:352|32:288,2,280
224,64,217009,6,0,L|224:352|224:288,2,280
160,64,217009,6,0,L|160:352|160:288,2,280
0,256,217249,6,0,L|512:256,1,507.5
0,224,217249,6,0,L|512:224,1,507.5
0,192,217249,6,0,L|512:192,1,507.5
0,288,217249,6,0,L|512:288,1,507.5
0,384,217249,6,0,L|512:384,1,507.5
0,352,217249,6,0,L|512:352,1,507.5
0,320,217249,6,0,L|512:320,1,507.5
0,32,217249,6,0,L|512:32,1,507.5
0,0,217249,6,0,L|512:0,1,507.5
256,192,217249,12,0,217729,0:0:0:0:
0,64,217249,6,0,L|512:64,1,507.5
0,160,217249,6,0,L|512:160,1,507.5
0,128,217249,6,0,L|512:128,1,507.5
0,96,217249,6,0,L|512:96,1,507.5
32,64,217489,6,0,L|32:352|32:288,2,280
96,64,217489,6,0,L|96:352|96:288,2,280
160,64,217489,6,0,L|160:352|160:288,2,280
224,64,217489,6,0,L|224:352|224:288,2,280
352,64,217489,6,0,L|352:352|352:288,2,280
416,64,217489,6,0,L|416:352|416:288,2,280
480,64,217489,6,0,L|480:352|480:288,2,280
288,64,217489,6,0,L|288:352|288:288,2,280
256,192,217729,12,0,218209,0:0:0:0:
0,0,217729,6,0,L|512:0,1,507.5
0,32,217729,6,0,L|512:32,1,507.5
0,64,217729,6,0,L|512:64,1,507.5
0,96,217729,6,0,L|512:96,1,507.5
0,128,217729,6,0,L|512:128,1,507.5
0,160,217729,6,0,L|512:160,1,507.5
0,192,217729,6,0,L|512:192,1,507.5
0,224,217729,6,0,L|512:224,1,507.5
0,256,217729,6,0,L|512:256,1,507.5
0,288,217729,6,0,L|512:288,1,507.5
0,320,217729,6,0,L|512:320,1,507.5
0,352,217729,6,0,L|512:352,1,507.5
0,384,217729,6,0,L|512:384,1,507.5
416,64,217969,6,0,L|416:352|416:288,2,280
352,64,217969,6,0,L|352:352|352:288,2,280
288,64,217969,6,0,L|288:352|288:288,2,280
480,64,217969,6,0,L|480:352|480:288,2,280
96,64,217969,6,0,L|96:352|96:288,2,280
32,64,217969,6,0,L|32:352|32:288,2,280
224,64,217969,6,0,L|224:352|224:288,2,280
160,64,217969,6,0,L|160:352|160:288,2,280
0,256,218209,6,0,L|512:256,1,507.5
0,224,218209,6,0,L|512:224,1,507.5
0,192,218209,6,0,L|512:192,1,507.5
0,288,218209,6,0,L|512:288,1,507.5
0,384,218209,6,0,L|512:384,1,507.5
0,352,218209,6,0,L|512:352,1,507.5
0,320,218209,6,0,L|512:320,1,507.5
0,32,218209,6,0,L|512:32,1,507.5
0,0,218209,6,0,L|512:0,1,507.5
256,192,218209,12,0,218689,0:0:0:0:
0,64,218209,6,0,L|512:64,1,507.5
0,160,218209,6,0,L|512:160,1,507.5
0,128,218209,6,0,L|512:128,1,507.5
0,96,218209,6,0,L|512:96,1,507.5
32,64,218449,6,0,L|32:352|32:288,2,280
96,64,218449,6,0,L|96:352|96:288,2,280
160,64,218449,6,0,L|160:352|160:288,2,280
224,64,218449,6,0,L|224:352|224:288,2,280
352,64,218449,6,0,L|352:352|352:288,2,280
416,64,218449,6,0,L|416:352|416:288,2,280
480,64,218449,6,0,L|480:352|480:288,2,280
288,64,218449,6,0,L|288:352|288:288,2,280
0,256,218689,6,0,L|512:256,1,507.5
0,224,218689,6,0,L|512:224,1,507.5
0,192,218689,6,0,L|512:192,1,507.5
0,288,218689,6,0,L|512:288,1,507.5
0,384,218689,6,0,L|512:384,1,507.5
0,352,218689,6,0,L|512:352,1,507.5
0,320,218689,6,0,L|512:320,1,507.5
0,32,218689,6,0,L|512:32,1,507.5
0,0,218689,6,0,L|512:0,1,507.5
256,192,218689,12,0,219169,0:0:0:0:
0,64,218689,6,0,L|512:64,1,507.5
0,160,218689,6,0,L|512:160,1,507.5
0,128,218689,6,0,L|512:128,1,507.5
0,96,218689,6,0,L|512:96,1,507.5
416,64,218929,6,0,L|416:352|416:288,2,280
352,64,218929,6,0,L|352:352|352:288,2,280
288,64,218929,6,0,L|288:352|288:288,2,280
480,64,218929,6,0,L|480:352|480:288,2,280
96,64,218929,6,0,L|96:352|96:288,2,280
32,64,218929,6,0,L|32:352|32:288,2,280
224,64,218929,6,0,L|224:352|224:288,2,280
160,64,218929,6,0,L|160:352|160:288,2,280
256,192,219169,12,0,219649,0:0:0:0:
0,0,219169,6,0,L|512:0,1,507.5
0,32,219169,6,0,L|512:32,1,507.5
0,64,219169,6,0,L|512:64,1,507.5
0,96,219169,6,0,L|512:96,1,507.5
0,128,219169,6,0,L|512:128,1,507.5
0,160,219169,6,0,L|512:160,1,507.5
0,192,219169,6,0,L|512:192,1,507.5
0,224,219169,6,0,L|512:224,1,507.5
0,256,219169,6,0,L|512:256,1,507.5
0,288,219169,6,0,L|512:288,1,507.5
0,320,219169,6,0,L|512:320,1,507.5
0,352,219169,6,0,L|512:352,1,507.5
0,384,219169,6,0,L|512:384,1,507.5
32,64,219409,6,0,L|32:352|32:288,2,280
96,64,219409,6,0,L|96:352|96:288,2,280
160,64,219409,6,0,L|160:352|160:288,2,280
224,64,219409,6,0,L|224:352|224:288,2,280
352,64,219409,6,0,L|352:352|352:288,2,280
416,64,219409,6,0,L|416:352|416:288,2,280
480,64,219409,6,0,L|480:352|480:288,2,280
288,64,219409,6,0,L|288:352|288:288,2,280
0,256,219649,6,0,L|512:256,1,507.5
0,224,219649,6,0,L|512:224,1,507.5
0,192,219649,6,0,L|512:192,1,507.5
0,288,219649,6,0,L|512:288,1,507.5
0,384,219649,6,0,L|512:384,1,507.5
0,352,219649,6,0,L|512:352,1,507.5
0,320,219649,6,0,L|512:320,1,507.5
0,32,219649,6,0,L|512:32,1,507.5
0,0,219649,6,0,L|512:0,1,507.5
256,192,219649,12,0,220129,0:0:0:0:
0,64,219649,6,0,L|512:64,1,507.5
0,160,219649,6,0,L|512:160,1,507.5
0,128,219649,6,0,L|512:128,1,507.5
0,96,219649,6,0,L|512:96,1,507.5
416,64,219889,6,0,L|416:352|416:288,2,280
352,64,219889,6,0,L|352:352|352:288,2,280
288,64,219889,6,0,L|288:352|288:288,2,280
480,64,219889,6,0,L|480:352|480:288,2,280
96,64,219889,6,0,L|96:352|96:288,2,280
32,64,219889,6,0,L|32:352|32:288,2,280
224,64,219889,6,0,L|224:352|224:288,2,280
160,64,219889,6,0,L|160:352|160:288,2,280
256,192,220129,12,0,220609,0:0:0:0:
0,0,220129,6,0,L|512:0,1,507.5
0,32,220129,6,0,L|512:32,1,507.5
0,64,220129,6,0,L|512:64,1,507.5
0,96,220129,6,0,L|512:96,1,507.5
0,128,220129,6,0,L|512:128,1,507.5
0,160,220129,6,0,L|512:160,1,507.5
0,192,220129,6,0,L|512:192,1,507.5
0,224,220129,6,0,L|512:224,1,507.5
0,256,220129,6,0,L|512:256,1,507.5
0,288,220129,6,0,L|512:288,1,507.5
0,320,220129,6,0,L|512:320,1,507.5
0,352,220129,6,0,L|512:352,1,507.5
0,384,220129,6,0,L|512:384,1,507.5
32,64,220369,6,0,L|32:352|32:288,2,280
96,64,220369,6,0,L|96:352|96:288,2,280
160,64,220369,6,0,L|160:352|160:288,2,280
224,64,220369,6,0,L|224:352|224:288,2,280
352,64,220369,6,0,L|352:352|352:288,2,280
416,64,220369,6,0,L|416:352|416:288,2,280
480,64,220369,6,0,L|480:352|480:288,2,280
288,64,220369,6,0,L|288:352|288:288,2,280
0,256,220609,6,0,L|512:256,1,507.5
0,224,220609,6,0,L|512:224,1,507.5
0,192,220609,6,0,L|512:192,1,507.5
0,288,220609,6,0,L|512:288,1,507.5
0,384,220609,6,0,L|512:384,1,507.5
0,352,220609,6,0,L|512:352,1,507.5
0,320,220609,6,0,L|512:320,1,507.5
0,32,220609,6,0,L|512:32,1,507.5
0,0,220609,6,0,L|512:0,1,507.5
256,192,220609,12,0,221089,0:0:0:0:
0,64,220609,6,0,L|512:64,1,507.5
0,160,220609,6,0,L|512:160,1,507.5
0,128,220609,6,0,L|512:128,1,507.5
0,96,220609,6,0,L|512:96,1,507.5
416,64,220849,6,0,L|416:352|416:288,2,280
352,64,220849,6,0,L|352:352|352:288,2,280
288,64,220849,6,0,L|288:352|288:288,2,280
480,64,220849,6,0,L|480:352|480:288,2,280
96,64,220849,6,0,L|96:352|96:288,2,280
32,64,220849,6,0,L|32:352|32:288,2,280
224,64,220849,6,0,L|224:352|224:288,2,280
160,64,220849,6,0,L|160:352|160:288,2,280
256,192,221089,12,0,221569,0:0:0:0:
0,0,221089,6,0,L|512:0,1,507.5
0,32,221089,6,0,L|512:32,1,507.5
0,64,221089,6,0,L|512:64,1,507.5
0,96,221089,6,0,L|512:96,1,507.5
0,128,221089,6,0,L|512:128,1,507.5
0,160,221089,6,0,L|512:160,1,507.5
0,192,221089,6,0,L|512:192,1,507.5
0,224,221089,6,0,L|512:224,1,507.5
0,256,221089,6,0,L|512:256,1,507.5
0,288,221089,6,0,L|512:288,1,507.5
0,320,221089,6,0,L|512:320,1,507.5
0,352,221089,6,0,L|512:352,1,507.5
0,384,221089,6,0,L|512:384,1,507.5
32,64,221329,6,0,L|32:352|32:288,2,280
96,64,221329,6,0,L|96:352|96:288,2,280
160,64,221329,6,0,L|160:352|160:288,2,280
224,64,221329,6,0,L|224:352|224:288,2,280
352,64,221329,6,0,L|352:352|352:288,2,280
416,64,221329,6,0,L|416:352|416:288,2,280
480,64,221329,6,0,L|480:352|480:288,2,280
288,64,221329,6,0,L|288:352|288:288,2,280
0,256,221569,6,0,L|512:256,1,507.5
0,224,221569,6,0,L|512:224,1,507.5
0,192,221569,6,0,L|512:192,1,507.5
0,288,221569,6,0,L|512:288,1,507.5
0,384,221569,6,0,L|512:384,1,507.5
0,352,221569,6,0,L|512:352,1,507.5
0,320,221569,6,0,L|512:320,1,507.5
0,32,221569,6,0,L|512:32,1,507.5
0,0,221569,6,0,L|512:0,1,507.5
256,192,221569,12,0,222049,0:0:0:0:
0,64,221569,6,0,L|512:64,1,507.5
0,160,221569,6,0,L|512:160,1,507.5
0,128,221569,6,0,L|512:128,1,507.5
0,96,221569,6,0,L|512:96,1,507.5
416,64,221809,6,0,L|416:352|416:288,2,280
352,64,221809,6,0,L|352:352|352:288,2,280
288,64,221809,6,0,L|288:352|288:288,2,280
480,64,221809,6,0,L|480:352|480:288,2,280
96,64,221809,6,0,L|96:352|96:288,2,280
32,64,221809,6,0,L|32:352|32:288,2,280
224,64,221809,6,0,L|224:352|224:288,2,280
160,64,221809,6,0,L|160:352|160:288,2,280
0,256,222049,6,0,L|512:256,1,507.5
0,224,222049,6,0,L|512:224,1,507.5
0,192,222049,6,0,L|512:192,1,507.5
0,288,222049,6,0,L|512:288,1,507.5
0,384,222049,6,0,L|512:384,1,507.5
0,352,222049,6,0,L|512:352,1,507.5
0,320,222049,6,0,L|512:320,1,507.5
0,32,222049,6,0,L|512:32,1,507.5
0,0,222049,6,0,L|512:0,1,507.5
256,192,222049,12,0,222529,0:0:0:0:
0,64,222049,6,0,L|512:64,1,507.5
0,160,222049,6,0,L|512:160,1,507.5
0,128,222049,6,0,L|512:128,1,507.5
0,96,222049,6,0,L|512:96,1,507.5
32,64,222289,6,0,L|32:352|32:288,2,280
96,64,222289,6,0,L|96:352|96:288,2,280
160,64,222289,6,0,L|160:352|160:288,2,280
224,64,222289,6,0,L|224:352|224:288,2,280
352,64,222289,6,0,L|352:352|352:288,2,280
416,64,222289,6,0,L|416:352|416:288,2,280
480,64,222289,6,0,L|480:352|480:288,2,280
288,64,222289,6,0,L|288:352|288:288,2,280
256,192,222529,12,0,223009,0:0:0:0:
0,0,222529,6,0,L|512:0,1,507.5
0,32,222529,6,0,L|512:32,1,507.5
0,64,222529,6,0,L|512:64,1,507.5
0,96,222529,6,0,L|512:96,1,507.5
0,128,222529,6,0,L|512:128,1,507.5
0,160,222529,6,0,L|512:160,1,507.5
0,192,222529,6,0,L|512:192,1,507.5
0,224,222529,6,0,L|512:224,1,507.5
0,256,222529,6,0,L|512:256,1,507.5
0,288,222529,6,0,L|512:288,1,507.5
0,320,222529,6,0,L|512:320,1,507.5
0,352,222529,6,0,L|512:352,1,507.5
0,384,222529,6,0,L|512:384,1,507.5
0,288,223009,6,0,L|512:288,1,507.5
0,256,223009,6,0,L|512:256,1,507.5
0,224,223009,6,0,L|512:224,1,507.5
0,320,223009,6,0,L|512:320,1,507.5
256,192,223009,12,0,223489,0:0:0:0:
0,384,223009,6,0,L|512:384,1,507.5
0,352,223009,6,0,L|512:352,1,507.5
0,64,223009,6,0,L|512:64,1,507.5
0,32,223009,6,0,L|512:32,1,507.5
0,0,223009,6,0,L|512:0,1,507.5
0,96,223009,6,0,L|512:96,1,507.5
0,192,223009,6,0,L|512:192,1,507.5
0,160,223009,6,0,L|512:160,1,507.5
0,128,223009,6,0,L|512:128,1,507.5
416,64,223249,6,0,L|416:352|416:288,2,280
352,64,223249,6,0,L|352:352|352:288,2,280
288,64,223249,6,0,L|288:352|288:288,2,280
480,64,223249,6,0,L|480:352|480:288,2,280
96,64,223249,6,0,L|96:352|96:288,2,280
32,64,223249,6,0,L|32:352|32:288,2,280
224,64,223249,6,0,L|224:352|224:288,2,280
160,64,223249,6,0,L|160:352|160:288,2,280
256,192,223489,12,0,223969,0:0:0:0:
0,0,223489,6,0,L|512:0,1,507.5
0,32,223489,6,0,L|512:32,1,507.5
0,64,223489,6,0,L|512:64,1,507.5
0,96,223489,6,0,L|512:96,1,507.5
0,128,223489,6,0,L|512:128,1,507.5
0,160,223489,6,0,L|512:160,1,507.5
0,192,223489,6,0,L|512:192,1,507.5
0,224,223489,6,0,L|512:224,1,507.5
0,256,223489,6,0,L|512:256,1,507.5
0,288,223489,6,0,L|512:288,1,507.5
0,320,223489,6,0,L|512:320,1,507.5
0,352,223489,6,0,L|512:352,1,507.5
0,384,223489,6,0,L|512:384,1,507.5
32,64,223729,6,0,L|32:352|32:288,2,280
96,64,223729,6,0,L|96:352|96:288,2,280
160,64,223729,6,0,L|160:352|160:288,2,280
224,64,223729,6,0,L|224:352|224:288,2,280
352,64,223729,6,0,L|352:352|352:288,2,280
416,64,223729,6,0,L|416:352|416:288,2,280
480,64,223729,6,0,L|480:352|480:288,2,280
288,64,223729,6,0,L|288:352|288:288,2,280
0,256,223969,6,0,L|512:256,1,507.5
0,224,223969,6,0,L|512:224,1,507.5
0,192,223969,6,0,L|512:192,1,507.5
0,288,223969,6,0,L|512:288,1,507.5
0,384,223969,6,0,L|512:384,1,507.5
0,352,223969,6,0,L|512:352,1,507.5
0,320,223969,6,0,L|512:320,1,507.5
0,32,223969,6,0,L|512:32,1,507.5
0,0,223969,6,0,L|512:0,1,507.5
256,192,223969,12,0,224449,0:0:0:0:
0,64,223969,6,0,L|512:64,1,507.5
0,160,223969,6,0,L|512:160,1,507.5
0,128,223969,6,0,L|512:128,1,507.5
0,96,223969,6,0,L|512:96,1,507.5
32,64,224209,6,0,L|32:352|32:288,2,280
96,64,224209,6,0,L|96:352|96:288,2,280
160,64,224209,6,0,L|160:352|160:288,2,280
224,64,224209,6,0,L|224:352|224:288,2,280
352,64,224209,6,0,L|352:352|352:288,2,280
416,64,224209,6,0,L|416:352|416:288,2,280
480,64,224209,6,0,L|480:352|480:288,2,280
288,64,224209,6,0,L|288:352|288:288,2,280
256,192,224449,12,0,224929,0:0:0:0:
0,0,224449,6,0,L|512:0,1,507.5
0,32,224449,6,0,L|512:32,1,507.5
0,64,224449,6,0,L|512:64,1,507.5
0,96,224449,6,0,L|512:96,1,507.5
0,128,224449,6,0,L|512:128,1,507.5
0,160,224449,6,0,L|512:160,1,507.5
0,192,224449,6,0,L|512:192,1,507.5
0,224,224449,6,0,L|512:224,1,507.5
0,256,224449,6,0,L|512:256,1,507.5
0,288,224449,6,0,L|512:288,1,507.5
0,320,224449,6,0,L|512:320,1,507.5
0,352,224449,6,0,L|512:352,1,507.5
0,384,224449,6,0,L|512:384,1,507.5
416,64,224689,6,0,L|416:352|416:288,2,280
352,64,224689,6,0,L|352:352|352:288,2,280
288,64,224689,6,0,L|288:352|288:288,2,280
480,64,224689,6,0,L|480:352|480:288,2,280
96,64,224689,6,0,L|96:352|96:288,2,280
32,64,224689,6,0,L|32:352|32:288,2,280
224,64,224689,6,0,L|224:352|224:288,2,280
160,64,224689,6,0,L|160:352|160:288,2,280
256,192,224929,12,0,225409,0:0:0:0:
0,0,224929,6,0,L|512:0,1,507.5
0,32,224929,6,0,L|512:32,1,507.5
0,64,224929,6,0,L|512:64,1,507.5
0,96,224929,6,0,L|512:96,1,507.5
0,128,224929,6,0,L|512:128,1,507.5
0,160,224929,6,0,L|512:160,1,507.5
0,192,224929,6,0,L|512:192,1,507.5
0,224,224929,6,0,L|512:224,1,507.5
0,256,224929,6,0,L|512:256,1,507.5
0,288,224929,6,0,L|512:288,1,507.5
0,320,224929,6,0,L|512:320,1,507.5
0,352,224929,6,0,L|512:352,1,507.5
0,384,224929,6,0,L|512:384,1,507.5
32,64,225169,6,0,L|32:352|32:288,2,280
96,64,225169,6,0,L|96:352|96:288,2,280
160,64,225169,6,0,L|160:352|160:288,2,280
224,64,225169,6,0,L|224:352|224:288,2,280
352,64,225169,6,0,L|352:352|352:288,2,280
416,64,225169,6,0,L|416:352|416:288,2,280
480,64,225169,6,0,L|480:352|480:288,2,280
288,64,225169,6,0,L|288:352|288:288,2,280
0,256,225409,6,0,L|512:256,1,507.5
0,224,225409,6,0,L|512:224,1,507.5
0,192,225409,6,0,L|512:192,1,507.5
0,288,225409,6,0,L|512:288,1,507.5
0,384,225409,6,0,L|512:384,1,507.5
0,352,225409,6,0,L|512:352,1,507.5
0,320,225409,6,0,L|512:320,1,507.5
0,32,225409,6,0,L|512:32,1,507.5
0,0,225409,6,0,L|512:0,1,507.5
256,192,225409,12,0,225856,0:0:0:0:
0,64,225409,6,0,L|512:64,1,507.5
0,160,225409,6,0,L|512:160,1,507.5
0,128,225409,6,0,L|512:128,1,507.5
0,96,225409,6,0,L|512:96,1,507.5
416,64,225649,6,0,L|416:352|416:288,2,280
352,64,225649,6,0,L|352:352|352:288,2,280
288,64,225649,6,0,L|288:352|288:288,2,280
480,64,225649,6,0,L|480:352|480:288,2,280
96,64,225649,6,0,L|96:352|96:288,2,280
32,64,225649,6,0,L|32:352|32:288,2,280
224,64,225649,6,0,L|224:352|224:288,2,280
160,64,225649,6,0,L|160:352|160:288,2,280
0,256,225889,6,0,L|512:256,1,507.5
0,224,225889,6,0,L|512:224,1,507.5
0,192,225889,6,0,L|512:192,1,507.5
0,288,225889,6,0,L|512:288,1,507.5
0,384,225889,6,0,L|512:384,1,507.5
0,352,225889,6,0,L|512:352,1,507.5
0,320,225889,6,0,L|512:320,1,507.5
0,32,225889,6,0,L|512:32,1,507.5
0,0,225889,6,0,L|512:0,1,507.5
256,192,225889,12,0,225856,0:0:0:0:
0,64,225889,6,0,L|512:64,1,507.5
0,160,225889,6,0,L|512:160,1,507.5
0,128,225889,6,0,L|512:128,1,507.5
0,96,225889,6,0,L|512:96,1,507.5
