osu file format v5

[General]
AudioFilename: LAST ALLIANCE - HEKIREKI.mp3
AudioLeadIn: 0
PreviewTime: 77592
Countdown: 1
SampleSet: Normal
StackLeniency: 0.7
Mode: 0
LetterboxInBreaks: 1

[Editor]
DistanceSpacing: 1
BeatDivisor: 4
GridSize: 32

[Metadata]
Title:Hekireki
Artist:Last Alliance
Creator:hutka
Version:Easy
Source:
Tags:

[Difficulty]
HPDrainRate:4
CircleSize:4
OverallDifficulty:5
SliderMultiplier:0.6
SliderTickRate:2

[Events]
//Background and Video events
0,0,"d0032508_496bf6d37ab19.jpg"
//Break Periods
//Storyboard Layer 0 (Background)
//Storyboard Layer 1 (Fail)
//Storyboard Layer 2 (Pass)
//Storyboard Layer 3 (Foreground)
//Storyboard Sound Samples
//Background Colour Transformations
3,100,163,162,255

[TimingPoints]
16669,461.538461538462,4,1,0,100,1,0
16669,-100,4,1,0,100,0,0
63053,-100,4,2,0,100,0,0
63053,-100,4,2,0,100,0,0
70553,-100,4,1,0,100,0,0
107823,-100,4,2,0,100,0,0
122822,-100,4,2,0,100,0,0
122822,-100,4,2,0,100,0,1
135861,-100,4,1,0,100,0,0
135861,-100,4,1,0,100,0,0

[HitObjects]
256,192,16668,12,0,19669
32,32,20361,5,0
96,32,20822,1,0
224,32,21515,6,0,B|288:32,4,60
256,192,24053,12,4,27053
480,192,27745,6,0,B|320:192,2,150
480,128,30515,1,8
416,128,30976,1,8
480,128,31438,1,8
416,128,31899,2,0,B|384:128,3,30
416,224,33284,5,0
352,224,33745,2,0,B|288:224,2,60
352,288,35130,1,0
288,288,35592,2,0,B|128:288,1,150
160,320,37207,5,0
160,256,37669,1,0
160,192,38130,2,0,B|224:192,1,60
288,192,39053,1,0
352,192,39515,2,0,B|416:192,2,60
288,192,40899,5,0
224,192,41361,1,0
160,192,41822,1,0
96,192,42284,1,0
96,128,42745,1,0
160,128,43207,1,0
224,128,43669,2,0,B|224:192,1,60
224,288,44592,5,0
288,288,45053,1,0
288,224,45515,1,0
288,160,45976,2,0,B|288:96,1,60
288,32,46669,2,0,B|256:32,5,30
256,192,48053,12,8,51053
32,224,51976,5,0
96,224,52438,1,0
160,224,52899,2,0,B|160:288,2,60
160,160,54284,1,0
224,160,54745,1,0
288,160,55207,1,0
352,160,55669,6,0,B|352:224,3,60
352,288,57515,2,0,B|288:288,1,60
224,288,58438,1,0
160,288,58899,1,0
96,288,59361,1,0
96,224,59822,1,0
96,160,60284,2,0,B|96:96,2,60
96,224,61669,6,0,B|160:224,1,60
160,224,63284,6,8,B|224:224,2,60
64,224,64669,1,8
64,128,65130,1,8
160,128,65592,2,8,B|224:128,1,60
288,128,66515,1,8
288,224,66976,1,8
192,224,67438,6,8,B|128:224,1,60
128,288,68361,2,8,B|192:288,4,60
128,192,70899,6,0,B|128:128,3,60
224,128,72745,1,0
320,128,73207,2,0,B|384:128,3,60
384,192,75053,2,0,B|384:256,2,60
384,128,76438,2,0,B|384:64,2,60
256,192,77822,12,0,78976
288,192,79438,6,0,B|224:192,2,60
160,192,81284,2,0,B|160:256,1,60
224,256,82207,2,0,B|288:256,1,60
256,192,82899,12,0,84745
128,128,85207,5,0
192,128,85668,2,0,B|256:128,2,60
128,128,87053,1,0
128,192,87515,2,0,B|160:224|224:224|256:160,1,150
288,256,89361,1,0
352,256,89822,2,0,B|352:192,1,60
416,192,90745,2,0,B|416:256,1,60
192,128,92822,6,0,B|256:128,2,60
352,160,94438,1,0
352,224,94899,1,0
352,288,95361,2,0,B|288:288,2,60
416,288,96745,2,0,B|416:224,1,60
416,160,97669,5,0
352,160,98130,1,0
288,160,98592,2,0,B|288:96,1,60
224,96,99515,1,0
224,160,99976,1,0
160,160,100438,2,0,B|160:96,1,60
96,96,101361,5,0
96,160,101822,1,0
96,224,102284,1,0
160,224,102745,1,0
224,224,103207,1,0
288,224,103669,1,0
352,224,104130,6,0,B|352:160,1,60
416,160,105053,2,0,B|416:224,1,60
416,288,105976,2,0,B|352:288,1,60
288,288,106899,2,0,B|288:224,1,60
256,96,108053,5,2
416,192,108515,5,2
256,288,108976,5,2
256,224,109438,6,2,B|256:160,3,60
256,96,111284,2,2,B|256:32,2,60
192,96,112668,2,2,B|128:96,3,60
64,96,114515,2,2,B|64:128,3,30
256,192,115438,12,0,117745
160,192,118207,5,0
352,192,118668,5,0
256,192,119130,12,0,122130
128,96,122822,5,8
192,96,123284,1,8
192,160,123745,1,8
128,160,124207,2,8,B|128:224,2,60
128,96,125592,1,8
192,96,126053,1,8
256,96,126515,5,8
256,160,126976,1,8
192,160,127438,1,8
192,96,127899,2,8,B|480:96|480:96|480:160|448:160,1,360
192,160,131361,5,8
192,224,131822,1,8
256,224,132284,1,8
192,224,132745,1,8
192,288,133207,1,8
128,288,133669,1,8
128,224,134130,6,8,B|128:32,1,180
128,32,135976,6,0,B|128:96,1,60
192,96,136899,2,0,B|256:96,1,60
320,96,137823,1,0
320,160,138284,1,0
256,160,138745,2,0,B|160:160,1,90
96,160,139899,2,0,B|96:224,1,60
160,224,140822,2,0,B|160:160,1,60
416,64,141746,5,0
416,192,142207,5,0
416,320,142669,5,0
288,320,143131,5,0
160,320,143592,5,0
32,320,144054,5,0
32,256,144515,2,0,B|32:224,3,30
32,160,145669,2,0,B|32:96,1,60
96,96,146592,1,0
160,96,147053,1,0
224,96,147515,1,0
416,96,147976,5,0
416,160,148438,1,0
416,224,148899,2,0,B|352:224,1,60
352,288,149822,2,0,B|416:288,1,60
480,288,150745,2,0,B|480:192,1,90
