osu file format v9

[General]
AudioFilename: Trip -innocent of D- (TV Size).mp3
AudioLeadIn: 1750
PreviewTime: 42213
Countdown: 0
SampleSet: Soft
StackLeniency: 0.7
Mode: 0
LetterboxInBreaks: 0

[Editor]
DistanceSpacing: 1
BeatDivisor: 4
GridSize: 8

[Metadata]
Title:Trip -innocent of D- (TV Size)
Artist:Larval Stage Planning
Creator:wcx19911123
Version:Easy
Source:High School DxD
Tags:Riasu Guremori Himejima Akeno Aashia Arujento Toujo Koneko Yoko Hikasa Shizuka Ito Azumi Asakura Ayana Taketatsu opening KayeSara

[Difficulty]
HPDrainRate:2
CircleSize:3
OverallDifficulty:2
ApproachRate:3
SliderMultiplier:0.8
SliderTickRate:1

[Events]
//Background and Video events
Video,200,"Trip -innocent of D- (TV Size).AVI"
0,0,"BG.jpg"
//Break Periods
//Storyboard Layer 0 (Background)
//Storyboard Layer 1 (Fail)
//Storyboard Layer 2 (Pass)
//Storyboard Layer 3 (Foreground)
//Storyboard Sound Samples
//Background Colour Transformations
3,100,163,162,255

[TimingPoints]
49,365.853658536585,4,2,1,65,1,0
4439,-100,4,2,1,60,0,0
5902,-100,4,2,1,70,0,0
6268,-100,4,2,2,70,0,0
6451,-100,4,2,1,70,0,0
9195,-100,4,2,2,70,0,0
9378,-100,4,2,1,70,0,0
10658,-100,4,2,2,70,0,0
11024,-100,4,2,1,60,0,0
11756,-100,4,2,1,70,0,0
12122,-100,4,2,2,70,0,0
12305,-100,4,2,1,70,0,0
15048,-100,4,2,2,70,0,0
15231,-100,4,2,1,70,0,0
16146,-100,4,2,1,75,0,0
17609,-100,4,2,1,65,0,0
17975,-100,4,2,2,65,0,0
18158,-100,4,2,1,65,0,0
19439,-100,4,2,2,65,0,0
19805,-100,4,2,1,65,0,0
20902,-100,4,2,2,65,0,0
21085,-100,4,2,1,65,0,0
22366,-100,4,2,2,65,0,0
22548,-100,4,2,1,65,0,0
23829,-100,4,2,2,65,0,0
24195,-100,4,2,1,65,0,0
25292,-100,4,2,2,65,0,0
25475,-100,4,2,1,65,0,0
28219,-100,4,2,2,65,0,0
28585,-100,4,2,1,65,0,0
29317,-100,4,2,1,60,0,0
30048,-100,4,2,2,60,0,0
30414,-100,4,2,1,60,0,0
34805,-100,4,2,1,50,0,0
35170,-100,4,2,1,65,0,0
35536,-100,4,2,2,65,0,0
35719,-100,4,2,1,65,0,0
37000,-100,4,2,2,65,0,0
37183,-100,4,2,1,65,0,0
38097,-100,4,2,1,70,0,0
38463,-100,4,2,2,70,0,0
38646,-100,4,2,1,70,0,0
41024,-100,4,2,1,65,0,0
41756,-100,4,2,1,60,0,0
42122,-100,4,2,2,60,0,0
42305,-100,4,2,1,80,0,1
45048,-100,4,2,2,80,0,1
45231,-100,4,2,1,80,0,1
48707,-100,4,2,2,80,0,1
49073,-100,4,2,1,80,0,1
51634,-100,4,2,2,80,0,1
51817,-100,4,2,1,80,0,1
53829,-100,4,2,2,80,0,1
53920,-100,4,2,2,80,0,0
54012,-100,4,2,1,80,0,1
56756,-100,4,2,2,80,0,1
56939,-100,4,2,1,80,0,1
60414,-100,4,2,2,80,0,1
60780,-100,4,2,1,80,0,1
63341,-100,4,2,2,80,0,1
63707,-100,4,2,1,80,0,1
65536,-100,4,2,2,80,0,1
65719,-100,4,2,1,80,0,1
69195,-100,4,2,2,80,0,1
69378,-100,4,2,1,80,0,1
70292,-100,4,2,1,70,0,1
71756,-100,4,2,1,75,0,0
73585,-100,4,2,2,75,0,0
73768,-100,4,2,1,75,0,0
75048,-100,4,2,2,75,0,0
75231,-100,4,2,1,75,0,0
76878,-100,4,2,1,60,0,0
77609,-100,4,2,1,75,0,0
77975,-100,4,2,2,75,0,0
78158,-100,4,2,1,75,0,0
79439,-100,4,2,2,75,0,0
79622,-100,4,2,1,75,0,0
80902,-100,4,2,2,75,0,0
81085,-100,4,2,1,75,0,0
83829,-100,4,2,1,65,0,0
84195,-100,4,2,1,55,0,0
84561,-100,4,2,1,45,0,0
84927,-100,4,2,1,35,0,0
85292,-100,4,2,1,25,0,0
85658,-100,4,2,1,15,0,0
86024,-100,4,2,1,5,0,0

[Colours]
Combo1 : 211,249,0
Combo2 : 254,12,79
Combo3 : 15,69,255
Combo4 : 231,60,255
SliderBorder : 0,0,0

[HitObjects]
256,104,414,1,8
256,280,1146,1,8
332,148,1878,1,8
179,236,2610,1,8
332,235,3341,1,8
179,148,4073,1,8
256,192,4439,6,0,B|296:192|320:152,1,80,8|8
328,72,5170,2,0,B|356:36|399:39,1,80,8|8
396,120,5902,6,0,B|396:188|448:224,2,120,4|0|8
432,48,7366,1,0
432,48,7731,1,8
312,152,8463,1,8
320,232,8829,6,0,B|320:296|264:336,2,120,0|0|8
247,198,10292,2,0,B|192:264|104:256,1,160,0|8
32,224,11390,1,8
96,176,11756,6,0,B|136:128|120:64,2,120,4|0|8
32,224,13219,1,0
80,288,13585,2,0,B|144:344|232:312,1,160,8|8
288,256,14683,6,0,B|332:312|288:372,2,120,0|0|8
224,208,16146,1,8
184,96,16695,1,8
296,56,17244,1,8
344,120,17609,6,0,B|400:160|464:128,2,120,4|0|8
264,128,19073,2,0,B|200:184|208:272,1,160
240,344,20170,1,8
288,280,20536,6,0,B|336:240|400:256,2,120,0|0|8
208,272,22000,2,0,B|176:336|104:336,1,120
84,308,22731,2,0,B|32:240,1,80,0|8
64,168,23463,6,0,B|152:168|200:96,1,160
168,24,24561,1,8
248,32,24927,2,0,B|312:40|344:96,1,120
344,136,25658,2,0,B|344:184|384:208,1,80,0|8
424,138,26390,6,0,B|464:168|458:217,1,80,0|8
419,276,27122,1,0
352,320,27488,1,8
272,320,27853,2,0,B|200:320|216:240|140:240,1,160
32,352,29317,6,0,B|96:376|140:316,2,120,4|0|0
68,280,30780,1,0
40,120,31512,1,8
76,192,31878,1,0
152,216,32244,6,0,B|240:216|272:128,2,160,0|8|0
216,68,34439,1,8
296,48,34805,1,8
360,96,35170,6,0,B|408:136|472:112,2,120,4|0|8
284,128,36634,2,0,B|284:196|344:228,2,120,4|0|8
204,132,38097,6,0,B|160:176|176:248,2,120,4|0|8
256,192,39561,1,4
256,192,39744,12,0,41024
256,192,41756,6,0,B|320:192|352:256,2,120,8|4|8
208,256,43219,6,0,B|144:328,1,80,0|8
120,336,43768,2,0,B|56:344|16:280,1,120,0|8
72,224,44683,2,0,B|112:176|96:112,1,120,0|4
8,32,45780,5,8
88,32,46146,2,0,B|132:28|160:64,1,80,0|8
172,100,46695,2,0,B|184:168|256:192,1,120,0|8
288,120,47609,1,0
352,72,47975,1,8
432,80,48341,6,0,B|512:112|512:208,1,160,4|0
464,272,49439,1,8
400,224,49805,2,0,B|360:200|320:216,1,80,0|8
256,256,50536,1,0
208,320,50902,1,8
177,246,51268,6,0,B|144:192|72:192,2,120,4|4|8
144,320,52731,1,0
64,312,53097,1,8
16,248,53463,2,0,B|0:184|48:136,1,120,8|4
152,80,54561,5,8
200,144,54927,2,0,B|232:168|280:152,1,80,0|8
292,116,55475,2,0,B|312:56|384:40,1,120,0|8
416,112,56390,2,0,B|472:76|452:8,2,120,0|4|8
352,160,57853,6,0,B|376:200|424:192,1,80,0|8
458,181,58402,2,0,B|512:216|496:288,1,120,0|8
448,352,59317,1,0
400,288,59683,1,8
328,256,60048,6,0,B|240:240|184:304,1,160,4|0
120,352,61146,1,8
56,304,61512,2,0,B|32:224,1,80,0|8
8,152,62244,2,0,B|48:136|88:168,1,80,0|8
128,232,62975,6,0,B|192:296|280:264,1,160
320,200,64073,1,8
384,152,64439,2,0,B|384:72,1,80,4|8
448,24,65170,2,0,B|504:56|504:128,2,120,8|4|8
384,72,66634,5,0
304,88,67000,1,8
256,152,67366,2,0,B|256:200|296:224,2,80,0|8|0
192,104,68463,1,8
112,120,68829,6,0,B|48:112|24:48,2,120,4|4|8
160,184,70292,2,0,B|160:264,1,80,8|8
160,344,71024,1,8
160,344,71390,1,8
228,304,71756,6,0,B|256:272|304:280,1,80,4|8
360,336,72488,2,0,B|400:360|440:344,1,80,0|8
407,270,73219,2,0,B|472:248|480:184,2,120,0|0|8
368,200,74683,6,0,B|336:144|264:152,2,120,0|0|8
320,264,76146,2,0,B|264:336,1,80,0|8
192,344,76878,1,8
192,344,77244,1,8
136,288,77609,6,0,B|88:248|24:264,2,120,4|0|8
184,224,79073,2,0,B|184:160|120:128,2,120,0|0|8
248,272,80536,6,0,B|280:332|350:314,2,120,0|0|8
320,240,82000,1,8
373,132,82548,1,8
256,112,83097,1,8
256,192,83463,1,4
256,192,83646,12,0,86939
