osu file format v14

[General]
AudioFilename: Trip -innocent of D- (TV Size).mp3
AudioLeadIn: 0
PreviewTime: 42122
Countdown: 0
SampleSet: Normal
StackLeniency: 0.7
Mode: 1
LetterboxInBreaks: 0
WidescreenStoryboard: 0

[Editor]
DistanceSpacing: 1
BeatDivisor: 4
GridSize: 32
TimelineZoom: 1

[Metadata]
Title:Trip -innocent of D-
TitleUnicode:Trip -innocent of D-
Artist:Larval Stage Planning
ArtistUnicode:Larval Stage Planning
Creator:Nardoxyribonucleic
Version:Futsuu
Source:ハイスクールDxD
Tags:Taiko High School DxD Season 1 Opening TV Size
BeatmapID:1507209
BeatmapSetID:711661

[Difficulty]
HPDrainRate:6
CircleSize:5
OverallDifficulty:4
ApproachRate:4
SliderMultiplier:1.4
SliderTickRate:1

[Events]
//Background and Video events
0,0,"DxD.jpg",0,110
//Break Periods
//Storyboard Layer 0 (Background)
//Storyboard Layer 1 (Fail)
//Storyboard Layer 2 (Pass)
//Storyboard Layer 3 (Foreground)
//Storyboard Sound Samples

[TimingPoints]
49,365.853658536585,4,1,0,75,1,0
5902,-100,4,1,0,85,0,0
17609,-100,4,1,0,80,0,0
29317,-100,4,1,0,75,0,0
35170,-100,4,1,0,80,0,0
42305,-100,4,1,0,90,0,1
71756,-100,4,1,0,85,0,0
83463,-100,4,1,0,75,0,0
84195,-100,4,1,0,63,0,0
84927,-100,4,1,0,51,0,0
85658,-100,4,1,0,39,0,0
86390,-100,4,1,0,27,0,0
87122,-100,4,1,0,15,0,0

[HitObjects]
256,192,49,5,0,0:0:0:0:
256,192,414,1,8,0:0:0:0:
256,192,1146,1,8,0:0:0:0:
256,192,1878,1,8,0:0:0:0:
256,192,2609,1,8,0:0:0:0:
256,192,2975,1,0,0:0:0:0:
256,192,3341,1,8,0:0:0:0:
256,192,4073,1,8,0:0:0:0:
256,192,4439,1,4,0:0:0:0:
256,192,4805,1,8,0:0:0:0:
256,192,5170,1,0,0:0:0:0:
256,192,5353,1,0,0:0:0:0:
256,192,5536,1,8,0:0:0:0:
256,192,5902,1,4,0:0:0:0:
256,192,6634,1,0,0:0:0:0:
256,192,7000,1,8,0:0:0:0:
256,192,7183,1,0,0:0:0:0:
256,192,7548,1,0,0:0:0:0:
256,192,7914,1,8,0:0:0:0:
256,192,8097,1,8,0:0:0:0:
256,192,8463,1,8,0:0:0:0:
256,192,8829,1,0,0:0:0:0:
256,192,9561,1,0,0:0:0:0:
256,192,9927,1,8,0:0:0:0:
256,192,10109,1,0,0:0:0:0:
256,192,10475,1,0,0:0:0:0:
256,192,10658,1,8,0:0:0:0:
256,192,11024,1,0,0:0:0:0:
256,192,11207,1,8,0:0:0:0:
256,192,11390,1,8,0:0:0:0:
256,192,11756,1,4,0:0:0:0:
256,192,12488,1,0,0:0:0:0:
256,192,12853,1,8,0:0:0:0:
256,192,13036,1,0,0:0:0:0:
256,192,13402,1,0,0:0:0:0:
256,192,13768,1,8,0:0:0:0:
256,192,13951,1,8,0:0:0:0:
256,192,14317,1,8,0:0:0:0:
256,192,14683,1,0,0:0:0:0:
256,192,15048,1,8,0:0:0:0:
256,192,15414,1,0,0:0:0:0:
256,192,15597,1,0,0:0:0:0:
256,192,15780,1,8,0:0:0:0:
256,192,16146,1,8,0:0:0:0:
256,192,16329,1,8,0:0:0:0:
256,192,16695,1,8,0:0:0:0:
256,192,17061,1,4,0:0:0:0:
256,192,17244,1,4,0:0:0:0:
256,192,17609,1,12,0:0:0:0:
256,192,18341,1,0,0:0:0:0:
256,192,18707,1,8,0:0:0:0:
256,192,18890,1,0,0:0:0:0:
256,192,19073,1,8,0:0:0:0:
256,192,19439,1,8,0:0:0:0:
256,192,19805,1,0,0:0:0:0:
256,192,20536,1,8,0:0:0:0:
256,192,21268,1,0,0:0:0:0:
256,192,21634,1,8,0:0:0:0:
256,192,21817,1,8,0:0:0:0:
256,192,22000,1,0,0:0:0:0:
256,192,22366,1,8,0:0:0:0:
256,192,22731,1,0,0:0:0:0:
256,192,23463,1,0,0:0:0:0:
256,192,24195,1,0,0:0:0:0:
256,192,24561,1,8,0:0:0:0:
256,192,24744,1,0,0:0:0:0:
256,192,24927,1,8,0:0:0:0:
256,192,25292,1,8,0:0:0:0:
256,192,25658,1,0,0:0:0:0:
256,192,26390,1,0,0:0:0:0:
256,192,26756,1,8,0:0:0:0:
256,192,27122,1,0,0:0:0:0:
256,192,27305,1,0,0:0:0:0:
256,192,27488,1,8,0:0:0:0:
256,192,27853,1,8,0:0:0:0:
256,192,28219,1,8,0:0:0:0:
256,192,28585,1,0,0:0:0:0:
256,192,29317,1,12,0:0:0:0:
256,192,30048,1,8,0:0:0:0:
256,192,30414,1,8,0:0:0:0:
256,192,30780,1,0,0:0:0:0:
256,192,31146,1,0,0:0:0:0:
256,192,31512,1,8,0:0:0:0:
256,192,32244,1,0,0:0:0:0:
256,192,32975,1,0,0:0:0:0:
256,192,33341,1,0,0:0:0:0:
256,192,33707,1,8,0:0:0:0:
256,192,34073,1,8,0:0:0:0:
256,192,34439,1,0,0:0:0:0:
256,192,35170,1,4,0:0:0:0:
256,192,35536,1,8,0:0:0:0:
256,192,35719,1,0,0:0:0:0:
256,192,36268,1,8,0:0:0:0:
256,192,36634,1,4,0:0:0:0:
256,192,37000,1,8,0:0:0:0:
256,192,37183,1,8,0:0:0:0:
256,192,37731,1,8,0:0:0:0:
256,192,38097,1,4,0:0:0:0:
256,192,38463,1,8,0:0:0:0:
256,192,38646,1,8,0:0:0:0:
256,192,39012,1,8,0:0:0:0:
256,192,39195,1,0,0:0:0:0:
256,192,39561,1,12,0:0:0:0:
256,192,39927,1,8,0:0:0:0:
256,192,40292,1,0,0:0:0:0:
256,192,40475,1,0,0:0:0:0:
256,192,40658,1,8,0:0:0:0:
256,192,41024,1,0,0:0:0:0:
256,192,41756,1,8,0:0:0:0:
256,192,42122,1,8,0:0:0:0:
256,192,42305,1,4,0:0:0:0:
256,192,42670,1,8,0:0:0:0:
256,192,42853,1,8,0:0:0:0:
256,192,43219,1,8,0:0:0:0:
256,192,43402,1,0,0:0:0:0:
256,192,43585,1,8,0:0:0:0:
256,192,43768,1,8,0:0:0:0:
256,192,44134,1,8,0:0:0:0:
256,192,44317,1,0,0:0:0:0:
256,192,45048,1,8,0:0:0:0:
256,192,45231,1,0,0:0:0:0:
256,192,45597,1,8,0:0:0:0:
256,192,45780,1,8,0:0:0:0:
256,192,46146,1,8,0:0:0:0:
256,192,46329,1,0,0:0:0:0:
256,192,46512,1,8,0:0:0:0:
256,192,46695,1,0,0:0:0:0:
256,192,47061,1,0,0:0:0:0:
256,192,47244,1,8,0:0:0:0:
256,192,47609,1,0,0:0:0:0:
256,192,47792,1,0,0:0:0:0:
256,192,47975,1,8,0:0:0:0:
256,192,48341,1,8,0:0:0:0:
256,192,49073,1,0,0:0:0:0:
256,192,49439,1,8,0:0:0:0:
256,192,49622,1,8,0:0:0:0:
256,192,49805,1,0,0:0:0:0:
256,192,50170,1,8,0:0:0:0:
256,192,50536,1,0,0:0:0:0:
256,192,50719,1,0,0:0:0:0:
256,192,50902,1,8,0:0:0:0:
256,192,51268,1,0,0:0:0:0:
256,192,51634,1,8,0:0:0:0:
256,192,51817,1,4,0:0:0:0:
256,192,52366,1,8,0:0:0:0:
256,192,52731,1,0,0:0:0:0:
256,192,52914,1,8,0:0:0:0:
256,192,53097,1,8,0:0:0:0:
256,192,53463,1,8,0:0:0:0:
256,192,53829,1,8,0:0:0:0:
256,192,54012,1,4,0:0:0:0:
256,192,54378,1,8,0:0:0:0:
256,192,54561,1,8,0:0:0:0:
256,192,54927,1,8,0:0:0:0:
256,192,55109,1,0,0:0:0:0:
256,192,55292,1,8,0:0:0:0:
256,192,55475,1,8,0:0:0:0:
256,192,55841,1,8,0:0:0:0:
256,192,56024,1,0,0:0:0:0:
256,192,56756,1,8,0:0:0:0:
256,192,56939,1,0,0:0:0:0:
256,192,57305,1,8,0:0:0:0:
256,192,57488,1,8,0:0:0:0:
256,192,57853,1,8,0:0:0:0:
256,192,58036,1,0,0:0:0:0:
256,192,58219,1,8,0:0:0:0:
256,192,58402,1,0,0:0:0:0:
256,192,58768,1,0,0:0:0:0:
256,192,58951,1,8,0:0:0:0:
256,192,59317,1,0,0:0:0:0:
256,192,59500,1,0,0:0:0:0:
256,192,59683,1,8,0:0:0:0:
256,192,60048,1,4,0:0:0:0:
256,192,60780,1,0,0:0:0:0:
256,192,61146,1,8,0:0:0:0:
256,192,61329,1,0,0:0:0:0:
256,192,61512,1,8,0:0:0:0:
256,192,61878,1,8,0:0:0:0:
256,192,62244,1,0,0:0:0:0:
256,192,62427,1,0,0:0:0:0:
256,192,62609,1,8,0:0:0:0:
256,192,62975,1,0,0:0:0:0:
256,192,63707,1,0,0:0:0:0:
256,192,64073,1,0,0:0:0:0:
256,192,64256,1,8,0:0:0:0:
256,192,64439,1,8,0:0:0:0:
256,192,64805,1,0,0:0:0:0:
256,192,65170,1,8,0:0:0:0:
256,192,65536,1,8,0:0:0:0:
256,192,65719,1,4,0:0:0:0:
256,192,66268,1,8,0:0:0:0:
256,192,66634,1,0,0:0:0:0:
256,192,67000,1,8,0:0:0:0:
256,192,67183,1,8,0:0:0:0:
256,192,67366,1,0,0:0:0:0:
256,192,67731,1,8,0:0:0:0:
256,192,68097,1,0,0:0:0:0:
256,192,68280,1,0,0:0:0:0:
256,192,68463,1,8,0:0:0:0:
256,192,68829,1,12,0:0:0:0:
256,192,69378,1,4,0:0:0:0:
256,192,69927,1,8,0:0:0:0:
256,192,70292,1,0,0:0:0:0:
256,192,70475,1,0,0:0:0:0:
256,192,70658,1,0,0:0:0:0:
256,192,71024,1,8,0:0:0:0:
256,192,71207,1,8,0:0:0:0:
256,192,71390,1,8,0:0:0:0:
256,192,71756,1,4,0:0:0:0:
256,192,72488,1,0,0:0:0:0:
256,192,72853,1,8,0:0:0:0:
256,192,73036,1,0,0:0:0:0:
256,192,73402,1,0,0:0:0:0:
256,192,73768,1,8,0:0:0:0:
256,192,73951,1,8,0:0:0:0:
256,192,74317,1,8,0:0:0:0:
256,192,74683,1,0,0:0:0:0:
256,192,75414,1,0,0:0:0:0:
256,192,75780,1,8,0:0:0:0:
256,192,75963,1,0,0:0:0:0:
256,192,76329,1,0,0:0:0:0:
256,192,76512,1,8,0:0:0:0:
256,192,76878,1,0,0:0:0:0:
256,192,77061,1,8,0:0:0:0:
256,192,77244,1,8,0:0:0:0:
256,192,77609,1,4,0:0:0:0:
256,192,78341,1,0,0:0:0:0:
256,192,78707,1,8,0:0:0:0:
256,192,78890,1,0,0:0:0:0:
256,192,79256,1,0,0:0:0:0:
256,192,79622,1,8,0:0:0:0:
256,192,79805,1,8,0:0:0:0:
256,192,80170,1,8,0:0:0:0:
256,192,80536,1,0,0:0:0:0:
256,192,80902,1,8,0:0:0:0:
256,192,81268,1,0,0:0:0:0:
256,192,81451,1,0,0:0:0:0:
256,192,81634,1,8,0:0:0:0:
256,192,82000,1,8,0:0:0:0:
256,192,82183,1,8,0:0:0:0:
256,192,82548,1,8,0:0:0:0:
256,192,82914,1,4,0:0:0:0:
256,192,83097,1,4,0:0:0:0:
256,192,83463,1,12,0:0:0:0:
256,192,83646,12,0,87122,0:0:0:0:
