osu file format v14

[General]
AudioFilename: Trip -innocent of D- (TV Size).mp3
AudioLeadIn: 0
PreviewTime: 42122
Countdown: 0
SampleSet: Soft
StackLeniency: 0.7
Mode: 3
LetterboxInBreaks: 0
SpecialStyle: 0
WidescreenStoryboard: 0

[Editor]
DistanceSpacing: 1
BeatDivisor: 4
GridSize: 8
TimelineZoom: 1.5

[Metadata]
Title:Trip -innocent of D-
TitleUnicode:Trip -innocent of D-
Artist:Larval Stage Planning
ArtistUnicode:Larval Stage Planning
Creator:[-Star_Lenz-]
Version:Lv.10
Source:High School DxD
Tags:Tv Size Opening Muu-Chan ExKagii-
BeatmapID:648901
BeatmapSetID:287354

[Difficulty]
HPDrainRate:7.5
CircleSize:4
OverallDifficulty:7.5
ApproachRate:5
SliderMultiplier:1.4
SliderTickRate:1

[Events]
//Background and Video events
0,0,"BG.jpg",0,0
Video,49,"HDXD.avi"
//Break Periods
//Storyboard Layer 0 (Background)
//Storyboard Layer 1 (Fail)
//Storyboard Layer 2 (Pass)
//Storyboard Layer 3 (Foreground)
//Storyboard Sound Samples

[TimingPoints]
49,365.853658536585,4,2,1,50,1,0
11127,-66.6666666666667,4,2,1,50,0,0
11172,-200,4,2,1,50,0,0
11218,-100,4,2,1,50,0,0
11309,-66.6666666666667,4,2,1,50,0,0
11355,-200,4,2,1,50,0,0
11401,-100,4,2,1,50,0,0
11492,-66.6666666666667,4,2,1,50,0,0
11538,-200,4,2,1,50,0,0
11584,-100,4,2,1,50,0,0
42305,-100,4,2,1,55,0,1
71664,-100,4,2,1,55,0,1
71756,-100,4,2,1,50,0,0
76980,-200,4,2,1,50,0,0
77072,-100,4,2,1,50,0,0
77163,-66.6666666666667,4,2,1,50,0,0
77209,-200,4,2,1,50,0,0
77255,-100,4,2,1,50,0,0
77346,-66.6666666666667,4,2,1,50,0,0
77392,-200,4,2,1,50,0,0
77438,-100,4,2,1,50,0,0

[HitObjects]
64,192,49,128,0,2609:0:0:0:0:
320,192,414,1,0,0:0:0:50:soft-hitwhistle.wav
448,192,414,1,0,0:0:0:0:
448,192,1146,1,0,0:0:0:0:
320,192,1146,1,2,0:0:0:0:
320,192,1878,1,0,0:0:0:50:soft-hitwhistle.wav
448,192,1878,1,0,0:0:0:0:
192,192,2609,1,2,0:0:0:0:
448,192,2609,128,0,2975:0:0:0:0:
320,192,2975,128,0,4073:0:0:0:0:
192,192,3341,1,0,0:0:0:0:
64,192,3341,1,2,0:0:0:0:
192,192,4073,1,0,0:0:0:0:
64,192,4073,1,2,0:0:0:55:soft-hitwhistle.wav
192,192,4439,1,8,0:0:0:0:
320,192,4439,1,0,0:0:0:0:
64,192,4622,1,10,0:0:0:0:
448,192,4622,1,0,0:0:0:0:
192,192,4805,1,8,0:0:0:0:
320,192,4805,1,2,0:0:0:0:
448,192,4988,1,8,0:0:0:0:
64,192,4988,1,2,0:0:0:0:
192,192,5170,1,2,0:0:0:0:
320,192,5170,1,8,0:0:0:0:
64,192,5353,1,8,0:0:0:0:
448,192,5353,1,0,0:0:0:0:
64,192,5536,1,0,0:0:0:0:
320,192,5536,1,2,0:0:0:0:
448,192,5536,1,8,0:0:0:0:
64,192,5902,128,0,6268:0:0:0:0:
320,192,5902,1,2,0:0:0:0:
448,192,6085,1,2,0:0:0:0:
192,192,6268,128,0,6634:0:0:0:0:
320,192,6268,1,8,0:0:0:0:
448,192,6451,1,2,0:0:0:0:
64,192,6634,1,2,0:0:0:0:
320,192,6634,128,0,7000:0:0:0:0:
192,192,6817,1,2,0:0:0:0:
448,192,7000,1,8,0:0:0:0:
64,192,7000,1,2,0:0:0:0:
448,192,7366,128,0,7731:0:0:0:0:
192,192,7366,1,2,0:0:0:0:
64,192,7548,1,2,0:0:0:0:
192,192,7731,1,8,0:0:0:0:
320,192,7731,128,0,8097:0:0:0:0:
64,192,7914,1,2,0:0:0:0:
192,192,8097,128,0,8463:0:0:0:0:
448,192,8097,1,2,0:0:0:0:
320,192,8280,1,2,0:0:0:0:
64,192,8463,1,2,0:0:0:0:
448,192,8463,1,8,0:0:0:0:
192,192,8829,128,0,9195:0:0:0:0:
320,192,8829,1,2,0:0:0:0:
448,192,9012,1,2,0:0:0:0:
64,192,9195,1,8,0:0:0:0:
320,192,9195,128,0,9561:0:0:0:0:
192,192,9378,1,2,0:0:0:0:
64,192,9561,1,2,0:0:0:0:
448,192,9561,128,0,9927:0:0:0:0:
192,192,9744,1,2,0:0:0:0:
192,192,9927,128,0,10292:0:0:0:0:
320,192,9927,1,8,0:0:0:0:
448,192,10109,1,2,0:0:0:0:
64,192,10292,1,2,0:0:0:0:
320,192,10292,128,0,10658:0:0:0:0:
448,192,10475,1,2,0:0:0:0:
448,192,10658,128,0,11024:0:0:0:0:
192,192,10658,1,8,0:0:0:0:
320,192,10841,1,2,0:0:0:0:
192,192,11024,1,2,0:0:0:0:
64,192,11024,1,2,0:0:0:0:
448,192,11207,1,0,0:0:0:0:
320,192,11207,1,8,0:0:0:0:
64,192,11390,1,0,0:0:0:0:
192,192,11390,1,8,0:0:0:0:
192,192,11573,1,0,0:0:0:0:
64,192,11573,1,8,0:0:0:0:
320,192,11756,128,0,12122:0:0:0:0:
448,192,11756,1,2,0:0:0:0:
192,192,12122,1,8,0:0:0:0:
64,192,12122,1,0,0:0:0:0:
448,192,12122,1,2,0:0:0:0:
64,192,12488,1,0,0:0:0:0:
448,192,12488,1,2,0:0:0:0:
320,192,12670,1,0,0:0:0:0:
192,192,12670,1,2,0:0:0:0:
320,192,12853,1,8,0:0:0:0:
448,192,12853,1,0,0:0:0:0:
64,192,12853,1,0,0:0:0:0:
192,192,13219,1,2,0:0:0:0:
448,192,13219,1,0,0:0:0:0:
320,192,13585,1,2,0:0:0:0:
64,192,13585,1,8,0:0:0:0:
192,192,13951,1,2,0:0:0:0:
320,192,13951,1,0,0:0:0:0:
320,192,14134,1,2,0:0:0:0:
192,192,14134,1,0,0:0:0:0:
320,192,14317,1,0,0:0:0:0:
448,192,14317,1,8,0:0:0:0:
64,192,14317,1,2,0:0:0:0:
64,192,14683,1,0,0:0:0:0:
320,192,14683,1,2,0:0:0:0:
320,192,15048,1,2,0:0:0:0:
448,192,15048,1,0,0:0:0:0:
64,192,15048,1,8,0:0:0:0:
192,192,15414,1,0,0:0:0:0:
64,192,15414,1,2,0:0:0:0:
320,192,15597,1,2,0:0:0:0:
448,192,15597,1,0,0:0:0:0:
448,192,15780,1,0,0:0:0:0:
192,192,15780,1,8,0:0:0:0:
64,192,15780,1,0,0:0:0:0:
448,192,16146,1,0,0:0:0:0:
64,192,16146,1,2,0:0:0:0:
192,192,16329,1,2,0:0:0:0:
320,192,16329,1,0,0:0:0:0:
192,192,16695,1,8,0:0:0:0:
320,192,16695,1,0,0:0:0:0:
192,192,17061,1,2,0:0:0:0:
64,192,17061,1,0,0:0:0:0:
64,192,17244,1,0,0:0:0:0:
192,192,17244,1,2,0:0:0:0:
448,192,17244,1,8,0:0:0:0:
192,192,17609,1,2,0:0:0:0:
320,192,17609,1,0,0:0:0:0:
320,192,17975,1,2,0:0:0:0:
64,192,17975,1,0,0:0:0:0:
192,192,18158,1,2,0:0:0:0:
64,192,18341,1,2,0:0:0:0:
192,192,18524,1,2,0:0:0:0:
320,192,18707,1,8,0:0:0:0:
64,192,18707,1,2,0:0:0:0:
192,192,19073,1,2,0:0:0:0:
448,192,19073,1,0,0:0:0:0:
320,192,19256,1,2,0:0:0:0:
448,192,19439,1,2,0:0:0:0:
64,192,19439,1,8,0:0:0:0:
320,192,19622,1,2,0:0:0:0:
192,192,19805,1,2,0:0:0:0:
448,192,19805,1,2,0:0:0:0:
192,192,19988,1,2,0:0:0:0:
64,192,19988,1,2,0:0:0:0:
320,192,20170,1,8,0:0:0:0:
448,192,20170,1,2,0:0:0:0:
64,192,20353,1,2,0:0:0:0:
192,192,20536,1,2,0:0:0:0:
448,192,20536,1,0,0:0:0:0:
320,192,20902,1,8,0:0:0:0:
448,192,20902,1,0,0:0:0:0:
192,192,21085,1,2,0:0:0:0:
64,192,21268,1,2,0:0:0:0:
448,192,21268,1,0,0:0:0:0:
320,192,21451,1,2,0:0:0:0:
448,192,21634,1,0,0:0:0:0:
192,192,21634,1,8,0:0:0:0:
320,192,21817,1,2,0:0:0:0:
192,192,22000,1,2,0:0:0:0:
64,192,22000,1,0,0:0:0:0:
320,192,22183,1,2,0:0:0:0:
448,192,22366,1,8,0:0:0:0:
192,192,22366,1,0,0:0:0:0:
320,192,22731,1,0,0:0:0:0:
192,192,22731,1,2,0:0:0:0:
192,192,22914,1,0,0:0:0:0:
320,192,22914,1,2,0:0:0:0:
448,192,23097,1,8,0:0:0:0:
64,192,23097,1,2,0:0:0:0:
64,192,23463,128,0,23829:0:0:0:0:
320,192,23463,1,2,0:0:0:0:
192,192,23829,1,8,0:0:0:0:
320,192,23829,128,0,24195:0:0:0:0:
192,192,24195,128,0,24561:0:0:0:0:
64,192,24195,1,2,0:0:0:0:
448,192,24378,1,2,0:0:0:0:
320,192,24561,128,0,24927:0:0:0:0:
64,192,24561,1,8,0:0:0:0:
64,192,24927,128,0,25292:0:0:0:0:
448,192,24927,1,2,0:0:0:0:
192,192,25292,1,2,0:0:0:0:
320,192,25292,1,8,0:0:0:0:
192,192,25658,1,2,0:0:0:0:
320,192,25658,1,0,0:0:0:0:
192,192,25841,1,0,0:0:0:0:
320,192,25841,1,2,0:0:0:0:
320,192,26024,1,0,0:0:0:0:
448,192,26024,1,2,0:0:0:0:
64,192,26024,1,8,0:0:0:0:
192,192,26390,128,0,26756:0:0:0:0:
448,192,26390,1,2,0:0:0:0:
320,192,26756,1,8,0:0:0:0:
64,192,26756,128,0,27122:0:0:0:0:
320,192,27122,1,2,0:0:0:0:
448,192,27122,128,0,27488:0:0:0:0:
192,192,27305,1,2,0:0:0:0:
320,192,27488,1,2,0:0:0:0:
64,192,27488,1,8,0:0:0:0:
192,192,27853,128,0,28219:0:0:0:0:
320,192,28219,1,2,0:0:0:0:
448,192,28219,1,8,0:0:0:0:
64,192,28585,128,0,29317:0:0:0:0:
448,192,28585,1,2,0:0:0:0:
192,192,28768,1,2,0:0:0:0:
448,192,28951,1,2,0:0:0:0:
192,192,29134,1,2,0:0:0:0:
320,192,29317,1,8,0:0:0:0:
448,192,29317,1,0,0:0:0:0:
320,192,29866,1,2,0:0:0:0:
448,192,30048,1,0,0:0:0:0:
192,192,30048,1,8,0:0:0:0:
320,192,30597,1,2,0:0:0:0:
64,192,30597,1,0,0:0:0:0:
192,192,30963,128,0,31329:0:0:0:0:
320,192,30963,1,2,0:0:0:0:
64,192,31146,1,2,0:0:0:0:
320,192,31329,128,0,31695:0:0:0:0:
448,192,31329,1,2,0:0:0:0:
192,192,31512,1,8,0:0:0:0:
64,192,31512,1,0,0:0:0:0:
448,192,31695,1,2,0:0:0:0:
320,192,31878,1,2,0:0:0:0:
64,192,31878,1,8,0:0:0:0:
192,192,32244,1,2,0:0:0:0:
448,192,32244,1,0,0:0:0:0:
320,192,32427,1,2,0:0:0:0:
64,192,32609,1,2,0:0:0:0:
192,192,32792,1,2,0:0:0:0:
320,192,32975,1,2,0:0:0:0:
64,192,32975,1,8,0:0:0:0:
448,192,33158,128,2,33707:0:0:0:0:
192,192,33341,1,2,0:0:0:0:
320,192,33524,1,2,0:0:0:0:
64,192,33707,1,8,0:0:0:0:
448,192,33890,128,0,34073:0:0:0:0:
192,192,33890,1,2,0:0:0:0:
320,192,34073,128,0,34256:0:0:0:0:
192,192,34256,128,0,34439:0:0:0:0:
320,192,34439,1,8,0:0:0:0:
192,192,34622,1,0,0:0:0:0:
64,192,34622,1,2,0:0:0:0:
64,192,34805,1,2,0:0:0:0:
192,192,34805,1,0,0:0:0:0:
448,192,34988,1,2,0:0:0:0:
320,192,35079,1,2,0:0:0:0:
192,192,35170,1,2,0:0:0:0:
448,192,35170,1,8,0:0:0:0:
64,192,35170,1,0,0:0:0:0:
64,192,35353,1,2,0:0:0:0:
192,192,35536,1,2,0:0:0:0:
448,192,35536,1,0,0:0:0:0:
64,192,35719,1,2,0:0:0:0:
192,192,35902,1,2,0:0:0:0:
320,192,36085,1,2,0:0:0:0:
448,192,36268,1,2,0:0:0:0:
64,192,36268,1,8,0:0:0:0:
320,192,36451,1,2,0:0:0:0:
192,192,36634,1,2,0:0:0:0:
64,192,36634,1,8,0:0:0:0:
448,192,36817,1,2,0:0:0:0:
192,192,37000,1,2,0:0:0:0:
448,192,37183,1,2,0:0:0:0:
64,192,37366,1,2,0:0:0:0:
320,192,37548,1,2,0:0:0:0:
192,192,37731,1,2,0:0:0:0:
448,192,37731,1,8,0:0:0:0:
320,192,38097,1,2,0:0:0:0:
64,192,38097,1,8,0:0:0:0:
448,192,38097,1,0,0:0:0:0:
320,192,38463,1,2,0:0:0:0:
192,192,38463,1,0,0:0:0:0:
448,192,38646,1,2,0:0:0:0:
320,192,38829,1,2,0:0:0:0:
448,192,39012,1,2,0:0:0:0:
320,192,39195,1,2,0:0:0:0:
64,192,39195,1,8,0:0:0:0:
192,192,39561,1,2,0:0:0:0:
448,192,39561,1,8,0:0:0:0:
64,192,39561,1,0,0:0:0:0:
320,192,39927,1,2,0:0:0:0:
448,192,39927,1,0,0:0:0:0:
64,192,40292,1,0,0:0:0:0:
320,192,40292,1,2,0:0:0:0:
64,192,40475,1,0,0:0:0:0:
320,192,40475,1,2,0:0:0:0:
192,192,40658,1,2,0:0:0:0:
448,192,40658,1,8,0:0:0:0:
192,192,41024,1,2,0:0:0:0:
320,192,41024,1,0,0:0:0:0:
448,192,41390,1,0,0:0:0:0:
64,192,41390,1,2,0:0:0:0:
192,192,41756,1,2,0:0:0:0:
320,192,41756,128,0,42305:0:0:0:0:
192,192,42122,1,2,0:0:0:0:
64,192,42305,1,8,0:0:0:0:
448,192,42305,128,0,43768:0:0:0:0:
64,192,42670,1,2,0:0:0:0:
192,192,42853,1,2,0:0:0:0:
64,192,43036,1,2,0:0:0:0:
320,192,43219,1,2,0:0:0:0:
192,192,43402,1,2,0:0:0:0:
64,192,43585,1,8,0:0:0:0:
320,192,43768,1,2,0:0:0:0:
192,192,43951,1,2,0:0:0:0:
320,192,44134,1,2,0:0:0:0:
192,192,44317,1,8,0:0:0:0:
448,192,44317,1,2,0:0:0:0:
448,192,44683,1,2,0:0:0:0:
64,192,44866,1,2,0:0:0:0:
448,192,45048,1,8,0:0:0:0:
320,192,45048,1,2,0:0:0:0:
192,192,45231,1,2,0:0:0:0:
64,192,45231,128,0,46512:0:0:0:0:
320,192,45414,1,2,0:0:0:0:
448,192,45597,1,2,0:0:0:0:
320,192,45780,1,2,0:0:0:0:
192,192,45780,1,8,0:0:0:0:
448,192,45963,1,2,0:0:0:0:
320,192,46146,1,2,0:0:0:0:
192,192,46329,1,2,0:0:0:0:
320,192,46512,1,2,0:0:0:0:
448,192,46512,1,8,0:0:0:0:
192,192,46878,1,2,0:0:0:0:
320,192,46878,1,0,0:0:0:0:
192,192,47061,1,0,0:0:0:0:
320,192,47061,1,2,0:0:0:0:
320,192,47244,1,2,0:0:0:0:
448,192,47244,1,8,0:0:0:0:
64,192,47244,1,0,0:0:0:0:
192,192,47609,1,2,0:0:0:0:
320,192,47609,1,0,0:0:0:0:
320,192,47792,1,2,0:0:0:0:
192,192,47792,1,0,0:0:0:0:
192,192,47975,1,2,0:0:0:0:
448,192,47975,1,8,0:0:0:0:
64,192,47975,1,0,0:0:0:0:
192,192,48341,128,0,49439:0:0:0:0:
64,192,48341,1,2,0:0:0:0:
320,192,48707,1,2,0:0:0:0:
448,192,48707,1,8,0:0:0:0:
448,192,49073,1,0,0:0:0:0:
320,192,49073,1,2,0:0:0:0:
320,192,49256,1,2,0:0:0:0:
448,192,49256,1,0,0:0:0:0:
448,192,49439,1,0,0:0:0:0:
320,192,49439,1,2,0:0:0:0:
64,192,49439,1,8,0:0:0:0:
192,192,49805,1,2,0:0:0:0:
320,192,49805,1,0,0:0:0:0:
320,192,50170,1,0,0:0:0:0:
192,192,50170,1,2,0:0:0:0:
64,192,50170,1,8,0:0:0:0:
192,192,50536,1,2,0:0:0:0:
320,192,50536,1,0,0:0:0:0:
64,192,50902,1,8,0:0:0:0:
320,192,50902,1,0,0:0:0:0:
448,192,50902,1,0,0:0:0:0:
192,192,51268,1,2,0:0:0:0:
64,192,51268,1,0,0:0:0:0:
320,192,51634,1,2,0:0:0:0:
448,192,51634,1,8,0:0:0:0:
192,192,51817,1,2,0:0:0:0:
64,192,51817,128,0,52914:0:0:0:0:
448,192,52000,1,2,0:0:0:0:
320,192,52183,1,2,0:0:0:0:
448,192,52366,1,8,0:0:0:0:
192,192,52548,1,2,0:0:0:0:
320,192,52731,1,2,0:0:0:0:
448,192,52914,1,10,0:0:0:0:
192,192,53097,1,2,0:0:0:0:
64,192,53280,1,0,0:0:0:0:
320,192,53280,1,2,0:0:0:0:
64,192,53463,128,0,53829:0:0:0:0:
448,192,53463,1,8,0:0:0:0:
320,192,53829,128,0,54012:0:0:0:0:
192,192,53829,1,2,0:0:0:0:
64,192,54012,1,2,0:0:0:0:
448,192,54012,128,0,54927:0:0:0:0:
320,192,54378,1,2,0:0:0:0:
192,192,54561,1,8,0:0:0:0:
64,192,54744,1,2,0:0:0:0:
320,192,54927,1,2,0:0:0:0:
448,192,55109,1,2,0:0:0:0:
192,192,55292,128,0,56024:0:0:0:0:
64,192,55292,1,8,0:0:0:0:
320,192,55475,1,2,0:0:0:0:
448,192,55658,1,2,0:0:0:0:
64,192,55841,1,2,0:0:0:0:
320,192,56024,1,8,0:0:0:0:
192,192,56390,1,0,0:0:0:0:
320,192,56390,1,2,0:0:0:0:
320,192,56573,1,0,0:0:0:0:
192,192,56573,1,2,0:0:0:0:
192,192,56756,1,0,0:0:0:0:
320,192,56756,1,2,0:0:0:0:
448,192,56756,1,8,0:0:0:0:
64,192,56939,128,0,58219:0:0:0:0:
192,192,56939,1,2,0:0:0:0:
320,192,57122,1,2,0:0:0:0:
192,192,57305,1,2,0:0:0:0:
320,192,57488,1,8,0:0:0:0:
448,192,57670,1,2,0:0:0:0:
192,192,57853,1,2,0:0:0:0:
320,192,58036,1,2,0:0:0:0:
192,192,58219,1,8,0:0:0:0:
448,192,58219,1,2,0:0:0:0:
192,192,58585,1,2,0:0:0:0:
320,192,58585,1,0,0:0:0:0:
320,192,58768,1,2,0:0:0:0:
192,192,58768,1,0,0:0:0:0:
192,192,58951,1,2,0:0:0:0:
64,192,58951,1,0,0:0:0:0:
448,192,58951,1,8,0:0:0:0:
320,192,59317,1,0,0:0:0:0:
192,192,59317,1,2,0:0:0:0:
192,192,59500,1,0,0:0:0:0:
320,192,59500,1,2,0:0:0:0:
448,192,59683,1,0,0:0:0:0:
192,192,59683,1,2,0:0:0:0:
64,192,59683,1,8,0:0:0:0:
448,192,59866,1,8,0:0:0:0:
320,192,59957,1,8,0:0:0:0:
192,192,60048,128,2,60414:0:0:0:0:
320,192,60414,1,2,0:0:0:0:
448,192,60414,1,8,0:0:0:0:
320,192,60780,1,0,0:0:0:0:
192,192,60780,1,2,0:0:0:0:
192,192,60963,1,0,0:0:0:0:
320,192,60963,1,2,0:0:0:0:
64,192,61146,1,8,0:0:0:0:
320,192,61146,1,2,0:0:0:0:
448,192,61146,1,0,0:0:0:0:
192,192,61512,1,2,0:0:0:0:
448,192,61512,1,0,0:0:0:0:
192,192,61878,1,8,0:0:0:0:
64,192,61878,1,2,0:0:0:0:
320,192,62244,1,0,0:0:0:0:
192,192,62244,1,2,0:0:0:0:
320,192,62427,1,2,0:0:0:0:
192,192,62427,1,0,0:0:0:0:
320,192,62609,1,2,0:0:0:0:
448,192,62609,1,0,0:0:0:0:
64,192,62609,1,8,0:0:0:0:
64,192,62975,1,2,0:0:0:0:
448,192,62975,1,0,0:0:0:0:
192,192,63341,1,0,0:0:0:0:
64,192,63341,1,0,0:0:0:0:
448,192,63341,1,8,0:0:0:0:
448,192,63707,1,0,0:0:0:0:
64,192,63707,1,2,0:0:0:0:
192,192,63890,1,2,0:0:0:0:
320,192,63890,1,0,0:0:0:0:
192,192,64073,1,2,0:0:0:0:
64,192,64073,1,8,0:0:0:0:
448,192,64073,1,0,0:0:0:0:
320,192,64256,1,2,0:0:0:0:
448,192,64256,1,0,0:0:0:0:
192,192,64439,1,2,0:0:0:0:
64,192,64439,1,0,0:0:0:0:
320,192,64805,1,8,0:0:0:0:
192,192,64805,1,2,0:0:0:0:
64,192,64805,1,0,0:0:0:0:
192,192,65170,1,2,0:0:0:0:
448,192,65170,1,0,0:0:0:0:
320,192,65353,1,2,0:0:0:0:
448,192,65353,1,0,0:0:0:0:
64,192,65353,1,0,0:0:0:0:
64,192,65536,1,2,0:0:0:0:
192,192,65536,1,0,0:0:0:0:
320,192,65719,1,2,0:0:0:0:
192,192,65719,1,8,0:0:0:0:
448,192,66085,1,0,0:0:0:0:
64,192,66085,1,2,0:0:0:0:
320,192,66268,1,0,0:0:0:0:
192,192,66268,1,2,0:0:0:0:
192,192,66634,1,2,0:0:0:0:
320,192,66634,1,0,0:0:0:0:
320,192,66817,1,2,0:0:0:0:
192,192,66817,1,0,0:0:0:0:
192,192,67000,1,2,0:0:0:0:
64,192,67000,1,0,0:0:0:0:
448,192,67000,1,8,0:0:0:0:
192,192,67366,1,2,0:0:0:0:
320,192,67366,1,0,0:0:0:0:
192,192,67731,1,2,0:0:0:0:
64,192,67731,1,8,0:0:0:0:
448,192,67731,1,0,0:0:0:0:
192,192,68097,1,2,0:0:0:0:
320,192,68097,1,0,0:0:0:0:
320,192,68280,1,2,0:0:0:0:
192,192,68280,1,0,0:0:0:0:
192,192,68463,1,2,0:0:0:0:
64,192,68463,1,8,0:0:0:0:
192,192,68829,1,2,0:0:0:0:
64,192,68829,1,8,0:0:0:0:
448,192,68829,1,2,0:0:0:0:
192,192,69195,1,2,0:0:0:0:
320,192,69378,1,2,0:0:0:0:
448,192,69378,1,8,0:0:0:0:
64,192,69378,1,0,0:0:0:0:
320,192,69744,1,2,0:0:0:0:
448,192,69927,1,0,0:0:0:0:
192,192,69927,1,8,0:0:0:0:
64,192,69927,1,2,0:0:0:0:
64,192,70292,1,2,0:0:0:0:
320,192,70292,1,0,0:0:0:0:
448,192,70292,1,0,0:0:0:0:
192,192,70475,1,0,0:0:0:0:
320,192,70475,1,2,0:0:0:0:
192,192,70658,1,2,0:0:0:0:
320,192,70658,1,0,0:0:0:0:
64,192,70658,1,2,0:0:0:0:
320,192,70841,1,0,0:0:0:0:
448,192,70841,1,0,0:0:0:0:
448,192,71024,1,8,0:0:0:0:
320,192,71024,1,2,0:0:0:0:
192,192,71024,1,0,0:0:0:0:
320,192,71207,1,8,0:0:0:0:
64,192,71207,1,0,0:0:0:0:
64,192,71390,1,8,0:0:0:0:
448,192,71390,1,0,0:0:0:0:
448,192,71573,1,0,0:0:0:0:
192,192,71573,1,8,0:0:0:0:
320,192,71756,1,2,0:0:0:0:
448,192,71756,1,0,0:0:0:0:
64,192,71756,1,0,0:0:0:0:
64,192,72122,1,2,0:0:0:0:
448,192,72122,1,8,0:0:0:0:
320,192,72488,1,0,0:0:0:0:
192,192,72488,1,2,0:0:0:0:
320,192,72670,1,2,0:0:0:0:
192,192,72670,1,0,0:0:0:0:
320,192,72853,1,2,0:0:0:0:
448,192,72853,1,0,0:0:0:0:
64,192,72853,1,8,0:0:0:0:
64,192,73219,1,2,0:0:0:0:
320,192,73219,1,0,0:0:0:0:
192,192,73402,1,2,0:0:0:0:
448,192,73585,1,2,0:0:0:0:
320,192,73585,1,8,0:0:0:0:
64,192,73768,1,2,0:0:0:0:
192,192,73951,1,2,0:0:0:0:
320,192,73951,1,0,0:0:0:0:
320,192,74134,1,2,0:0:0:0:
192,192,74134,1,0,0:0:0:0:
320,192,74317,1,8,0:0:0:0:
448,192,74317,1,2,0:0:0:0:
64,192,74317,1,0,0:0:0:0:
320,192,74683,1,0,0:0:0:0:
64,192,74683,1,2,0:0:0:0:
192,192,74866,1,2,0:0:0:0:
64,192,75048,1,0,0:0:0:0:
320,192,75048,1,2,0:0:0:0:
448,192,75048,1,8,0:0:0:0:
448,192,75231,1,2,0:0:0:0:
192,192,75414,1,0,0:0:0:0:
320,192,75414,1,2,0:0:0:0:
192,192,75597,1,2,0:0:0:0:
320,192,75597,1,0,0:0:0:0:
320,192,75780,1,8,0:0:0:0:
448,192,75780,1,0,0:0:0:0:
64,192,75780,1,2,0:0:0:0:
192,192,76146,1,2,0:0:0:0:
320,192,76146,1,0,0:0:0:0:
448,192,76146,1,0,0:0:0:0:
64,192,76329,1,2,0:0:0:0:
320,192,76512,1,8,0:0:0:0:
192,192,76512,1,2,0:0:0:0:
448,192,76695,1,2,0:0:0:0:
192,192,76878,1,0,0:0:0:0:
320,192,76878,1,2,0:0:0:0:
192,192,77061,1,2,0:0:0:0:
64,192,77061,1,8,0:0:0:0:
448,192,77244,1,8,0:0:0:0:
320,192,77244,1,0,0:0:0:0:
64,192,77427,1,2,0:0:0:0:
192,192,77427,1,8,0:0:0:0:
64,192,77609,1,2,0:0:0:0:
448,192,77609,1,2,0:0:0:0:
192,192,77975,1,2,0:0:0:0:
64,192,77975,1,0,0:0:0:0:
448,192,77975,1,8,0:0:0:0:
192,192,78341,1,2,0:0:0:0:
320,192,78341,1,0,0:0:0:0:
320,192,78524,1,2,0:0:0:0:
192,192,78524,1,0,0:0:0:0:
320,192,78707,1,2,0:0:0:0:
448,192,78707,1,8,0:0:0:0:
64,192,78707,1,0,0:0:0:0:
64,192,79073,1,2,0:0:0:0:
320,192,79073,1,0,0:0:0:0:
320,192,79256,1,2,0:0:0:0:
192,192,79439,1,2,0:0:0:0:
448,192,79439,1,8,0:0:0:0:
64,192,79622,1,2,0:0:0:0:
192,192,79805,1,2,0:0:0:0:
320,192,79805,1,0,0:0:0:0:
320,192,79988,1,2,0:0:0:0:
192,192,79988,1,0,0:0:0:0:
320,192,80170,1,2,0:0:0:0:
448,192,80170,1,8,0:0:0:0:
64,192,80170,1,0,0:0:0:0:
64,192,80536,1,0,0:0:0:0:
192,192,80536,1,2,0:0:0:0:
320,192,80536,1,0,0:0:0:0:
64,192,80902,1,2,0:0:0:0:
320,192,80902,1,8,0:0:0:0:
448,192,80902,1,0,0:0:0:0:
448,192,81085,1,2,0:0:0:0:
192,192,81268,1,2,0:0:0:0:
320,192,81268,1,0,0:0:0:0:
320,192,81451,1,2,0:0:0:0:
192,192,81451,1,0,0:0:0:0:
320,192,81634,1,2,0:0:0:0:
448,192,81634,1,0,0:0:0:0:
64,192,81634,1,8,0:0:0:0:
192,192,82000,1,2,0:0:0:0:
448,192,82000,1,8,0:0:0:0:
320,192,82183,1,2,0:0:0:0:
64,192,82183,1,8,0:0:0:0:
192,192,82548,1,8,0:0:0:0:
320,192,82548,1,2,0:0:0:0:
448,192,82548,1,0,0:0:0:0:
192,192,82914,1,2,0:0:0:0:
320,192,82914,1,0,0:0:0:0:
448,192,83097,1,0,0:0:0:0:
64,192,83097,1,8,0:0:0:0:
64,192,83463,1,8,0:0:0:0:
320,192,83463,128,0,88585:0:0:0:0:
192,192,83463,128,0,88585:0:0:0:0:
448,192,83463,1,4,0:0:0:0:
