osu file format v12

[General]
AudioFilename: Sympathy.mp3
AudioLeadIn: 1500
PreviewTime: 51371
Countdown: 0
SampleSet: Soft
StackLeniency: 0.7
Mode: 0
LetterboxInBreaks: 0
WidescreenStoryboard: 0

[Editor]
DistanceSpacing: 1.2
BeatDivisor: 4
GridSize: 4

[Metadata]
Title:Sympathy (TV Size)
TitleUnicode:Sympathy (TV Size)
Artist:Larval Stage Planning
ArtistUnicode:Larval Stage Planning
Creator:toloveruu
Version:Insane
Source:Highschool DxD New
Tags:ハイスクールD×D NEW opening op c.g mix cpls seraphin ts8zs
BeatmapID:274751
BeatmapSetID:104403

[Difficulty]
HPDrainRate:7
CircleSize:4
OverallDifficulty:7
ApproachRate:9
SliderMultiplier:1.95
SliderTickRate:2

[Events]
//Background and Video events
Video,0,"Sympathy.avi"
0,0,"bg.jpg",0,0
//Break Periods
//Storyboard Layer 0 (Background)
//Storyboard Layer 1 (Fail)
//Storyboard Layer 2 (Pass)
//Storyboard Layer 3 (Foreground)
//Storyboard Sound Samples
//Background Colour Transformations
3,100,163,162,255

[TimingPoints]
-600,352.941176470588,4,2,1,55,1,0
37165,-200,4,2,1,55,0,0
37871,-200,4,2,2,55,0,0
38401,-200,4,2,1,55,0,0
38577,-200,4,2,2,55,0,0
39107,-200,4,2,1,55,0,0
39283,-200,4,2,2,55,0,0
39812,-200,4,2,1,55,0,0
40695,-200,4,2,2,55,0,0
41930,-200,4,2,1,55,0,0
43518,-200,4,2,2,55,0,0
44048,-200,4,2,1,55,0,0
46342,-200,4,2,2,55,0,0
46518,-200,4,2,1,55,0,0
47048,-200,4,2,2,55,0,0
47224,-200,4,2,1,55,0,0
51458,-100,4,2,1,70,0,1
82695,-100,4,2,1,55,0,0
88252,-100,4,2,1,5,0,0

[Colours]
Combo1 : 255,255,128
Combo2 : 128,255,128
Combo3 : 179,102,255
Combo4 : 128,255,255

[HitObjects]
88,52,458,1,0,0:0:0:0:
124,120,635,1,0,0:0:0:0:
184,168,811,2,0,P|272:200|380:172,1,195,0|2,0:0|0:0,0:0:0:0:
112,196,1517,2,0,P|152:292|240:344,1,195,0|2,0:0|0:0,0:0:0:0:
52,148,2223,2,0,P|0:224|8:328,1,195,0|2,0:0|0:0,0:0:0:0:
76,348,2752,2,0,B|80:264|228:312|228:232,1,195
400,348,3282,1,2,0:0:0:0:
364,280,3458,1,0,0:0:0:0:
424,236,3635,6,0,P|448:168|432:40,1,195,0|2,0:0|0:0,0:0:0:0:
344,64,4164,2,0,P|372:144|292:212,1,195
44,116,4694,1,2,0:0:0:0:
64,188,4870,1,0,0:0:0:0:
120,236,5047,2,0,P|184:280|308:304,1,195,0|2,0:0|0:0,0:0:0:0:
428,272,5576,1,0,0:0:0:0:
344,184,5752,2,0,P|244:140|180:48,1,195,0|2,0:0|0:0,0:0:0:0:
64,96,6282,1,0,0:0:0:0:
168,184,6458,6,0,P|268:140|332:48,1,195,0|2,0:0|0:0,0:0:0:0:
116,232,7164,2,0,P|217:271|328:251,1,195,0|2,0:0|0:0,0:0:0:0:
44,216,7870,2,0,P|52:320|124:392,1,195,0|2,0:0|0:0,0:0:0:0:
267,310,8399,2,0,P|180:300|172:208,1,195
232,248,8929,1,2,0:0:0:0:
292,208,9105,1,0,0:0:0:0:
332,148,9282,6,0,P|368:96|376:52,1,97.5,0|0,0:0|0:0,0:0:0:0:
180,148,9635,2,0,P|144:96|136:52,1,97.5,2|0,0:0|0:0,0:0:0:0:
360,140,9988,2,0,P|398:109|422:57,1,97.5
152,140,10341,2,0,P|113:109|89:57,1,97.5,2|0,0:0|0:0,0:0:0:0:
256,328,10694,2,0,B|296:312|232:212|232:212|260:152,1,195,0|2,0:0|0:0,0:0:0:0:
324,196,11223,2,0,P|304:92|208:96,1,195
156,100,11752,5,2,0:0:0:0:
120,116,11841,1,0,0:0:0:0:
96,144,11929,1,0,0:0:0:0:
52,204,12105,2,0,P|84:276|192:332,1,195,0|2,0:0|0:0,0:0:0:0:
182,330,12635,1,0,0:0:0:0:
256,192,12723,12,2,14576,0:0:0:0:
164,52,14929,6,0,P|104:104|96:132,2,97.5,4|0|0,0:0|0:0|0:0,0:0:0:0:
256,24,15458,1,0,0:0:0:0:
348,52,15635,2,0,P|408:104|416:132,2,97.5,0|0|8,0:0|0:0|0:0,0:0:0:0:
256,24,16164,1,0,0:0:0:0:
256,104,16341,2,0,B|296:120|232:220|232:220|260:280,1,195,0|8,0:0|0:0,0:0:0:0:
184,300,16870,2,0,P|268:364|332:316,1,195
352,236,17399,1,8,0:0:0:0:
384,212,17488,1,0,0:0:0:0:
344,200,17576,1,0,0:0:0:0:
152,248,17752,5,0,0:0:0:0:
200,88,17929,1,0,0:0:0:0:
360,136,18105,1,8,0:0:0:0:
312,296,18282,1,0,0:0:0:0:
137,188,18458,5,0,0:0:0:0:
259,73,18635,1,0,0:0:0:0:
374,195,18811,1,8,0:0:0:0:
252,310,18988,1,0,0:0:0:0:
155,129,19164,5,0,0:0:0:0:
318,91,19341,1,0,0:0:0:0:
356,254,19517,1,8,0:0:0:0:
193,292,19694,2,0,P|88:264|40:188,1,195
20,128,20223,2,0,P|60:92|84:48,1,97.5,8|0,0:0|0:0,0:0:0:0:
152,36,20576,6,0,L|248:76,1,97.5
136,108,20929,2,0,L|212:178,1,97.5,8|0,0:0|0:0,0:0:0:0:
112,184,21282,2,0,L|159:276,1,97.5,0|0,0:0|0:0,0:0:0:0:
60,240,21635,2,0,L|73:343,2,97.5,8|0|0,0:0|0:0|0:0,0:0:0:0:
40,168,22164,1,0,0:0:0:0:
88,116,22341,2,0,P|144:104|200:112,1,97.5,8|0,0:0|0:0,0:0:0:0:
252,132,22694,2,0,P|316:176|332:216,1,97.5
348,280,23047,2,0,P|392:240|432:228,1,97.5,8|0,0:0|0:0,0:0:0:0:
452,160,23399,6,0,P|388:88|292:52,1,195,0|8,0:0|0:0,0:0:0:0:
228,52,23929,2,0,P|144:104|124:208,1,195
188,227,24458,5,8,0:0:0:0:
321,230,24635,1,0,0:0:0:0:
256,116,24811,1,0,0:0:0:0:
155,245,24988,5,0,0:0:0:0:
354,249,25164,1,8,0:0:0:0:
256,77,25341,1,0,0:0:0:0:
117,265,25517,5,0,0:0:0:0:
391,270,25694,1,0,0:0:0:0:
256,35,25870,1,8,0:0:0:0:
256,192,26047,1,0,0:0:0:0:
256,192,26223,6,0,P|196:152|68:140,1,195,4|8,0:0|0:0,0:0:0:0:
20,184,26752,1,0,0:0:0:0:
88,212,26929,2,0,P|144:184|220:72,1,195,0|8,0:0|0:0,0:0:0:0:
288,48,27458,1,0,0:0:0:0:
360,76,27635,6,0,L|448:128,1,97.5
360,76,27988,2,0,L|385:174,1,97.5,8|0,0:0|0:0,0:0:0:0:
360,76,28341,2,0,L|308:164,1,97.5
360,76,28694,2,0,L|261:101,1,97.5,8|0,0:0|0:0,0:0:0:0:
360,76,29047,6,0,P|272:28|172:48,1,195,0|8,0:0|0:0,0:0:0:0:
140,104,29576,1,0,0:0:0:0:
212,108,29752,2,0,P|236:164|192:288,1,195,0|8,0:0|0:0,0:0:0:0:
140,240,30282,2,0,P|156:348|228:348,1,195
292,324,30811,2,0,L|396:272,1,97.5,8|0,0:0|0:0,0:0:0:0:
280,248,31164,2,0,L|359:163,1,97.5
228,196,31517,2,0,L|274:89,1,97.5,8|0,0:0|0:0,0:0:0:0:
220,48,31870,6,0,L|128:104,1,97.5
232,124,32223,2,0,L|152:208,1,97.5,8|0,0:0|0:0,0:0:0:0:
284,176,32576,2,0,L|237:282,1,97.5
348,216,32929,2,0,L|332:332,1,97.5,8|0,0:0|0:0,0:0:0:0:
256,340,33282,5,0,0:0:0:0:
184,144,33458,1,0,0:0:0:0:
360,264,33635,1,8,0:0:0:0:
152,264,33811,1,0,0:0:0:0:
336,144,33988,1,0,0:0:0:0:
256,340,34164,5,0,0:0:0:0:
184,144,34341,1,8,0:0:0:0:
360,264,34517,1,0,0:0:0:0:
152,264,34694,2,0,P|68:184|72:92,1,195,0|8,0:0|0:0,0:0:0:0:
184,144,35223,2,0,P|232:76|276:152,1,195
348,68,35752,5,8,0:0:0:0:
460,24,35929,1,0,0:0:0:0:
391,118,36105,5,0,0:0:0:0:
511,125,36282,1,0,0:0:0:0:
410,182,36458,5,8,0:0:0:0:
512,240,36635,1,0,0:0:0:0:
399,248,36811,5,0,0:0:0:0:
471,345,36988,1,0,0:0:0:0:
360,304,37164,5,8,0:0:0:0:
340,340,37252,1,0,0:0:0:0:
308,360,37341,1,0,0:0:0:0:
268,364,37429,1,0,0:0:0:0:
232,356,37517,2,0,P|176:328|128:248,1,146.25,4|0,0:0|0:0,0:0:0:0:
28,304,38223,2,0,P|24:232|64:173,1,146.25
65,173,38929,2,0,P|113:137|131:56,1,146.25
131,56,39635,2,0,P|146:50|226:46,1,97.5,0|2,0:0|0:0,0:0:0:0:
306,65,40341,6,0,P|308:140|368:192,1,146.25
392,100,41047,1,0,0:0:0:0:
448,180,41223,1,0,0:0:0:0:
396,264,41399,1,2,0:0:0:0:
300,240,41576,1,0,0:0:0:0:
288,144,41752,2,0,P|232:104|228:64,1,97.5,0|2,0:0|0:0,0:0:0:0:
128,80,42282,1,0,0:0:0:0:
152,176,42458,2,0,P|184:236|184:280,1,97.5,0|2,0:0|0:0,0:0:0:0:
148,340,42988,1,0,0:0:0:0:
88,280,43164,6,0,P|144:252|228:252,1,146.25
180,160,43870,2,0,P|256:188|284:212,1,97.5,0|2,0:0|0:0,0:0:0:0:
316,252,44399,1,0,0:0:0:0:
372,300,44576,2,0,L|328:336,1,48.75
264,352,44929,2,0,L|208:336,1,48.75,2|0,0:0|0:0,0:0:0:0:
176,280,45282,2,0,L|168:224,1,48.75
180,160,45635,2,0,L|204:108,1,48.75,2|0,0:0|0:0,0:0:0:0:
256,72,45988,6,0,P|352:84|432:140,2,195
96,192,47929,1,2,0:0:0:0:
416,192,48458,1,2,0:0:0:0:
256,252,48811,2,0,B|276:288|232:324|264:352,1,97.5,0|2,0:0|0:0,0:0:0:0:
258,346,49341,1,0,0:0:0:0:
256,192,49429,12,2,51282,0:0:0:0:
324,60,51458,6,0,P|320:128|384:240,1,195,4|0,0:0|0:0,0:0:0:0:
444,276,51988,2,0,P|424:328|372:352,1,97.5,8|0,0:0|0:0,0:0:0:0:
320,332,52341,1,0,0:0:0:0:
236,256,52517,1,0,0:0:0:0:
176,160,52694,1,8,0:0:0:0:
196,96,52870,6,0,P|140:104|160:224,1,195
212,240,53399,2,0,P|272:232|304:208,1,97.5,8|0,0:0|0:0,0:0:0:0:
360,124,53752,1,8,0:0:0:0:
153,118,54017,1,8,0:0:0:0:
256,300,54282,1,8,0:0:0:0:
256,192,54458,6,0,P|188:232|64:228,1,195,4|8,0:0|0:0,0:0:0:0:
76,164,54988,2,0,P|8:216|53:296,1,195
180,312,55517,1,8,0:0:0:0:
332,312,55694,1,0,0:0:0:0:
457,296,55870,2,0,P|504:216|436:164,1,195,0|8,0:0|0:0,0:0:0:0:
380,240,56399,1,0,0:0:0:0:
332,312,56576,2,0,P|264:260|310:179,1,195,0|8,0:0|0:0,0:0:0:0:
276,116,57105,1,0,0:0:0:0:
204,128,57282,6,0,B|104:168|180:280|100:288,1,195,0|8,0:0|0:0,0:0:0:0:
184,324,57811,1,0,0:0:0:0:
256,308,57988,2,0,P|296:280|352:280,1,97.5
416,292,58341,1,8,0:0:0:0:
440,248,58429,1,0,0:0:0:0:
440,200,58517,1,0,0:0:0:0:
400,136,58694,6,0,P|336:92|216:72,1,195,0|8,0:0|0:0,0:0:0:0:
112,104,59223,1,0,0:0:0:0:
208,160,59399,2,0,P|304:168|360:248,1,195,0|8,0:0|0:0,0:0:0:0:
176,360,59929,1,0,0:0:0:0:
196,268,60105,2,0,P|268:232|260:316,1,195,0|8,0:0|0:0,0:0:0:0:
400,104,60635,1,0,0:0:0:0:
289,71,60811,2,0,P|176:92|112:136,1,195,0|8,0:0|0:0,0:0:0:0:
64,188,61341,1,0,0:0:0:0:
80,256,61517,5,0,0:0:0:0:
160,360,61694,1,0,0:0:0:0:
136,208,61870,5,8,0:0:0:0:
246,278,62047,1,0,0:0:0:0:
116,136,62223,5,0,0:0:0:0:
243,164,62399,1,0,0:0:0:0:
76,76,62576,5,8,0:0:0:0:
164,60,62752,2,0,P|232:56|376:88,1,195,4|0,0:0|0:0,0:0:0:0:
428,16,63282,2,0,P|452:76|444:124,1,97.5,8|0,0:0|0:0,0:0:0:0:
396,196,63635,1,0,0:0:0:0:
360,216,63723,1,0,0:0:0:0:
316,228,63811,1,0,0:0:0:0:
244,216,63988,5,8,0:0:0:0:
284,304,64164,2,0,P|176:336|92:272,1,195
32,328,64694,2,0,P|20:280|40:232,1,97.5,8|0,0:0|0:0,0:0:0:0:
176,236,65047,1,8,0:0:0:0:
334,239,65311,1,8,0:0:0:0:
256,100,65576,1,8,0:0:0:0:
256,192,65752,6,0,P|184:156|208:24,1,195,4|8,0:0|0:0,0:0:0:0:
69,118,66282,2,0,B|141:166|193:86|273:102,1,195,0|0,0:0|0:0,0:0:0:0:
328,104,66811,1,8,0:0:0:0:
372,104,66899,1,0,0:0:0:0:
408,136,66988,1,0,0:0:0:0:
420,208,67164,6,0,P|416:272|316:348,1,195,0|8,0:0|0:0,0:0:0:0:
248,352,67694,2,0,L|148:292,1,97.5
124,244,68047,1,0,0:0:0:0:
144,140,68223,1,8,0:0:0:0:
224,60,68399,1,0,0:0:0:0:
336,32,68576,6,0,P|384:72|416:208,1,195,0|8,0:0|0:0,0:0:0:0:
496,196,69105,2,0,P|472:280|376:344,1,195
308,348,69635,1,8,0:0:0:0:
264,332,69723,1,0,0:0:0:0:
232,296,69811,1,0,0:0:0:0:
280,240,69988,6,0,L|344:164,1,97.5
224,196,70341,2,0,L|160:120,1,97.5,8|0,0:0|0:0,0:0:0:0:
272,144,70694,2,0,L|340:60,1,97.5
228,92,71047,2,0,L|164:12,1,97.5,8|0,0:0|0:0,0:0:0:0:
100,40,71399,6,0,P|80:116|144:232,1,195,4|8,0:0|0:0,0:0:0:0:
16,240,71929,2,0,P|64:312|176:312,1,195
228,255,72458,1,8,0:0:0:0:
267,228,72547,1,0,0:0:0:0:
315,224,72635,1,0,0:0:0:0:
404,240,72811,6,0,P|432:180|380:56,1,195,0|8,0:0|0:0,0:0:0:0:
324,36,73341,1,0,0:0:0:0:
268,84,73517,2,0,P|220:120|80:148,1,195,0|8,0:0|0:0,0:0:0:0:
24,184,74047,1,0,0:0:0:0:
83,228,74223,2,0,B|135:260|179:236|179:236|199:272|255:285,1,195,0|8,0:0|0:0,0:0:0:0:
428,228,74752,2,0,B|376:260|332:236|332:236|312:272|255:285,1,195
256,184,75282,1,8,0:0:0:0:
244,144,75370,1,0,0:0:0:0:
212,112,75458,1,0,0:0:0:0:
148,80,75635,5,0,0:0:0:0:
24,36,75811,1,0,0:0:0:0:
152,152,75988,5,8,0:0:0:0:
16,144,76164,1,0,0:0:0:0:
188,212,76341,5,0,0:0:0:0:
61,262,76517,1,0,0:0:0:0:
248,248,76694,5,8,0:0:0:0:
154,346,76870,1,0,0:0:0:0:
320,228,77047,6,0,P|376:180|320:92,1,195,0|8,0:0|0:0,0:0:0:0:
308,160,77576,2,0,L|512:160,1,195
480,240,78105,1,8,0:0:0:0:
440,272,78194,1,0,0:0:0:0:
392,288,78282,1,0,0:0:0:0:
308,300,78458,6,0,P|264:256|256:112,1,195,0|8,0:0|0:0,0:0:0:0:
168,256,78988,2,0,P|156:160|196:64,1,195
296,68,79517,1,8,0:0:0:0:
324,108,79605,1,0,0:0:0:0:
328,156,79694,1,0,0:0:0:0:
424,192,79870,5,0,0:0:0:0:
212,120,80047,1,0,0:0:0:0:
332,296,80223,1,8,0:0:0:0:
332,88,80399,1,0,0:0:0:0:
212,264,80576,2,0,P|168:284|132:328,2,97.5,0|0|8,0:0|0:0|0:0,0:0:0:0:
304,192,81105,1,0,0:0:0:0:
256,192,81194,12,4,82694,0:0:0:0:
256,192,82782,12,0,88341,0:0:0:0:
