osu file format v12

[General]
AudioFilename: Sympathy.mp3
AudioLeadIn: 1500
PreviewTime: 51371
Countdown: 0
SampleSet: Soft
StackLeniency: 0.7
Mode: 0
LetterboxInBreaks: 0
WidescreenStoryboard: 0

[Editor]
DistanceSpacing: 0.5
BeatDivisor: 4
GridSize: 4

[Metadata]
Title:Sympathy (TV Size)
TitleUnicode:Sympathy (TV Size)
Artist:Larval Stage Planning
ArtistUnicode:Larval Stage Planning
Creator:toloveruu
Version:Easy
Source:Highschool DxD New
Tags:ハイスクールD×D NEW opening op c.g mix cpls seraphin ts8zs
BeatmapID:275136
BeatmapSetID:104403

[Difficulty]
HPDrainRate:2
CircleSize:3
OverallDifficulty:2
ApproachRate:3
SliderMultiplier:1
SliderTickRate:2

[Events]
//Background and Video events
Video,0,"Sympathy.avi"
0,0,"bg.jpg",0,0
//Break Periods
//Storyboard Layer 0 (Background)
//Storyboard Layer 1 (Fail)
//Storyboard Layer 2 (Pass)
//Storyboard Layer 3 (Foreground)
//Storyboard Sound Samples
//Background Colour Transformations
3,100,163,162,255

[TimingPoints]
-600,352.941176470588,4,2,1,55,1,0
51458,-100,4,2,1,70,0,1
54723,-100,4,2,3,70,0,1
54899,-100,4,2,1,70,0,1
56135,-100,4,2,3,70,0,1
56311,-100,4,2,1,70,0,1
56841,-100,4,2,3,70,0,1
57017,-100,4,2,1,70,0,1
82695,-100,4,2,1,55,0,0
88342,-100,4,2,1,5,0,0

[Colours]
Combo1 : 255,255,128
Combo2 : 128,255,128
Combo3 : 179,102,255
Combo4 : 128,255,255

[HitObjects]
100,64,811,2,0,P|212:100|260:176,1,200,0|2,0:0|0:0,0:0:0:0:
256,272,2223,2,0,P|224:304|120:360,2,150
264,200,3635,2,0,P|292:172|432:228,1,200,0|2,0:0|0:0,0:0:0:0:
428,316,5047,2,0,P|400:344|260:288,1,200,0|2,0:0|0:0,0:0:0:0:
236,208,6458,6,0,P|208:180|68:236,1,200,0|2,0:0|0:0,0:0:0:0:
84,316,7870,2,0,P|112:344|252:288,1,200,0|2,0:0|0:0,0:0:0:0:
248,204,9282,2,0,B|216:240|156:216|156:216|92:240|60:208,1,200,0|2,0:0|0:0,0:0:0:0:
144,124,10694,2,0,L|156:284,2,150
224,76,12105,2,0,P|288:28|412:36,1,200
256,192,12899,12,4,14929,0:0:0:0:
88,164,15635,2,0,P|92:216|68:272,1,100,0|8,0:0|0:0,0:0:0:0:
124,320,16341,2,0,P|168:312|288:320,2,150,0|0|8,0:0|0:0|0:0,0:0:0:0:
84,256,17752,6,0,P|108:216|164:184,1,100,0|8,0:0|0:0,0:0:0:0:
228,184,18458,2,0,P|264:164|300:104,1,100,0|8,0:0|0:0,0:0:0:0:
328,48,19164,2,0,P|384:64|452:140,2,150,0|0|8,0:0|0:0|0:0,0:0:0:0:
252,48,20576,6,0,P|200:76|172:124,1,100,0|8,0:0|0:0,0:0:0:0:
144,180,21282,2,0,P|136:220|164:288,1,100,0|8,0:0|0:0,0:0:0:0:
220,316,21988,2,0,P|272:336|336:328,1,100,0|8,0:0|0:0,0:0:0:0:
384,300,22694,2,0,P|396:268|380:188,1,100,0|8,0:0|0:0,0:0:0:0:
340,140,23399,6,0,P|288:128|176:136,2,150,0|0|8,0:0|0:0|0:0,0:0:0:0:
420,104,24811,2,0,P|360:56|280:32,2,150,0|0|8,0:0|0:0|0:0,0:0:0:0:
432,180,26223,6,0,P|444:236|408:276,1,100,0|8,0:0|0:0,0:0:0:0:
348,296,26929,2,0,P|300:284|244:252,1,100,0|8,0:0|0:0,0:0:0:0:
192,212,27635,2,0,P|128:236|76:316,2,150,0|0|8,0:0|0:0|0:0,0:0:0:0:
264,184,29047,6,0,P|304:184|348:128,1,100,0|8,0:0|0:0,0:0:0:0:
292,88,29752,2,0,P|252:88|208:144,1,100,0|8,0:0|0:0,0:0:0:0:
264,184,30458,2,0,P|324:204|376:292,2,150,0|0|8,0:0|0:0|0:0,0:0:0:0:
192,208,31870,6,0,P|156:172|144:112,1,100,0|8,0:0|0:0,0:0:0:0:
208,72,32576,2,0,L|296:140,1,100,0|8,0:0|0:0,0:0:0:0:
340,188,33282,2,0,P|392:240|400:280,1,100,0|8,0:0|0:0,0:0:0:0:
340,312,33988,2,0,P|304:276|248:256,1,100,0|8,0:0|0:0,0:0:0:0:
184,252,34694,6,0,P|120:260|52:328,2,150,0|0|8,0:0|0:0|0:0,0:0:0:0:
224,192,36105,2,0,P|180:148|80:120,2,150,0|0|8,0:0|0:0|0:0,0:0:0:0:
272,248,37517,6,0,P|364:268|412:188,1,200,4|8,0:0|0:0,0:0:0:0:
356,60,38929,2,0,P|264:28|196:24,2,150
400,116,40341,2,0,P|341:230|292:208,1,200,0|8,0:0|0:0,0:0:0:0:
192,136,41752,2,0,P|154:123|95:237,1,200,0|8,0:0|0:0,0:0:0:0:
232,264,43164,6,0,L|72:112,1,200,0|8,0:0|0:0,0:0:0:0:
220,80,44576,2,0,P|268:108|360:108,2,150
276,40,45988,2,0,B|324:-20|416:92|464:24,1,200,0|8,0:0|0:0,0:0:0:0:
476,168,47399,2,0,P|500:252|476:328,2,150
420,124,48811,2,0,P|348:108|240:164,1,200,0|8,0:0|0:0,0:0:0:0:
256,192,49870,12,2,50929,0:0:0:0:
44,232,51458,6,0,P|108:240|192:184,1,150,4|8,0:0|0:0,0:0:0:0:
228,140,52341,2,0,P|280:120|336:144,1,100,0|8,0:0|0:0,0:0:0:0:
377,184,53047,2,0,P|361:256|344:272,1,100,0|8,0:0|0:0,0:0:0:0:
272,304,53752,2,8,P|208:272|196:256,2,75,8|8|8,0:0|0:0|0:0,0:0:0:0:
344,272,54458,6,0,P|400:196|328:116,1,200,4|0,0:0|0:0,0:0:0:0:
268,120,55517,1,8,0:0:0:0:
189,120,55870,6,0,P|136:196|192:272,2,200,0|0|0,0:0|0:0|0:0,0:0:0:0:
268,196,57988,5,8,0:0:0:0:
268,72,58694,2,0,B|328:100|396:80|396:80|360:164,1,200,0|8,0:0|0:0,0:0:0:0:
268,320,60105,2,0,B|208:292|140:312|140:312|176:228,1,200,0|8,0:0|0:0,0:0:0:0:
256,192,60899,12,0,62223,0:0:0:0:
204,296,62752,6,0,P|220:244|184:140,1,150,4|8,0:0|0:0,0:0:0:0:
132,112,63635,2,0,P|156:72|220:56,1,100,0|8,0:0|0:0,0:0:0:0:
268,96,64341,2,0,P|300:124|353:142,1,100,0|8,0:0|0:0,0:0:0:0:
428,164,65047,2,0,P|452:228|452:256,2,75,8|8|8,0:0|0:0|0:0,0:0:0:0:
354,143,65752,6,0,P|326:187|320:236,1,100,0|8,0:0|0:0,0:0:0:0:
360,300,66458,2,0,P|312:320|252:312,1,100,0|8,0:0|0:0,0:0:0:0:
216,256,67164,2,0,P|240:184|236:152,2,100,0|8|0,0:0|0:0|0:0,0:0:0:0:
144,280,68223,1,8,0:0:0:0:
200,332,68576,6,0,P|252:340|312:332,1,100,4|8,0:0|0:0,0:0:0:0:
372,312,69282,2,0,P|417:291|455:259,1,100,0|8,0:0|0:0,0:0:0:0:
440,184,69988,6,0,L|360:120,1,100,0|8,0:0|0:0,0:0:0:0:
304,72,70694,2,0,P|252:64|192:72,1,100,0|8,0:0|0:0,0:0:0:0:
136,104,71399,6,0,P|104:200|172:276,1,200,4|8,0:0|0:0,0:0:0:0:
248,176,72811,2,0,P|296:204|344:288,2,150
208,112,74223,6,0,B|136:112|136:240|48:240,1,200,4|8,0:0|0:0,0:0:0:0:
176,316,75635,2,0,P|262:333|332:320,2,150
140,248,77047,6,0,P|72:200|36:92,1,200,0|8,0:0|0:0,0:0:0:0:
144,36,78458,2,0,P|144:128|240:168,1,200,0|8,0:0|0:0,0:0:0:0:
220,80,79870,2,0,P|308:121|308:213,2,200,0|8|0,0:0|0:0|0:0,0:0:0:0:
256,192,81635,12,4,82694,0:0:0:0:
256,192,82782,12,0,88341,0:0:0:0:
