osu file format v13

[General]
AudioFilename: 23 Sympathy (TV Size).mp3
AudioLeadIn: 0
PreviewTime: 51562
Countdown: 0
SampleSet: Soft
StackLeniency: 0.7
Mode: 0
LetterboxInBreaks: 0
WidescreenStoryboard: 0

[Editor]
Bookmarks: 54651,68239
DistanceSpacing: 1.4
BeatDivisor: 4
GridSize: 4
TimelineZoom: 1

[Metadata]
Title:Sympathy (TV Size)
TitleUnicode:Sympathy (TV Size)
Artist:Larval Stage Planning
ArtistUnicode:Larval Stage Planning
Creator:Kiyura
Version:Insane
Source:Highschool DxD New
Tags:opening op 1 2 Rakuen leonardlucky
BeatmapID:312344
BeatmapSetID:122022

[Difficulty]
HPDrainRate:7
CircleSize:4
OverallDifficulty:9
ApproachRate:9
SliderMultiplier:1.8
SliderTickRate:2

[Events]
//Background and Video events
0,0,"highschool-DXD-season2-mad4pirates.jpg",0,0
Video,0,"DxDOP.avi"
//Break Periods
//Storyboard Layer 0 (Background)
//Storyboard Layer 1 (Fail)
//Storyboard Layer 2 (Pass)
//Storyboard Layer 3 (Foreground)
//Storyboard Sound Samples
//Background Colour Transformations
3,100,163,162,255

[TimingPoints]
-443,352.941176470588,4,2,1,75,1,0
262,-111.111111111111,4,2,1,75,0,0
968,-133.333333333333,4,2,1,75,0,0
10851,-111.111111111111,4,2,1,75,0,0
15086,-100,4,2,2,75,0,0
32027,-100,4,2,2,75,0,0
37674,-200,4,2,2,75,0,0
51615,-100,4,2,2,75,0,1
58321,-100,4,2,2,75,0,1
59556,-100,4,2,2,75,0,1
62909,-100,4,2,2,75,0,1
81262,-100,4,2,2,75,0,0
82851,-100,4,2,1,5,0,0

[Colours]
Combo1 : 0,19,255
Combo2 : 255,128,128
Combo3 : 255,210,55
Combo4 : 0,128,192

[HitObjects]
172,156,615,6,0,L|260:144,1,80.9999975280763
360,160,968,2,0,P|372:232|336:300,1,135.000005149842,2|0,0:0|0:0,0:0:0:0:
176,324,1674,2,0,P|120:268|88:212,1,135.000005149842
132,72,2380,2,0,P|200:60|264:72,1,135.000005149842,2|0,0:0|0:0,0:0:0:0:
300,156,2909,2,0,L|376:156,1,67.5000025749208
196,240,3439,1,0,0:0:0:0:
320,76,3792,1,2,0:0:0:0:
324,256,4321,6,0,L|364:188,1,67.5000025749208
416,80,4851,2,0,P|288:80|272:88,1,135.000005149842,0|2,0:0|0:0,0:0:0:0:
316,248,5556,2,0,P|260:240|192:184,1,135.000005149842
144,312,6262,1,0,0:0:0:0:
268,60,6615,1,2,0:0:0:0:
376,344,7321,6,0,L|280:332,1,67.5000025749208
208,304,7674,2,0,P|212:240|248:176,1,135.000005149842,0|2,0:0|0:0,0:0:0:0:
324,272,8380,2,0,P|248:272|188:252,1,135.000005149841
80,328,9086,1,0,0:0:0:0:
260,72,9439,5,2,0:0:0:0:
300,300,9792,1,0,0:0:0:0:
172,216,10145,2,0,L|240:204,1,67.5000025749208
380,188,10498,1,0,0:0:0:0:
224,328,10851,6,0,P|172:288|144:184,1,161.999995056152,2|0,0:0|0:0,0:0:0:0:
196,96,11380,1,0,0:0:0:0:
352,124,11556,2,0,L|260:156,1,80.9999975280762
264,248,11909,1,0,0:0:0:0:
136,200,12086,1,0,0:0:0:0:
272,152,12262,2,0,P|344:208|360:280,1,161.999995056152,2|0,0:0|0:0,0:0:0:0:
216,336,12792,1,0,0:0:0:0:
260,192,12968,1,2,0:0:0:0:
256,192,13056,12,4,15086,0:0:0:0:
248,228,15439,6,0,P|336:236|360:232,1,90,8|0,0:0|0:0,0:0:0:0:
424,144,15792,1,0,0:0:0:0:
380,312,15968,1,0,0:0:0:0:
248,228,16145,2,0,L|180:296,1,90,8|0,0:0|0:0,0:0:0:0:
156,168,16498,1,0,0:0:0:0:
88,332,16674,1,0,0:0:0:0:
260,316,16851,1,8,0:0:0:0:
332,156,17027,1,0,0:0:0:0:
408,256,17204,2,0,P|348:248|308:248,1,90
176,256,17556,1,8,0:0:0:0:
68,168,17909,6,0,P|104:108|216:72,1,180,0|8,0:0|0:0,0:0:0:0:
356,84,18439,1,0,0:0:0:0:
356,84,18615,1,0,0:0:0:0:
440,176,18792,1,0,0:0:0:0:
440,176,18968,1,8,0:0:0:0:
384,296,19145,2,0,L|272:312,1,90
344,208,19498,1,0,0:0:0:0:
248,348,19674,1,8,0:0:0:0:
132,204,19851,2,0,P|200:196|244:208,1,90
348,48,20204,2,0,P|320:100|312:136,1,90,0|8,0:0|0:0,0:0:0:0:
144,292,20733,5,0,0:0:0:0:
336,220,20909,1,0,0:0:0:0:
296,340,21086,2,0,L|224:272,1,90,8|0,0:0|0:0,0:0:0:0:
188,124,21439,1,0,0:0:0:0:
352,116,21615,2,0,P|308:176|276:192,1,90,0|8,0:0|0:0,0:0:0:0:
144,236,21968,2,0,L|244:236,1,90
376,216,22321,5,0,0:0:0:0:
400,68,22498,1,8,0:0:0:0:
192,76,22674,2,0,P|256:76|304:92,1,90
368,296,23027,2,0,P|312:312|260:304,1,90,0|8,0:0|0:0,0:0:0:0:
136,248,23380,1,0,0:0:0:0:
84,108,23556,2,0,P|144:96|268:112,1,180,0|8,0:0|0:0,0:0:0:0:
220,268,24086,2,0,L|284:204,1,90
352,72,24439,5,0,0:0:0:0:
440,216,24615,1,8,0:0:0:0:
260,288,24792,1,0,0:0:0:0:
176,112,24968,1,0,0:0:0:0:
352,72,25145,1,0,0:0:0:0:
364,336,25321,1,8,0:0:0:0:
252,152,25498,1,0,0:0:0:0:
440,216,25674,1,0,0:0:0:0:
200,288,25851,5,8,0:0:0:0:
448,304,26027,1,8,0:0:0:0:
256,200,26204,1,8,0:0:0:0:
148,344,26380,6,0,P|84:316|64:204,1,180,4|8,0:0|0:0,0:0:0:0:
192,96,26909,2,0,L|84:120,1,90
36,32,27262,1,0,0:0:0:0:
80,212,27439,1,8,0:0:0:0:
232,288,27615,2,0,L|324:296,1,90
296,148,27968,2,0,L|368:216,1,90,0|8,0:0|0:0,0:0:0:0:
456,104,28321,2,0,L|448:216,1,90
296,148,28674,1,0,0:0:0:0:
320,296,28851,1,8,0:0:0:0:
64,212,29204,6,0,L|128:140,1,90
236,72,29556,1,8,0:0:0:0:
376,104,29733,1,0,0:0:0:0:
376,104,29909,1,0,0:0:0:0:
448,212,30086,1,0,0:0:0:0:
448,212,30262,1,8,0:0:0:0:
336,332,30439,2,0,L|232:292,1,90
104,328,30792,1,0,0:0:0:0:
288,240,30968,1,8,0:0:0:0:
120,168,31145,2,0,L|216:176,1,90
136,280,31498,1,0,0:0:0:0:
260,112,31674,1,8,0:0:0:0:
396,316,32027,6,0,P|304:324|216:284,1,180,0|8,0:0|0:0,0:0:0:0:
260,136,32556,1,0,0:0:0:0:
72,208,32733,2,0,L|192:208,1,90
84,320,33086,1,8,0:0:0:0:
224,288,33262,1,0,0:0:0:0:
72,208,33439,1,0,0:0:0:0:
164,344,33615,1,0,0:0:0:0:
164,344,33792,2,0,L|276:344,1,90,8|0,0:0|0:0,0:0:0:0:
400,232,34145,1,0,0:0:0:0:
400,232,34321,2,0,L|296:236,1,90,0|8,0:0|0:0,0:0:0:0:
224,128,34674,5,0,0:0:0:0:
208,264,34851,2,0,P|176:164|240:128,1,180,0|8,0:0|0:0,0:0:0:0:
396,64,35380,1,0,0:0:0:0:
332,196,35556,2,0,L|224:172,1,90
144,72,35909,1,8,0:0:0:0:
144,72,36086,1,0,0:0:0:0:
276,200,36262,1,8,0:0:0:0:
148,304,36439,1,0,0:0:0:0:
24,188,36615,1,8,0:0:0:0:
248,100,36792,1,0,0:0:0:0:
240,296,36968,1,8,0:0:0:0:
24,188,37145,1,0,0:0:0:0:
80,344,37321,2,0,L|136:260,1,90,0|8,0:0|0:0,0:0:0:0:
188,184,37674,6,0,P|240:160|360:184,1,180,6|2,0:0|0:0,0:0:0:0:
396,248,38556,1,0,0:0:0:0:
468,196,38733,2,0,P|484:124|476:96,1,90,0|2,0:0|0:0,0:0:0:0:
372,48,39262,1,8,0:0:0:0:
372,48,39439,2,0,L|372:112,1,45
268,188,39792,1,8,0:0:0:0:
268,188,39968,2,0,L|268:132,1,45
176,60,40321,1,0,0:0:0:0:
176,60,40498,6,0,P|120:120|136:220,1,180,6|2,0:0|0:0,0:0:0:0:
60,264,41380,1,0,0:0:0:0:
96,336,41556,2,0,P|144:316|196:328,1,90,0|2,0:0|0:0,0:0:0:0:
304,304,42086,1,8,0:0:0:0:
304,304,42262,2,0,L|256:268,1,45
308,168,42615,1,8,0:0:0:0:
308,168,42792,2,0,L|356:208,1,45
456,168,43145,1,0,0:0:0:0:
456,168,43321,6,0,P|452:100|348:56,1,180,6|2,0:0|0:0,0:0:0:0:
296,108,44204,1,0,0:0:0:0:
248,184,44380,2,0,P|196:200|144:188,1,90,0|2,0:0|0:0,0:0:0:0:
56,272,44909,1,8,0:0:0:0:
56,272,45086,2,0,L|116:284,1,45,0|0,0:0|0:0,0:0:0:0:
264,260,45439,1,8,0:0:0:0:
264,260,45615,2,0,L|212:252,1,45
100,176,45968,1,0,0:0:0:0:
100,176,46145,6,0,P|112:108|216:76,1,180,6|2,0:0|0:0,0:0:0:0:
256,176,47027,2,0,L|296:132,1,45
428,68,47380,1,0,0:0:0:0:
428,68,47556,2,0,P|448:144|384:220,1,180,6|2,0:0|0:0,0:0:0:0:
272,272,48439,1,0,0:0:0:0:
272,272,48615,2,0,L|324:236,1,45
356,132,48968,2,0,P|284:160|256:156,1,90,6|0,0:0|0:0,0:0:0:0:
160,220,49498,1,0,0:0:0:0:
256,48,49674,1,2,0:0:0:0:
256,192,49851,12,4,51616,0:0:0:0:
132,116,51792,5,0,0:0:0:0:
128,244,51968,2,0,L|200:168,1,90,0|8,0:0|0:0,0:0:0:0:
168,336,52321,1,0,0:0:0:0:
328,328,52498,1,0,0:0:0:0:
420,200,52674,1,0,0:0:0:0:
352,76,52851,1,8,0:0:0:0:
280,180,53027,6,0,P|216:192|104:160,1,180
216,72,53556,1,8,0:0:0:0:
80,284,53733,1,0,0:0:0:0:
288,284,53909,2,0,L|188:300,1,90
60,136,54262,2,0,L|140:196,1,90,8|0,0:0|0:0,0:0:0:0:
200,296,54615,1,0,0:0:0:0:
304,172,54792,1,0,0:0:0:0:
304,172,54968,2,0,L|224:116,1,90,8|0,0:0|0:0,0:0:0:0:
52,188,55321,1,0,0:0:0:0:
64,336,55498,6,0,L|148:252,1,90,0|8,0:0|0:0,0:0:0:0:
312,340,55851,2,0,L|244:268,1,90
180,200,56204,1,0,0:0:0:0:
48,56,56380,2,0,L|96:140,1,90,8|0,0:0|0:0,0:0:0:0:
144,28,56732,2,0,L|156:132,1,90
232,28,57086,2,0,L|220:132,1,90,8|0,0:0|0:0,0:0:0:0:
332,56,57439,2,0,L|287:134,1,90
180,200,57792,1,8,0:0:0:0:
304,288,57968,2,0,L|188:288,1,90
376,212,58321,6,0,P|392:164|388:112,1,90,0|8,0:0|0:0,0:0:0:0:
472,88,58674,1,0,0:0:0:0:
316,92,58851,2,0,P|384:52|480:100,1,180,0|8,0:0|0:0,0:0:0:0:
456,216,59380,1,0,0:0:0:0:
328,320,59556,1,0,0:0:0:0:
152,260,59733,2,0,P|200:220|228:172,1,90,0|8,0:0|0:0,0:0:0:0:
328,272,60086,1,0,0:0:0:0:
412,148,60262,2,0,P|376:108|248:96,1,180,0|8,0:0|0:0,0:0:0:0:
208,204,60792,2,0,P|116:216|40:172,1,180
156,100,61321,2,0,L|272:96,1,90,8|0,0:0|0:0,0:0:0:0:
352,172,61674,5,0,0:0:0:0:
352,172,61851,1,8,0:0:0:0:
472,176,62027,1,8,0:0:0:0:
232,172,62204,1,0,0:0:0:0:
472,208,62380,1,8,0:0:0:0:
232,204,62556,1,0,0:0:0:0:
472,240,62733,1,8,0:0:0:0:
232,256,62909,6,0,L|132:256,1,90,4|0,0:0|0:0,0:0:0:0:
64,168,63262,1,0,0:0:0:0:
176,352,63439,2,0,P|236:340|280:308,1,90,8|0,0:0|0:0,0:0:0:0:
392,344,63792,1,0,0:0:0:0:
300,196,63968,1,0,0:0:0:0:
472,288,64145,1,8,0:0:0:0:
312,316,64321,6,0,P|232:336|128:300,1,180
64,168,64851,2,0,L|160:136,1,90,8|0,0:0|0:0,0:0:0:0:
280,96,65204,1,8,0:0:0:0:
76,260,65468,1,8,0:0:0:0:
284,348,65733,1,8,0:0:0:0:
424,264,65909,6,0,P|432:208|424:160,1,90,4|0,0:0|0:0,0:0:0:0:
320,176,66262,1,8,0:0:0:0:
480,64,66439,1,0,0:0:0:0:
264,40,66615,1,0,0:0:0:0:
120,108,66792,6,0,P|112:192|124:216,1,90,0|8,0:0|0:0,0:0:0:0:
204,284,67145,1,0,0:0:0:0:
44,316,67321,1,4,0:0:0:0:
224,132,67498,1,0,0:0:0:0:
408,304,67674,2,0,L|304:312,1,90,8|0,0:0|0:0,0:0:0:0:
92,240,68027,1,0,0:0:0:0:
388,216,68204,1,0,0:0:0:0:
136,92,68380,1,8,0:0:0:0:
288,328,68556,1,0,0:0:0:0:
124,332,68733,6,0,P|80:272|116:164,1,180,4|8,0:0|0:0,0:0:0:0:
232,256,69262,2,0,P|252:196|200:72,1,180
44,56,69792,1,8,0:0:0:0:
128,152,69968,1,0,0:0:0:0:
32,272,70145,2,0,L|128:280,1,90
248,284,70498,1,8,0:0:0:0:
200,128,70674,1,0,0:0:0:0:
324,172,70851,2,0,L|224:204,1,90
112,248,71204,1,8,0:0:0:0:
292,300,71556,6,0,P|348:248|356:116,1,180,4|8,0:0|0:0,0:0:0:0:
472,80,72086,2,0,P|360:56|284:72,1,180
168,120,72615,1,8,0:0:0:0:
112,248,72792,2,0,P|224:220|232:216,1,90
272,136,73145,1,0,0:0:0:0:
336,236,73321,1,8,0:0:0:0:
252,324,73498,2,0,P|168:324|124:304,1,90
112,248,73851,1,0,0:0:0:0:
300,336,74027,1,8,0:0:0:0:
408,56,74380,6,0,P|448:120|456:236,1,180,4|8,0:0|0:0,0:0:0:0:
488,336,74909,2,0,P|416:340|320:296,1,180
208,336,75439,2,0,P|200:248|212:220,1,90,8|0,0:0|0:0,0:0:0:0:
112,180,75792,1,0,0:0:0:0:
292,276,75968,1,0,0:0:0:0:
124,328,76145,1,8,0:0:0:0:
272,164,76321,2,0,L|368:168,1,90
396,248,76674,1,0,0:0:0:0:
284,64,76851,1,8,0:0:0:0:
64,240,77204,6,0,P|152:264|240:232,1,180,4|8,0:0|0:0,0:0:0:0:
168,152,77733,2,0,P|264:128|364:160,1,180
356,268,78262,2,0,L|456:220,1,90,8|0,0:0|0:0,0:0:0:0:
380,344,78615,1,0,0:0:0:0:
208,264,78792,1,0,0:0:0:0:
84,340,78968,1,8,0:0:0:0:
96,200,79145,2,0,B|132:120|132:120|180:120|220:92,1,180
356,116,79674,5,8,0:0:0:0:
76,68,80027,5,8,0:0:0:0:
224,264,80204,1,0,0:0:0:0:
72,328,80380,1,8,0:0:0:0:
224,124,80556,1,0,0:0:0:0:
20,200,80909,5,0,0:0:0:0:
156,80,81086,1,8,0:0:0:0:
160,320,81262,1,0,0:0:0:0:
256,192,81439,12,0,82762,0:0:0:0:
256,192,82851,12,0,85674,0:0:0:0:
