osu file format v14

[General]
AudioFilename: Larval Stage Planning - Stargazer.mp3
AudioLeadIn: 0
PreviewTime: 101811
Countdown: 0
SampleSet: Soft
StackLeniency: 0.7
Mode: 0
LetterboxInBreaks: 1
WidescreenStoryboard: 0

[Editor]
Bookmarks: 216738,271443,276738
DistanceSpacing: 1.2
BeatDivisor: 4
GridSize: 4
TimelineZoom: 1.2

[Metadata]
Title:Stargazer
TitleUnicode:Stargazer
Artist:Larval Stage Planning
ArtistUnicode:Larval Stage Planning
Creator:sodarose
Version:Insane
Source:天体のメソッド
Tags:full sora no method opening noel nonoka yuzuki toyosaki aki natsukawa shiina minase inori loli lolicon yuri Celestial
BeatmapID:572262
BeatmapSetID:248885

[Difficulty]
HPDrainRate:7
CircleSize:4
OverallDifficulty:7
ApproachRate:8
SliderMultiplier:1.8
SliderTickRate:1

[Events]
//Background and Video events
0,0,"BG4.jpg",0,0
//Break Periods
2,126958,132605
2,202820,215988
//Storyboard Layer 0 (Background)
//Storyboard Layer 1 (Fail)
//Storyboard Layer 2 (Pass)
//Storyboard Layer 3 (Foreground)
//Storyboard Sound Samples

[TimingPoints]
1837,441.176470588235,4,2,0,100,1,0
1837,-133.333333333333,4,2,0,50,0,0
31444,441.176470588235,4,2,0,65,1,0
58355,-117.647058823529,4,2,0,65,0,0
72032,-100,4,2,0,65,0,0
82620,-125,4,2,0,65,0,0
84826,-100,4,2,0,65,0,0
100267,-153.846153846153,4,2,0,70,0,0
102032,-80,4,2,0,70,0,1
126738,-100,4,2,0,65,0,0
133245,-100,4,2,0,55,0,0
158502,-125,4,2,0,65,0,0
160046,-100,4,2,0,65,0,0
177914,-80,4,2,0,70,0,1
202179,-133.333333333333,4,2,0,65,0,1
202620,-100,4,2,0,65,0,0
232620,-80,4,2,0,70,0,1
257326,-83.3333333333333,4,2,0,65,0,0

[Colours]
Combo1 : 149,12,207
Combo2 : 45,225,203
Combo3 : 18,124,255
Combo4 : 244,66,92

[HitObjects]
120,56,1837,6,0,L|116:144,1,67.5000025749208,2|0,0:0|0:0,0:0:0:0:
196,172,2278,2,0,L|208:328,1,135.000005149842,0|2,0:0|0:0,0:0:0:0:
300,320,2939,1,0,0:0:0:0:
376,260,3160,2,0,P|400:216|408:176,1,67.5000025749208
424,108,3601,6,0,L|344:96,1,67.5000025749208,2|0,0:0|0:0,0:0:0:0:
296,28,4042,2,0,P|264:40|216:68,1,67.5000025749208
148,92,4484,1,2,0:0:0:0:
132,184,4704,2,0,P|156:280|184:328,1,135.000005149842
272,324,5366,6,0,L|312:256,1,67.5000025749208,2|0,0:0|0:0,0:0:0:0:
392,224,5807,2,0,L|384:140,1,67.5000025749208
408,64,6248,1,2,0:0:0:0:
312,60,6469,2,0,P|228:76|156:80,1,135.000005149842
108,144,7131,6,0,L|120:216,1,67.5000025749208,2|0,0:0|0:0,0:0:0:0:
156,296,7572,1,2,0:0:0:0:
248,316,7792,1,0,0:0:0:0:
296,232,8013,1,2,0:0:0:0:
384,264,8234,1,0,0:0:0:0:
424,176,8454,6,0,P|396:116|328:72,1,135.000005149842,0|2,0:0|0:0,0:0:0:0:
248,88,9116,1,0,0:0:0:0:
184,168,9336,2,0,P|248:180|328:164,1,135.000005149842,0|2,0:0|0:0,0:0:0:0:
172,176,9998,2,0,L|132:236,1,67.5000025749208
184,168,10881,5,2,0:0:0:0:
132,248,11101,2,0,L|196:296,1,67.5000025749208
272,332,11542,2,0,P|352:308|404:256,1,135.000005149842,2|0,0:0|0:0,0:0:0:0:
404,180,12204,1,0,0:0:0:0:
392,84,12425,6,0,L|320:96,1,67.5000025749208,2|0,0:0|0:0,0:0:0:0:
232,104,12866,1,0,0:0:0:0:
140,84,13086,1,0,0:0:0:0:
376,100,13528,1,2,0:0:0:0:
360,116,13969,1,2,0:0:0:0:
344,136,14410,2,0,P|300:176|140:200,1,202.500007724762,2|0,0:0|0:0,0:0:0:0:
328,304,15513,2,0,L|420:272,1,67.5000025749208,2|0,0:3|0:0,0:0:0:0:
236,328,15954,5,2,0:0:0:0:
140,320,16175,2,0,P|84:276|80:188,1,135.000005149842
240,128,17057,2,0,P|172:184|160:248,2,135.000005149842,2|0|0,0:0|0:0|0:0,0:0:0:0:
256,220,18160,2,0,P|304:248|328:260,1,67.5000025749208,2|0,0:0|0:0,0:0:0:0:
84,132,18822,1,0,0:0:0:0:
152,68,19042,2,0,P|204:64|248:64,1,67.5000025749208,0|0,0:0|0:0,0:0:0:0:
312,44,19484,6,0,P|360:84|388:96,1,67.5000025749208,2|0,0:0|0:0,0:0:0:0:
432,152,19925,2,0,P|408:200|400:232,1,67.5000025749208
348,288,20366,1,2,0:0:0:0:
264,328,20586,1,0,0:0:0:0:
192,68,21028,1,0,0:0:0:0:
460,48,21469,6,0,L|396:104,1,67.5000025749208,0|2,0:0|0:0,0:0:0:0:
332,148,21910,1,0,0:0:0:0:
332,148,22131,1,2,0:0:0:0:
256,204,22351,1,0,0:0:0:0:
164,224,22572,2,0,P|100:220|76:204,1,67.5000025749208,0|0,0:0|0:0,0:0:0:0:
256,204,23013,1,0,0:0:0:0:
256,204,23234,2,0,P|256:256|236:296,1,67.5000025749208,2|0,0:0|0:0,0:0:0:0:
332,148,23675,2,0,P|296:120|264:112,1,67.5000025749208
184,92,24116,1,0,0:0:0:0:
324,304,24557,1,2,0:0:0:0:
464,180,24998,6,0,B|420:156|356:204|312:176,1,135.000005149842,2|0,0:0|0:0,0:0:0:0:
240,156,25660,1,2,0:0:0:0:
148,184,25881,1,0,0:0:0:0:
332,184,26101,2,0,P|328:140|316:92,2,67.5000025749208,0|0|2,0:0|0:0|0:0,0:0:0:0:
324,280,26763,1,0,0:0:0:0:
296,40,27425,5,2,0:0:0:0:
208,76,27645,2,0,P|160:56|136:40,1,67.5000025749208
220,92,28086,2,0,B|176:160|212:220|212:220|140:252,1,202.500007724762,2|0,0:0|0:0,0:0:0:0:
392,240,29410,1,0,0:0:0:0:
392,240,29520,1,0,0:0:0:0:
392,240,29631,2,0,P|424:172|384:104,1,135.000005149842,2|2,0:3|0:0,0:0:0:0:
328,176,30292,2,0,P|296:244|336:312,1,135.000005149842
328,176,30954,2,0,L|308:100,1,67.5000025749208,2|0,0:0|0:0,0:0:0:0:
188,64,31444,6,0,P|144:132|140:160,1,90,4|0,1:0|0:0,0:0:0:0:
180,260,31885,1,0,1:0:0:0:
292,316,32105,1,0,0:0:0:0:
292,316,32216,1,0,0:0:0:0:
292,316,32326,1,0,1:0:0:0:
356,208,32546,2,0,L|412:248,1,45,0|0,1:0|0:0,0:0:0:0:
280,128,32877,1,0,0:0:0:0:
264,80,32988,2,0,P|176:76|88:32,1,180,4|0,1:0|0:0,0:0:0:0:
116,160,33649,6,0,L|68:256,1,90,0|0,1:0|0:0,0:0:0:0:
200,260,34091,2,0,L|276:352,1,90,0|0,1:0|0:0,0:0:0:0:
304,336,34421,1,0,1:0:0:0:
392,244,34642,1,0,0:0:0:0:
440,272,34752,2,0,P|472:196|472:96,1,180,4|0,1:0|0:0,0:0:0:0:
348,72,35414,2,0,L|248:100,1,90,0|0,1:0|0:0,0:0:0:0:
261,96,35745,1,0,0:0:0:0:
261,96,35855,1,0,1:0:0:0:
140,132,36076,1,0,1:0:0:0:
140,132,36186,1,0,0:0:0:0:
124,256,36407,1,0,0:0:0:0:
116,308,36517,2,0,P|224:344|300:332,1,180,4|0,1:0|0:0,0:0:0:0:
404,288,37179,6,0,L|424:180,1,90,0|0,1:0|0:0,0:0:0:0:
380,80,37620,1,0,1:0:0:0:
384,300,38061,1,2,0:0:0:0:
352,280,38171,1,0,0:0:0:0:
348,244,38282,1,2,0:0:0:0:
372,216,38392,1,0,0:0:0:0:
404,200,38502,6,0,L|300:192,1,90,4|0,0:0|0:0,0:0:0:0:
212,268,38943,2,0,L|116:224,1,90,0|0,1:0|0:0,0:0:0:0:
212,96,39385,1,2,0:0:0:0:
240,256,39605,1,0,0:0:0:0:
108,232,39826,2,0,L|144:132,1,90,0|0,1:0|0:0,0:0:0:0:
32,336,40488,5,0,0:0:0:0:
108,232,40708,2,0,P|136:292|164:320,1,90,0|0,1:0|0:0,0:0:0:0:
276,332,41149,1,2,0:0:0:0:
388,276,41370,1,0,0:0:0:0:
416,160,41591,2,0,L|340:112,1,90,0|0,1:0|0:0,0:0:0:0:
388,276,42032,6,0,L|380:372,1,90,2|0,0:0|0:0,0:0:0:0:
296,244,42473,2,0,L|272:356,1,90,0|0,1:0|0:0,0:0:0:0:
272,124,42914,1,2,0:0:0:0:
156,172,43135,1,0,0:0:0:0:
172,48,43355,1,0,1:0:0:0:
156,172,43576,2,0,P|156:268|204:332,1,180,2|0,0:0|0:0,0:0:0:0:
260,228,44238,5,0,1:0:0:0:
216,340,44458,1,0,0:0:0:0:
268,236,44679,2,0,L|328:136,1,90,2|0,0:0|0:0,0:0:0:0:
412,80,45120,1,0,1:0:0:0:
392,236,45341,1,0,0:0:0:0:
312,140,45561,2,0,P|260:76|228:64,1,90,4|0,0:0|0:0,0:0:0:0:
140,188,46002,2,0,P|192:156|244:164,1,90,0|0,1:0|0:0,0:0:0:0:
140,188,46443,1,2,0:0:0:0:
108,308,46664,2,0,L|196:388,1,90,0|0,0:0|1:0,0:0:0:0:
140,188,47105,6,0,P|148:104|232:68,1,180,2|0,0:0|0:0,0:0:0:0:
352,96,47767,1,0,1:0:0:0:
408,208,47988,1,0,0:0:0:0:
428,40,48208,1,2,0:0:0:0:
316,216,48429,1,0,0:0:0:0:
216,140,48649,1,0,1:0:0:0:
204,164,48760,1,0,0:0:0:0:
200,192,48870,1,0,0:0:0:0:
172,316,49091,6,0,P|116:272|88:164,1,180,2|0,0:0|1:0,0:0:0:0:
144,60,49752,1,0,0:0:0:0:
268,36,49973,2,0,P|312:68|332:112,1,90,2|0,0:0|0:0,0:0:0:0:
284,216,50414,1,0,1:0:0:0:
284,216,50635,2,0,P|380:200|440:128,1,180,2|0,0:0|1:0,0:0:0:0:
284,216,51296,2,0,P|260:264|212:304,1,90,0|0,1:0|0:0,0:0:0:0:
108,288,51738,2,0,P|77:255|58:214,1,90,2|0,0:0|0:0,0:0:0:0:
92,92,52179,5,0,1:0:0:0:
124,76,52289,1,0,0:0:0:0:
160,76,52399,1,2,0:0:0:0:
184,100,52510,1,0,0:0:0:0:
184,136,52620,2,0,L|276:104,1,90,2|0,0:0|0:0,0:0:0:0:
240,164,52951,1,0,0:0:0:0:
232,188,53061,1,0,1:0:0:0:
224,212,53171,1,0,0:0:0:0:
216,232,53282,2,0,L|308:200,1,90,0|2,0:0|0:0,0:0:0:0:
396,160,53723,1,2,0:0:0:0:
416,188,53833,1,0,0:0:0:0:
416,224,53943,1,0,1:0:0:0:
400,256,54054,1,0,0:0:0:0:
368,276,54164,2,0,L|282:305,1,90,0|2,0:0|0:0,0:0:0:0:
176,316,54605,5,0,0:0:0:0:
100,240,54826,1,0,1:0:0:0:
264,256,55046,1,0,0:0:0:0:
340,332,55267,1,2,0:0:0:0:
268,128,55488,1,0,0:0:0:0:
348,200,55708,2,0,P|372:152|364:88,1,90,0|0,1:0|0:0,0:0:0:0:
268,128,56149,5,2,0:0:0:0:
164,148,56370,1,2,0:0:0:0:
132,136,56480,1,0,0:0:0:0:
112,104,56591,1,0,1:0:0:0:
120,68,56701,1,0,0:0:0:0:
148,44,56811,2,0,L|252:52,1,90,0|2,0:0|0:0,0:0:0:0:
344,44,57252,1,2,0:0:0:0:
376,56,57363,1,0,0:0:0:0:
404,80,57473,1,0,1:0:0:0:
424,112,57583,1,0,0:0:0:0:
408,144,57693,1,2,0:0:0:0:
412,180,57804,1,0,0:0:0:0:
428,212,57914,2,0,L|324:236,1,90,4|0,0:0|0:0,0:0:0:0:
244,280,58355,6,0,L|164:244,1,76.5000014591217,0|0,0:0|0:0,0:0:0:0:
108,184,58796,1,2,0:0:0:0:
300,184,59017,2,0,P|336:220|356:272,1,76.5000014591217,0|0,0:0|0:0,0:0:0:0:
320,348,59458,2,0,P|392:336|456:264,1,153.000002918243,2|0,0:0|0:0,0:0:0:0:
436,176,60120,6,0,L|404:84,1,76.5000014591217,2|0,0:0|0:0,0:0:0:0:
448,284,60561,1,0,0:0:0:0:
384,12,60782,2,0,P|328:64|320:88,1,76.5000014591217,0|2,0:0|0:0,0:0:0:0:
328,168,61223,2,0,P|276:212|176:224,1,153.000002918243
228,124,61885,6,0,L|268:48,1,76.5000014591217,2|0,0:0|0:0,0:0:0:0:
192,228,62326,1,0,0:0:0:0:
132,316,62546,1,0,0:0:0:0:
96,216,62767,1,2,0:0:0:0:
108,108,62988,2,0,P|172:52|244:28,1,153.000002918243,0|2,0:0|0:0,0:0:0:0:
384,188,63870,1,0,0:0:0:0:
276,188,64091,1,2,0:0:0:0:
276,296,64311,1,0,0:0:0:0:
488,188,64532,1,2,0:0:0:0:
276,80,64752,1,0,0:0:0:0:
276,296,64973,6,0,P|212:256|164:180,1,153.000002918243,0|2,0:0|0:0,0:0:0:0:
372,240,65855,2,0,P|368:344|328:400,1,153.000002918243,0|2,0:0|0:0,0:0:0:0:
372,240,66517,2,0,L|344:160,1,76.5000014591217
292,76,66958,1,0,0:0:0:0:
184,60,67179,1,2,0:0:0:0:
348,168,67399,1,0,0:0:0:0:
440,112,67620,2,0,P|452:164|452:204,1,76.5000014591217
292,76,68061,2,0,P|252:120|240:160,1,76.5000014591217,2|0,0:0|0:0,0:0:0:0:
228,240,68502,6,0,P|140:224|64:168,1,153.000002918243,0|2,0:0|0:0,0:0:0:0:
228,240,69385,1,0,0:0:0:0:
228,240,69605,1,0,0:0:0:0:
268,304,70046,2,0,P|236:264|228:216,1,76.5000014591217,2|0,0:0|0:0,0:0:0:0:
155,241,70488,2,0,P|205:233|251:250,1,76.5000014591217,2|0,0:0|0:0,0:0:0:0:
265,175,70929,2,0,P|246:222|208:253,1,76.5000014591217,2|0,0:0|0:0,0:0:0:0:
265,174,71370,1,0,0:0:0:0:
265,174,71480,1,0,0:0:0:0:
265,174,71591,1,0,0:0:0:0:
280,72,71811,5,0,0:0:0:0:
248,72,71921,1,0,0:0:0:0:
216,72,72032,2,0,L|136:136,1,90,4|0,0:0|0:0,0:0:0:0:
116,252,72473,2,0,P|160:312|200:320,1,90,0|0,1:0|0:0,0:0:0:0:
288,264,72914,2,0,L|188:232,1,90,2|0,0:0|0:0,0:0:0:0:
322,144,73355,2,0,L|408:172,1,90,0|0,1:0|0:0,0:0:0:0:
212,84,73796,6,0,P|200:140|212:208,1,90,2|0,0:0|0:0,0:0:0:0:
324,144,74238,2,0,P|376:92|416:84,1,90,0|0,1:0|0:0,0:0:0:0:
432,296,74679,1,2,0:0:0:0:
408,172,74899,1,0,0:0:0:0:
432,296,75120,2,0,P|368:312|324:308,1,90,0|0,1:0|0:0,0:0:0:0:
220,320,75561,5,2,0:0:0:0:
120,240,75782,1,0,0:0:0:0:
56,132,76002,1,0,1:0:0:0:
220,320,76223,2,0,P|176:360|112:368,1,90,0|2,0:0|0:0,0:0:0:0:
120,239,76664,2,0,P|137:197|166:163,1,90,0|0,0:0|1:0,0:0:0:0:
232,256,77105,6,0,P|292:232|368:140,1,180,2|0,0:0|0:0,0:0:0:0:
240,132,77767,2,0,P|200:96|152:80,1,90,0|0,1:0|0:0,0:0:0:0:
240,132,78208,1,2,0:0:0:0:
368,144,78429,1,0,0:0:0:0:
368,144,78649,1,0,1:0:0:0:
232,256,78870,1,0,0:0:0:0:
232,256,79091,6,0,P|280:296|300:332,1,90,2|0,0:0|0:0,0:0:0:0:
152,196,79532,1,0,1:0:0:0:
244,64,79752,1,0,0:0:0:0:
124,80,79973,1,2,0:0:0:0:
232,256,80193,1,0,0:0:0:0:
356,224,80414,2,0,P|328:172|288:140,1,90,0|0,1:0|0:0,0:0:0:0:
232,256,80855,6,0,P|188:288|124:296,1,90,2|0,0:0|0:0,0:0:0:0:
356,224,81296,1,0,1:0:0:0:
232,256,81517,2,0,P|192:208|196:80,1,180
304,152,82179,1,0,1:0:0:0:
420,108,82399,5,0,0:0:0:0:
428,132,82510,1,0,0:0:0:0:
444,152,82620,2,0,B|432:180|432:180|432:312,1,144,4|0,0:0|0:0,0:0:0:0:
288,280,83282,2,0,B|324:232|324:232|296:168|308:128,1,144,4|0,0:0|0:0,0:0:0:0:
288,280,83943,1,0,1:0:0:0:
288,280,84164,2,0,P|192:284|124:256,1,144,4|0,0:0|0:0,0:0:0:0:
228,172,84826,5,2,0:0:0:0:
152,72,85046,1,0,0:0:0:0:
128,84,85157,1,0,0:0:0:0:
104,96,85267,1,2,0:0:0:0:
256,44,85488,1,0,0:0:0:0:
380,56,85708,1,2,0:0:0:0:
380,56,85818,1,0,0:0:0:0:
380,56,85929,1,0,0:0:0:0:
388,180,86149,6,0,P|360:232|360:280,1,90,4|0,0:0|0:0,0:0:0:0:
388,180,86591,1,0,1:0:0:0:
268,144,86811,1,0,0:0:0:0:
332,352,87032,2,0,P|280:316|260:272,1,90,2|0,0:0|0:0,0:0:0:0:
184,200,87473,2,0,P|152:252|144:312,1,90,0|0,1:0|0:0,0:0:0:0:
268,144,87914,6,0,P|224:108|100:144,1,180,2|0,0:0|1:0,0:0:0:0:
320,240,88576,1,0,0:0:0:0:
348,216,88686,1,0,0:0:0:0:
368,180,88796,1,2,0:0:0:0:
356,56,89017,1,0,0:0:0:0:
268,144,89238,2,0,P|248:100|244:48,1,90,0|0,1:0|0:0,0:0:0:0:
240,296,89679,6,0,P|336:332|432:280,1,180,2|0,0:0|1:0,0:0:0:0:
196,192,90341,2,0,P|140:240|144:352,1,180
196,192,91002,1,0,1:0:0:0:
292,108,91223,2,0,L|204:52,1,90,0|2,0:0|0:0,0:0:0:0:
424,144,91664,6,0,L|380:56,1,90,0|0,0:0|1:0,0:0:0:0:
344,220,92105,2,0,P|372:276|476:324,1,180
468,196,92767,1,0,1:0:0:0:
460,68,92988,1,0,0:0:0:0:
344,220,93208,6,0,P|288:232|252:260,1,90,2|0,0:0|0:0,0:0:0:0:
196,360,93649,2,0,P|136:300|152:188,1,180,0|2,1:0|0:0,0:0:0:0:
196,96,94311,1,0,0:0:0:0:
304,164,94532,2,0,P|248:220|212:228,1,90,0|0,1:0|0:0,0:0:0:0:
196,96,94973,6,0,P|136:80|84:96,1,90,2|0,0:0|0:0,0:0:0:0:
296,68,95414,1,0,1:0:0:0:
424,64,95635,1,0,0:0:0:0:
400,316,95855,1,2,0:0:0:0:
392,188,96076,1,0,0:0:0:0:
392,188,96296,2,0,P|324:208|292:248,1,90,0|0,1:0|0:0,0:0:0:0:
244,328,96738,6,0,P|204:288|192:220,1,90,4|0,0:0|0:0,0:0:0:0:
204,132,97179,2,0,P|268:160|300:204,1,90,0|0,1:0|0:0,0:0:0:0:
191,253,97620,2,0,P|147:242|112:216,1,90,2|0,0:0|1:0,0:0:0:0:
112,216,98061,1,0,1:0:0:0:
284,172,98282,2,0,P|348:112|456:116,1,180,4|0,0:0|0:0,0:0:0:0:
428,332,98943,1,2,0:0:0:0:
428,332,99054,1,2,0:0:0:0:
428,332,99164,2,0,P|448:248|372:188,1,180
108,152,100267,5,4,0:0:0:0:
376,136,101149,1,2,0:0:0:0:
108,152,101811,5,2,0:0:0:0:
184,292,102032,2,0,P|228:248|260:184,1,112.5,4|0,0:0|0:0,0:0:0:0:
228,48,102473,1,0,1:0:0:0:
344,32,102693,2,0,P|376:104|376:148,1,112.5,0|2,0:0|0:0,0:0:0:0:
308,248,103135,1,0,0:0:0:0:
456,312,103355,1,0,1:0:0:0:
308,248,103576,1,0,0:0:0:0:
356,168,103796,6,0,P|392:228|396:288,1,112.5,2|0,0:0|0:0,0:0:0:0:
256,116,104238,2,0,P|316:68|376:64,1,112.5,0|0,1:0|0:0,1:0:0:0:
184,204,104679,1,2,0:0:0:0:
84,84,104899,1,0,0:0:0:0:
236,40,105120,1,0,1:0:0:0:
120,268,105341,1,0,0:0:0:0:
272,224,105561,6,0,P|236:276|192:292,1,112.5,6|0,0:0|0:0,0:0:0:0:
420,220,106002,1,0,1:0:0:0:
308,108,106223,1,0,0:0:0:0:
184,204,106443,1,2,0:0:0:0:
104,104,106664,1,0,0:0:0:0:
272,224,106885,2,0,L|352:332,1,112.5,0|0,1:0|0:0,0:0:0:0:
204,108,107326,5,2,0:0:0:0:
204,108,107436,1,0,0:0:0:0:
204,108,107546,1,0,0:0:0:0:
272,224,107767,2,0,L|352:332,1,112.5,0|0,1:0|0:0,0:0:0:0:
336,112,108208,2,0,P|392:88|460:96,1,112.5,2|0,0:0|0:0,0:0:0:0:
176,272,108649,2,0,P|120:296|52:288,1,112.5,0|0,1:0|0:0,0:0:0:0:
272,224,109091,5,6,0:0:0:0:
108,192,109311,1,0,0:0:0:0:
244,144,109532,1,0,1:0:0:0:
320,296,109752,1,0,0:0:0:0:
432,184,109973,1,2,0:0:0:0:
380,48,110193,1,0,0:0:0:0:
416,352,110414,1,0,1:0:0:0:
340,220,110635,6,0,P|268:240|240:288,1,112.5,0|2,0:0|0:0,0:0:0:0:
320,296,110966,1,0,0:0:0:0:
320,296,111076,2,0,P|392:276|420:228,1,112.5,0|2,0:0|0:0,0:0:0:0:
416,352,111517,1,0,0:0:0:0:
244,144,111738,1,2,0:0:0:0:
140,264,111958,1,0,0:0:0:0:
120,136,112179,1,0,1:0:0:0:
248,268,112399,1,0,0:0:0:0:
48,296,112620,6,0,P|108:352|156:360,1,112.5,4|0,0:0|0:0,0:0:0:0:
292,328,113061,1,0,1:0:0:0:
376,196,113282,1,0,0:0:0:0:
292,64,113502,1,2,0:0:0:0:
460,156,113723,1,0,0:0:0:0:
304,236,113943,2,0,P|356:280|408:276,1,112.5,0|0,1:0|0:0,0:0:0:0:
140,264,114385,5,2,0:0:0:0:
140,264,114495,1,0,0:0:0:0:
140,264,114605,1,0,0:0:0:0:
304,236,114826,1,0,1:0:0:0:
140,264,115046,1,0,0:0:0:0:
336,156,115267,2,0,P|384:204|392:248,1,112.5,2|0,0:0|0:0,0:0:0:0:
336,156,115708,1,0,1:0:0:0:
188,100,115929,1,0,1:0:0:0:
188,100,116149,6,0,P|132:52|104:-12,1,112.5,2|0,0:0|0:0,0:0:0:0:
268,96,116591,2,0,P|337:71|406:79,1,112.5,0|0,1:0|0:0,0:0:0:0:
232,172,117032,2,0,P|218:244|177:300,1,112.5,2|0,0:0|0:0,0:0:0:0:
36,168,117473,2,0,L|144:200,1,112.5,0|0,1:0|0:0,0:0:0:0:
200,277,117804,1,0,0:0:0:0:
200,277,117914,6,0,P|300:249|336:141,1,225,2|0,0:0|1:0,0:0:0:0:
212,48,118576,1,0,0:0:0:0:
337,143,118796,2,0,L|461:79,1,112.5,2|0,0:0|0:0,0:0:0:0:
344,248,119238,2,0,P|288:232|236:184,1,112.5,0|0,1:0|0:0,0:0:0:0:
100,140,119679,6,0,P|84:212|96:268,1,112.5,2|0,0:0|0:0,0:0:0:0:
240,296,120120,2,0,L|168:192,1,112.5,0|0,1:0|0:0,0:0:0:0:
428,204,120561,2,0,P|356:160|296:164,1,112.5,2|0,0:0|0:0,0:0:0:0:
212,104,121002,1,0,1:0:0:0:
344,248,121223,1,0,0:0:0:0:
416,96,121443,6,0,P|348:128|328:168,1,112.5,2|0,0:0|0:0,0:0:0:0:
124,104,121885,2,0,P|156:172|196:192,1,112.5,0|0,1:0|0:0,0:0:0:0:
344,248,122326,1,2,0:0:0:0:
212,104,122546,1,0,0:0:0:0:
248,308,122767,1,0,1:0:0:0:
188,188,122988,1,0,0:0:0:0:
344,160,123208,6,0,P|408:192|384:328,1,225,4|0,0:0|1:0,0:0:0:0:
344,160,123870,1,0,0:0:0:0:
344,248,124091,2,0,P|280:216|304:80,1,225,2|0,0:0|1:0,0:0:0:0:
344,248,124752,1,0,0:0:0:0:
132,148,125193,5,0,0:0:0:0:
132,148,125414,1,0,0:0:0:0:
256,280,125635,1,2,0:0:0:0:
384,172,125855,1,2,0:0:0:0:
344,104,126076,1,0,0:0:0:0:
304,172,126296,1,2,0:0:0:0:
384,172,126517,1,2,0:0:0:0:
384,172,126627,1,2,0:0:0:0:
384,172,126738,1,6,0:0:0:0:
88,320,133355,5,2,0:0:0:0:
112,292,133466,1,0,0:0:0:0:
112,256,133576,1,2,0:0:0:0:
92,228,133686,1,0,0:0:0:0:
64,204,133796,2,0,L|176:188,1,90,4|0,0:0|0:0,0:0:0:0:
264,132,134238,2,0,P|216:92|152:68,1,90,0|0,1:0|0:0,0:0:0:0:
316,248,134679,1,2,0:0:0:0:
264,132,134899,1,0,0:0:0:0:
224,280,135120,2,0,P|280:336|328:344,1,90,0|0,1:0|0:0,0:0:0:0:
383,103,135561,6,0,P|383:187|311:251,1,180,2|0,0:0|1:0,0:0:0:0:
264,132,136223,1,0,0:0:0:0:
144,100,136443,2,0,P|172:48|216:12,1,90,2|0,0:0|0:0,0:0:0:0:
40,160,136885,2,0,P|88:208|136:228,1,90,0|0,1:0|0:0,0:0:0:0:
232,200,137326,6,0,P|224:280|148:340,1,180,2|0,0:0|1:0,0:0:0:0:
232,200,137988,1,0,0:0:0:0:
348,248,138208,2,0,L|420:320,1,90,2|0,0:0|0:0,0:0:0:0:
348,248,138649,1,0,1:0:0:0:
436,140,138870,2,0,P|356:120|260:136,1,180,2|0,0:0|0:0,0:0:0:0:
140,164,139532,6,0,P|92:132|80:88,1,90,0|0,1:0|0:0,0:0:0:0:
204,248,139973,1,2,0:0:0:0:
116,336,140193,1,0,0:0:0:0:
296,164,140414,1,2,0:0:0:0:
392,248,140635,1,0,0:0:0:0:
296,164,140855,2,0,P|376:128|416:124,1,90,2|0,0:0|0:0,0:0:0:0:
288,284,141296,2,0,P|240:272|192:236,1,90,0|0,1:0|0:0,0:0:0:0:
108,168,141738,2,0,B|176:124|176:124|188:68|268:32,1,180,2|0,0:0|1:0,0:0:0:0:
296,164,142399,1,0,0:0:0:0:
296,164,142620,5,2,0:0:0:0:
408,224,142841,1,0,0:0:0:0:
296,284,143061,1,2,0:0:0:0:
184,224,143282,1,0,0:0:0:0:
196,100,143502,2,0,P|264:48|304:40,1,90,2|0,0:0|0:0,0:0:0:0:
408,224,143943,2,0,P|400:128|340:56,1,180,0|2,1:0|0:0,0:0:0:0:
184,224,144826,6,0,P|272:224|332:148,1,180,0|2,1:0|0:0,0:0:0:0:
232,132,145488,1,2,0:0:0:0:
136,300,145929,2,0,L|192:216,1,90,2|0,0:0|0:0,0:0:0:0:
280,236,146370,2,0,L|336:152,1,90,2|0,0:0|0:0,0:0:0:0:
392,52,146811,1,0,0:0:0:0:
256,304,147032,5,0,0:0:0:0:
284,304,147142,1,0,0:0:0:0:
312,296,147252,1,0,0:0:0:0:
332,280,147363,1,0,0:0:0:0:
348,256,147473,1,0,0:0:0:0:
352,228,147583,1,0,0:0:0:0:
344,204,147693,1,0,0:0:0:0:
328,184,147804,1,0,0:0:0:0:
304,172,147914,6,0,L|408:128,1,90,4|0,0:0|0:0,0:0:0:0:
188,220,148355,1,0,1:0:0:0:
132,332,148575,1,0,0:0:0:0:
304,172,148796,2,0,P|268:128|220:104,1,90,2|0,0:0|0:0,0:0:0:0:
360,280,149238,2,0,P|399:239|418:189,1,90,0|0,1:0|0:0,0:0:0:0:
252,280,149679,6,0,P|216:232|172:216,1,90,2|0,0:0|0:0,0:0:0:0:
120,116,150120,2,0,P|76:156|64:202,1,90,0|0,1:0|0:0,0:0:0:0:
220,56,150561,1,2,0:0:0:0:
300,156,150782,1,0,0:0:0:0:
252,280,151002,1,0,1:0:0:0:
300,156,151223,1,0,0:0:0:0:
356,44,151443,6,0,P|404:88|420:128,1,90,2|0,0:0|0:0,0:0:0:0:
220,56,151885,1,0,1:0:0:0:
300,156,152105,1,0,0:0:0:0:
252,280,152326,2,0,P|212:240|184:200,1,90,2|0,0:0|0:0,0:0:0:0:
104,120,152767,1,0,1:0:0:0:
252,280,152988,1,0,0:0:0:0:
372,240,153208,5,2,0:0:0:0:
300,156,153429,1,0,0:0:0:0:
224,80,153649,1,0,1:0:0:0:
408,168,153870,1,0,0:0:0:0:
184,192,154091,1,2,0:0:0:0:
408,168,154311,1,0,0:0:0:0:
408,168,154532,1,0,1:0:0:0:
424,296,154752,1,0,0:0:0:0:
304,280,154973,6,0,P|332:216|372:188,1,90,4|0,0:0|0:0,0:0:0:0:
260,344,155414,2,0,P|180:344|140:324,1,90,0|0,1:0|0:0,0:0:0:0:
152,216,155855,2,0,P|200:244|228:288,1,90,2|0,0:0|0:0,0:0:0:0:
56,340,156296,2,0,L|152:292,1,90,0|0,1:0|0:0,0:0:0:0:
288,192,156738,6,0,L|368:240,1,90,2|0,0:0|0:0,0:0:0:0:
316,84,157179,2,0,L|396:132,1,90,0|0,1:0|0:0,0:0:0:0:
208,116,157620,2,0,P|208:60|232:4,1,90,2|0,0:0|0:0,0:0:0:0:
208,116,158061,1,0,1:0:0:0:
140,224,158282,5,2,0:0:0:0:
128,248,158392,1,2,0:0:0:0:
116,272,158502,2,0,B|156:300|156:300|196:300|196:300|272:320,1,144,4|0,0:0|0:0,0:0:0:0:
348,360,159164,2,0,B|372:316|344:264|344:264|344:192,1,144,4|0,0:0|0:0,0:0:0:0:
348,360,159826,1,0,1:0:0:0:
344,220,160046,6,0,P|292:172|248:156,1,90,4|0,0:0|0:0,0:0:0:0:
436,168,160488,2,0,P|448:232|432:280,1,90,0|0,0:0|1:0,0:0:0:0:
400,52,160929,1,0,1:0:0:0:
400,52,161039,1,0,0:0:0:0:
400,52,161149,2,0,L|300:52,1,90
216,136,161591,1,0,1:0:0:0:
104,76,161811,1,0,0:0:0:0:
284,188,162032,6,0,P|220:224|168:212,1,90,4|0,0:0|0:0,0:0:0:0:
324,112,162473,1,0,1:0:0:0:
384,4,162693,1,0,0:0:0:0:
396,168,162914,2,0,P|392:228|364:264,1,90,2|0,0:0|0:0,0:0:0:0:
288,340,163355,2,0,P|344:372|388:380,1,90,0|0,1:0|0:0,0:0:0:0:
248,252,163796,6,0,B|196:288|188:340|188:340|112:336,1,180,2|0,0:0|1:0,0:0:0:0:
156,188,164458,2,0,P|204:152|320:164,1,180,2|0,0:0|0:0,0:0:0:0:
76,188,165120,2,0,L|48:288,1,90,0|0,1:0|0:0,0:0:0:0:
88,84,165561,6,0,P|12:104|-8:120,1,90,2|0,0:0|0:0,0:0:0:0:
212,56,166002,1,0,1:0:0:0:
212,56,166223,2,0,P|296:112|384:120,1,180,2|0,0:0|0:0,0:0:0:0:
360,248,166885,2,0,L|312:328,1,90,0|0,1:0|0:0,0:0:0:0:
212,252,167326,5,2,0:0:0:0:
388,180,167546,1,0,0:0:0:0:
264,168,167767,1,0,1:0:0:0:
228,48,167988,1,0,0:0:0:0:
296,280,168208,1,2,0:0:0:0:
264,168,168429,1,0,0:0:0:0:
264,168,168649,2,0,P|188:160|144:176,1,90,0|0,1:0|0:0,0:0:0:0:
192,312,169091,6,0,P|252:368|352:376,1,180,4|0,0:0|1:0,0:0:0:0:
348,140,169973,2,0,L|244:176,1,90,2|0,0:0|0:0,0:0:0:0:
136,88,170414,2,0,L|221:58,1,90,0|0,1:0|0:0,0:0:0:0:
264,170,170855,5,2,0:0:0:0:
336,276,171076,1,0,0:0:0:0:
192,144,171296,1,0,1:0:0:0:
216,268,171517,1,0,0:0:0:0:
136,88,171738,1,2,0:0:0:0:
112,212,171958,1,0,0:0:0:0:
236,80,172179,2,0,P|280:68|340:64,1,90,0|0,1:0|0:0,0:0:0:0:
392,172,172620,6,0,P|340:152|292:152,1,90,4|0,0:0|0:0,0:0:0:0:
460,128,173061,1,0,1:0:0:0:
328,240,173282,1,0,0:0:0:0:
208,280,173502,1,2,0:0:0:0:
360,328,173723,1,0,0:0:0:0:
216,192,173943,2,0,P|272:132|312:120,1,90,0|0,1:0|0:0,0:0:0:0:
208,200,174605,5,0,1:0:0:0:
96,256,174826,1,0,1:0:0:0:
96,228,174936,1,0,0:0:0:0:
96,200,175046,2,0,P|148:120|232:88,1,180,2|0,0:0|0:0,0:0:0:0:
380,136,176149,5,4,0:0:0:0:
376,144,177032,1,4,0:0:0:0:
380,136,177693,1,2,0:0:0:0:
228,92,177914,6,0,P|264:36|336:4,1,112.5,4|0,0:0|0:0,0:0:0:0:
308,172,178355,2,0,P|232:200|176:196,1,112.5,0|0,1:0|0:0,0:0:0:0:
48,168,178796,1,2,0:0:0:0:
152,288,179017,1,0,0:0:0:0:
52,180,179238,2,0,L|136:96,1,112.5,0|0,1:0|0:0,0:0:0:0:
284,68,179679,6,0,P|380:96|404:212,1,225,2|0,0:0|1:0,0:0:0:0:
280,312,180341,1,0,0:0:0:0:
308,172,180561,1,2,0:0:0:0:
380,296,180782,1,0,0:0:0:0:
232,228,181002,1,0,1:0:0:0:
232,228,181223,1,0,0:0:0:0:
116,256,181443,6,0,P|168:328|224:348,1,112.5,4|0,0:0|0:0,0:0:0:0:
160,148,181885,2,0,P|212:184|232:252,1,112.5,0|0,1:0|0:0,0:0:0:0:
328,104,182326,1,2,0:0:0:0:
232,228,182546,1,0,0:0:0:0:
380,180,182767,2,0,P|416:112|412:76,1,112.5,0|0,1:0|0:0,0:0:0:0:
380,180,183208,5,2,0:0:0:0:
380,180,183318,1,0,0:0:0:0:
380,180,183429,2,0,L|352:288,1,112.5,0|0,0:0|1:0,0:0:0:0:
380,180,183870,1,0,0:0:0:0:
228,132,184091,2,0,P|152:176|132:220,1,112.5,2|0,0:0|0:0,0:0:0:0:
280,324,184532,2,0,P|236:272|240:212,1,112.5,0|0,1:0|0:0,0:0:0:0:
324,100,184973,5,4,0:0:0:0:
172,60,185193,1,0,0:0:0:0:
328,28,185414,1,0,1:0:0:0:
380,180,185635,1,0,0:0:0:0:
236,108,185855,1,2,0:0:0:0:
376,268,186076,1,0,0:0:0:0:
236,200,186296,2,0,P|216:256|160:292,1,112.5,0|0,1:0|0:0,0:0:0:0:
68,152,186738,5,2,0:0:0:0:
68,152,186848,1,0,0:0:0:0:
68,152,186958,2,0,P|140:180|156:208,1,112.5,0|0,0:0|1:0,0:0:0:0:
276,308,187399,1,0,0:0:0:0:
372,180,187620,1,2,0:0:0:0:
444,320,187841,1,0,0:0:0:0:
156,208,188061,1,0,1:0:0:0:
296,224,188282,1,0,0:0:0:0:
368,84,188502,6,0,P|444:124|464:156,1,112.5,4|0,0:0|0:0,0:0:0:0:
224,56,188943,1,0,1:0:0:0:
92,120,189164,1,0,0:0:0:0:
232,188,189385,1,2,0:0:0:0:
172,332,189605,1,0,0:0:0:0:
328,340,189826,2,0,P|380:288|396:240,1,112.5,0|0,1:0|0:0,0:0:0:0:
320,164,190267,5,2,0:0:0:0:
320,164,190377,1,0,0:0:0:0:
320,164,190488,2,0,P|308:244|276:276,1,112.5,0|0,0:0|1:0,0:0:0:0:
140,212,190929,1,0,0:0:0:0:
392,200,191149,1,2,0:0:0:0:
232,188,191370,1,0,0:0:0:0:
140,32,191591,1,0,1:0:0:0:
308,76,191811,1,0,0:0:0:0:
172,112,192032,6,0,P|136:160|140:216,1,112.5,2|0,0:0|0:0,0:0:0:0:
312,244,192473,2,0,P|248:284|204:280,1,112.5,0|0,1:0|0:0,0:0:0:0:
232,188,192914,2,0,L|316:108,1,112.5,2|0,0:0|0:0,0:0:0:0:
468,80,193355,1,0,1:0:0:0:
452,236,193576,5,2,0:0:0:0:
444,264,193686,1,2,0:0:0:0:
448,292,193796,2,0,B|448:356|448:356|396:332|256:336,1,225,0|0,0:0|1:0,0:0:0:0:
136,308,194458,1,0,0:0:0:0:
208,168,194679,1,2,0:0:0:0:
96,220,194899,1,0,0:0:0:0:
252,236,195120,1,0,1:0:0:0:
184,60,195341,2,0,P|272:80|320:204,1,225,4|0,0:0|0:0,0:0:0:0:
376,320,196002,6,0,P|432:268|448:220,1,112.5,0|0,1:0|0:0,0:0:0:0:
252,236,196443,2,0,P|216:292|208:344,1,112.5,2|0,0:0|0:0,0:0:0:0:
184,60,196885,1,0,1:0:0:0:
208,152,197105,2,0,B|268:120|272:56|272:56|396:60,1,225,2|0,0:0|0:0,0:0:0:0:
472,152,197767,6,0,P|412:176|344:176,1,112.5,0|0,1:0|0:0,0:0:0:0:
292,292,198208,1,2,0:0:0:0:
208,152,198429,1,0,0:0:0:0:
364,180,198649,1,0,1:0:0:0:
160,224,198870,1,0,0:0:0:0:
364,180,199091,6,0,P|412:260|380:388,1,225,4|0,0:0|1:0,0:0:0:0:
292,292,199752,2,0,P|244:212|276:84,1,225,4|0,0:0|0:0,0:0:0:0:
200,352,200635,1,0,1:0:0:0:
272,88,201076,1,0,0:0:0:0:
272,88,201296,1,0,0:0:0:0:
272,88,202179,6,0,B|208:100|196:156|124:152,1,135.000005149842,2|4,0:0|1:0,0:0:0:0:
352,128,216738,6,0,P|372:196|340:312,1,180,4|0,0:0|1:0,0:0:0:0:
284,216,217399,1,0,0:0:0:0:
208,140,217620,2,0,P|140:136|100:152,1,90,2|0,0:0|0:0,0:0:0:0:
176,236,218061,2,0,P|216:300|252:328,1,90,0|0,1:0|0:0,0:0:0:0:
120,140,218502,5,2,0:0:0:0:
176,236,218723,1,0,0:0:0:0:
260,48,218943,1,0,1:0:0:0:
208,140,219164,1,0,0:0:0:0:
104,52,219385,2,0,P|48:96|32:148,1,90,2|0,0:0|0:0,0:0:0:0:
64,216,219826,2,0,L|112:308,1,90,0|0,1:0|0:0,0:0:0:0:
212,324,220267,5,2,0:0:0:0:
296,256,220488,1,0,0:0:0:0:
416,292,220708,1,0,1:0:0:0:
288,172,220929,1,0,0:0:0:0:
320,344,221149,1,2,0:0:0:0:
204,216,221370,1,0,0:0:0:0:
104,296,221591,1,0,1:0:0:0:
296,256,221811,1,0,0:0:0:0:
380,164,222032,6,0,P|348:112|304:84,1,90,2|0,0:0|0:0,0:0:0:0:
208,56,222473,1,0,1:0:0:0:
120,144,222693,1,0,0:0:0:0:
48,40,222914,1,2,0:0:0:0:
20,208,223135,1,0,0:0:0:0:
120,144,223355,2,0,P|168:176|220:184,1,90,0|0,1:0|0:0,0:0:0:0:
308,120,223796,6,0,P|360:192|360:312,1,180,2|0,0:0|1:0,0:0:0:0:
120,316,224679,1,2,0:0:0:0:
236,240,224899,1,0,0:0:0:0:
308,120,225120,1,0,1:0:0:0:
236,240,225341,2,0,P|192:160|192:64,1,180,2|0,0:0|0:0,0:0:0:0:
344,224,226002,6,0,P|336:284|308:340,1,90,0|0,1:0|0:0,0:0:0:0:
200,320,226443,1,2,0:0:0:0:
72,320,226664,1,0,0:0:0:0:
236,240,226885,1,0,1:0:0:0:
324,312,227105,1,0,0:0:0:0:
200,320,227326,6,0,P|152:248|208:160,1,180,2|0,0:0|1:0,0:0:0:0:
236,60,227988,1,0,0:0:0:0:
236,240,228208,2,0,P|268:192|264:136,1,90,2|0,0:0|0:0,0:0:0:0:
236,60,228649,1,0,1:0:0:0:
372,140,228870,2,0,P|346:88|232:60,1,180,2|0,0:0|0:0,0:0:0:0:
372,140,229532,5,0,1:0:0:0:
412,260,229752,1,0,0:0:0:0:
388,276,229863,1,0,0:0:0:0:
364,292,229973,1,0,1:0:0:0:
244,324,230193,1,0,0:0:0:0:
220,308,230304,1,0,0:0:0:0:
200,292,230414,2,0,L|176:272,4,22.5,0|0|0|0|0,1:0|0:0|0:0|0:0|0:0,0:0:0:0:
160,116,230855,5,4,0:0:0:0:
168,124,231738,1,4,0:0:0:0:
176,132,232399,1,2,0:0:0:0:
180,264,232620,6,0,P|264:224|300:168,1,112.5,4|0,0:0|0:0,0:0:0:0:
180,264,233061,1,0,1:0:0:0:
152,108,233282,1,0,0:0:0:0:
276,212,233502,1,2,0:0:0:0:
296,368,233723,1,0,0:0:0:0:
276,212,233943,2,0,P|220:176|160:164,1,112.5,0|0,1:0|0:0,0:0:0:0:
368,152,234385,6,0,P|380:220|368:288,1,112.5,2|0,0:0|0:0,0:0:0:0:
260,116,234826,2,0,P|296:64|368:40,1,112.5,0|0,1:0|0:0,0:0:0:0:
260,116,235267,1,2,0:0:0:0:
116,176,235488,1,0,0:0:0:0:
368,152,235708,1,0,1:0:0:0:
340,44,235929,1,0,0:0:0:0:
280,188,236149,6,0,L|252:316,1,112.5,6|0,0:0|0:0,0:0:0:0:
92,287,236591,2,0,L|116:177,1,112.5,0|0,1:0|0:0,0:0:0:0:
228,68,237032,1,2,0:0:0:0:
256,296,237252,1,0,0:0:0:0:
116,176,237473,1,0,1:0:0:0:
256,296,237693,2,0,P|348:272|388:168,1,168.75,2|0,0:0|0:0,0:0:0:0:
400,136,238135,6,0,L|372:76,1,56.25,2|0,0:0|0:0,0:0:0:0:
412,148,238355,1,0,1:0:0:0:
284,192,238576,1,0,0:0:0:0:
148,272,238796,2,0,P|208:188|160:80,1,225,2|0,0:0|1:0,0:0:0:0:
380,48,239679,5,4,0:0:0:0:
472,176,239899,1,0,0:0:0:0:
504,24,240120,1,0,1:0:0:0:
380,224,240341,1,0,0:0:0:0:
428,112,240561,1,2,0:0:0:0:
288,180,240782,1,0,0:0:0:0:
464,276,241002,2,0,P|408:312|364:320,1,112.5,0|0,1:0|0:0,0:0:0:0:
216,264,241443,5,2,0:0:0:0:
216,264,241554,1,0,0:0:0:0:
216,264,241664,2,0,L|204:136,1,112.5,0|0,0:0|1:0,0:0:0:0:
340,112,242105,1,0,0:0:0:0:
216,264,242326,1,2,0:0:0:0:
100,192,242546,1,0,0:0:0:0:
216,264,242767,2,0,P|288:248|320:208,1,112.5,0|0,1:0|0:0,0:0:0:0:
196,116,243208,5,4,0:0:0:0:
124,256,243429,1,0,0:0:0:0:
244,188,243649,1,0,1:0:0:0:
224,344,243870,1,0,0:0:0:0:
72,184,244091,1,2,0:0:0:0:
300,296,244311,1,0,0:0:0:0:
292,116,244532,2,0,P|328:168|324:224,1,112.5,0|0,1:0|0:0,0:0:0:0:
244,188,244973,5,2,0:0:0:0:
244,188,245083,1,0,0:0:0:0:
244,188,245193,2,0,L|372:168,1,112.5,0|0,0:0|1:0,0:0:0:0:
468,56,245635,1,0,0:0:0:0:
356,172,245855,1,2,0:0:0:0:
484,268,246076,1,0,0:0:0:0:
244,188,246296,2,0,L|132:205,1,112.5,0|0,1:0|0:0,0:0:0:0:
356,172,246738,6,0,P|320:112|284:88,1,112.5,2|0,0:0|0:0,0:0:0:0:
320,272,247179,2,0,P|389:270|428:251,1,112.5,0|0,1:0|0:0,0:0:0:0:
244,188,247620,2,0,P|210:249|207:292,1,112.5,2|0,0:0|0:0,0:0:0:0:
108,176,248061,1,0,1:0:0:0:
124,148,248171,1,0,0:0:0:0:
132,116,248282,2,0,B|128:48|128:48|216:72|308:48,1,225,0|2,0:0|0:0,0:0:0:0:
340,344,249164,5,0,0:0:0:0:
400,200,249385,1,2,0:0:0:0:
468,340,249605,1,0,0:0:0:0:
276,288,249826,1,0,1:0:0:0:
488,192,250046,2,0,P|432:120|316:172,1,225,2|2,0:0|0:0,0:0:0:0:
184,80,250708,2,0,P|136:48|72:44,1,112.5,0|0,1:0|0:0,0:0:0:0:
240,228,251149,2,0,P|292:204|324:152,1,112.5,2|0,0:0|0:0,0:0:0:0:
268,320,251591,1,0,1:0:0:0:
236,136,251811,2,0,P|152:212|208:320,1,225,2|0,0:0|0:0,0:0:0:0:
332,248,252473,6,0,P|364:296|360:352,1,112.5,0|0,1:0|0:0,0:0:0:0:
388,104,252914,1,2,0:0:0:0:
332,248,253135,1,0,0:0:0:0:
288,96,253355,1,0,1:0:0:0:
268,320,253576,1,0,0:0:0:0:
96,256,253796,6,0,P|52:144|120:44,1,225,4|0,0:0|1:0,0:0:0:0:
96,256,254458,1,0,0:0:0:0:
176,152,254679,2,0,P|223:250|178:349,1,225,0|0,0:0|1:0,0:0:0:0:
176,152,255341,1,0,0:0:0:0:
368,88,255782,5,0,0:0:0:0:
368,88,256002,1,0,0:0:0:0:
172,232,257326,6,0,L|276:304,1,107.999996704102,4|0,0:0|0:0,0:0:0:0:
388,236,257767,1,0,1:0:0:0:
456,120,257988,1,0,0:0:0:0:
428,100,258098,1,0,0:0:0:0:
400,80,258208,1,0,1:0:0:0:
388,236,258429,2,0,L|404:288,1,53.9999983520508,0|0,1:0|0:0,0:0:0:0:
264,120,258760,2,0,L|268:184,1,53.9999983520508,0|4,0:0|0:0,0:0:0:0:
136,248,259311,5,0,0:0:0:0:
208,364,259532,1,0,1:0:0:0:
132,120,259752,1,0,0:0:0:0:
136,248,259973,1,0,1:0:0:0:
268,232,260193,1,0,0:0:0:0:
300,240,260304,1,0,0:0:0:0:
332,248,260414,2,0,L|292:140,1,107.999996704102,0|4,1:0|0:0,0:0:0:0:
364,360,261076,5,0,0:0:0:0:
468,284,261296,1,0,1:0:0:0:
236,340,261517,1,0,0:0:0:0:
204,328,261627,1,0,0:0:0:0:
172,320,261738,1,0,1:0:0:0:
116,180,261958,1,0,0:0:0:0:
144,160,262068,1,0,0:0:0:0:
176,168,262179,1,0,1:0:0:0:
208,176,262289,1,0,0:0:0:0:
240,188,262399,2,0,B|296:208|364:272|364:272|408:200,1,215.999993408203,4|0,0:0|0:0,0:0:0:0:
408,88,263061,5,0,1:0:0:0:
280,60,263282,1,0,0:0:0:0:
400,216,263502,2,0,L|492:308,1,107.999996704102,0|0,1:0|0:0,0:0:0:0:
352,324,263943,2,0,P|280:304|232:264,1,107.999996704102,0|0,1:0|0:0,0:0:0:0:
192,304,264274,1,0,0:0:0:0:
192,304,264385,6,0,L|184:188,1,107.999996704102,4|0,0:0|0:0,0:0:0:0:
100,72,264826,1,0,1:0:0:0:
244,112,265046,1,0,0:0:0:0:
272,128,265157,1,0,0:0:0:0:
300,144,265267,1,0,1:0:0:0:
404,252,265488,2,0,L|336:272,1,53.9999983520508,0|0,0:0|1:0,0:0:0:0:
424,88,265818,2,0,L|476:144,1,53.9999983520508,0|4,0:0|0:0,0:0:0:0:
244,112,266370,5,0,0:0:0:0:
116,96,266591,2,0,L|88:216,1,107.999996704102,0|0,1:0|0:0,0:0:0:0:
176,320,267032,1,0,1:0:0:0:
188,288,267142,1,0,0:0:0:0:
200,260,267252,1,0,0:0:0:0:
228,244,267363,1,0,0:0:0:0:
260,240,267473,1,0,1:0:0:0:
284,348,267693,2,0,P|364:276|344:172,1,215.999993408203,4|0,0:0|0:0,0:0:0:0:
236,76,268355,5,0,1:0:0:0:
104,148,268576,2,0,L|48:172,2,53.9999983520508,0|0|0,0:0|0:0|1:0,0:0:0:0:
244,200,269017,2,0,L|224:256,1,53.9999983520508,0|0,0:0|1:0,0:0:0:0:
398,139,269348,2,0,L|356:172,1,53.9999983520508,0|4,0:0|0:0,0:0:0:0:
408,128,269899,5,0,1:0:0:0:
363,261,270120,2,0,P|331:304|288:336,1,107.999996704102,0|0,0:0|0:0,0:0:0:0:
148,260,270561,1,2,0:0:0:0:
324,116,270782,1,0,0:0:0:0:
260,348,271002,1,2,0:0:0:0:
260,348,271113,1,0,0:0:0:0:
188,116,271443,5,4,0:0:0:0:
256,192,271554,12,0,276738,0:0:0:0:
