osu file format v12

[General]
AudioFilename: mazyokoi_op.mp3
AudioLeadIn: 0
PreviewTime: 80318
Countdown: 0
SampleSet: Soft
StackLeniency: 0.7
Mode: 0
LetterboxInBreaks: 1
WidescreenStoryboard: 0

[Editor]
DistanceSpacing: 1.2
BeatDivisor: 4
GridSize: 4
TimelineZoom: 1

[Metadata]
Title:Hanabira to Ribon
TitleUnicode:花びらとりぼん
Artist:Larval Stage Planning
ArtistUnicode:Larval Stage Planning
Creator:Sheryl
Version:Insane
Source:
Tags:
BeatmapID:400690
BeatmapSetID:164604

[Difficulty]
HPDrainRate:7
CircleSize:4
OverallDifficulty:7
ApproachRate:9
SliderMultiplier:1.7
SliderTickRate:1

[Events]
//Background and Video events
0,0,"343234.jpg",0,0
//Break Periods
2,113540,119905
//Storyboard Layer 0 (Background)
//Storyboard Layer 1 (Fail)
//Storyboard Layer 2 (Pass)
//Storyboard Layer 3 (Foreground)
//Storyboard Sound Samples
//Background Colour Transformations
3,100,163,162,255

[TimingPoints]
505,447.761194029851,4,2,1,40,1,0
2296,-100,4,2,3,40,0,0
4087,-100,4,2,3,35,0,0
4199,-100,4,2,3,40,0,0
5878,-100,4,2,3,30,0,0
5990,-100,4,2,3,40,0,0
9460,-100,4,2,3,30,0,0
9572,-100,4,2,3,40,0,0
11251,-100,4,2,3,35,0,0
11363,-100,4,2,3,40,0,0
13042,-100,4,2,3,35,0,0
13154,-100,4,2,3,40,0,0
14833,-100,4,2,3,30,0,0
14945,-100,4,2,3,40,0,0
18415,-100,4,2,3,35,0,0
18527,-100,4,2,3,40,0,0
20206,-100,4,2,3,30,0,0
20318,-100,4,2,3,40,0,0
23788,-100,4,2,3,45,0,0
25579,-100,4,2,3,50,0,0
27370,-100,4,2,3,55,0,0
28266,-100,4,2,3,50,0,0
28378,-100,4,2,3,55,0,0
29161,-100,4,2,3,45,0,0
29273,-100,4,2,3,55,0,0
30952,-100,4,2,1,50,0,1
31064,-100,4,2,1,60,0,0
37221,-100,4,2,3,50,0,0
37893,-100,4,2,1,60,0,0
44609,-100,4,2,2,50,0,0
44945,-100,4,2,1,60,0,0
45281,-100,4,2,1,50,0,0
45393,-100,4,2,1,60,0,0
51773,-100,4,2,3,60,0,0
52109,-100,4,2,1,60,0,0
52445,-100,4,2,1,50,0,0
52557,-100,4,2,1,60,0,0
56027,-100,4,2,1,50,0,0
56139,-100,4,2,1,60,0,0
56922,-100,4,2,1,50,0,0
57034,-100,4,2,1,60,0,0
59609,-100,4,2,1,50,0,0
59721,-100,4,2,1,70,0,0
68564,-100,4,2,0,50,0,0
70355,-100,4,2,1,70,0,0
77743,-100,4,2,1,60,0,0
81102,-100,4,2,1,60,0,1
81213,-100,4,2,1,80,0,1
88266,-100,4,2,1,60,0,1
88378,-100,4,2,1,80,0,1
95318,-100,4,2,1,80,0,0
95430,-100,4,2,1,60,0,1
95542,-100,4,2,1,80,0,1
102594,-100,4,2,1,60,0,1
102706,-100,4,2,1,80,0,1
108639,-100,4,2,3,60,0,1
109758,-100,4,2,1,80,0,1
113340,-100,4,2,1,40,0,0
120505,-83.3333333333333,4,2,1,80,0,1
134833,-83.3333333333333,4,2,1,60,0,1
134945,-83.3333333333333,4,2,1,80,0,1
145579,-83.3333333333333,4,2,1,50,0,1
145691,-83.3333333333333,4,2,1,80,0,1
146475,-83.3333333333333,4,2,1,50,0,1
146587,-83.3333333333333,4,2,1,80,0,1
149161,-100,4,2,1,60,0,0
149273,-100,4,2,1,70,0,0
158116,-100,4,2,3,60,0,0
160019,-100,4,2,1,70,0,0
164161,-100,4,2,3,50,0,0
164497,-100,4,2,1,70,0,0
170654,-125,4,2,1,50,0,0
170766,-125,4,2,1,50,0,0
172333,-125,4,2,0,50,0,0
172557,-125,4,2,1,50,0,0
174124,-125,4,2,0,50,0,0
174348,-125,4,2,1,50,0,0
174796,-125,4,2,0,50,0,0
176587,-125,4,2,1,50,0,0
177818,-100,4,2,1,40,0,0
177930,-100,4,2,1,50,0,0
183191,-100,4,2,1,60,0,0
184982,-100,4,2,1,60,0,1
185094,-100,4,2,1,80,0,1
192146,-100,4,2,1,60,0,1
192258,-100,4,2,1,80,0,1
199310,-100,4,2,1,60,0,1
199422,-100,4,2,1,80,0,1
206475,-100,4,2,1,60,0,0
206587,-100,4,2,1,40,0,0
208266,-100,4,2,1,30,0,0
210057,-100,4,2,1,20,0,0
211848,-100,4,2,1,10,0,0
213639,-100,4,2,3,30,0,0

[Colours]
Combo1 : 83,255,126
Combo2 : 255,140,198
Combo3 : 23,139,255

[HitObjects]
168,308,2296,6,0,P|204:328|248:328,1,85,8|0,0:0|0:0,0:0:0:0:
232,228,2743,1,0,0:0:0:0:
132,212,2967,1,0,0:0:0:0:
132,212,3079,1,0,0:0:0:0:
196,132,3303,1,0,0:0:0:0:
196,132,3415,1,0,0:0:0:0:
260,52,3639,2,0,P|224:32|180:32,1,85,0|0,0:0|0:0,0:0:0:0:
132,212,4087,5,8,0:0:0:0:
232,228,4310,1,0,0:0:0:0:
296,148,4534,1,0,0:0:0:0:
260,52,4758,1,0,0:0:0:0:
260,52,4870,1,0,0:0:0:0:
360,68,5094,1,0,0:0:0:0:
360,68,5206,1,0,0:0:0:0:
396,164,5430,2,0,P|376:212|352:232,1,85
460,84,5878,6,0,P|488:116|496:160,1,85,8|0,0:0|0:0,0:0:0:0:
396,164,6325,1,0,0:0:0:0:
296,148,6549,1,0,0:0:0:0:
296,148,6661,1,0,0:0:0:0:
208,200,6885,1,0,0:0:0:0:
208,200,6997,1,0,0:0:0:0:
108,184,7221,2,0,P|80:152|72:108,1,85
136,32,7669,6,0,P|164:64|172:108,1,85
108,184,8116,1,0,0:0:0:0:
136,280,8340,1,0,0:0:0:0:
136,280,8452,1,0,0:0:0:0:
52,340,8676,1,0,0:0:0:0:
52,340,8788,1,0,0:0:0:0:
224,340,9012,2,0,L|328:320,1,85
476,232,9460,5,8,0:0:0:0:
376,260,9684,1,0,0:0:0:0:
404,164,9907,1,0,0:0:0:0:
328,96,10131,2,0,L|292:64,1,42.5
240,156,10467,1,0,0:0:0:0:
240,156,10579,2,0,L|156:172,2,85
64,140,11251,6,0,P|56:188|72:224,1,85,8|0,0:0|0:0,0:0:0:0:
156,171,11699,1,0,0:0:0:0:
64,140,11922,2,0,L|40:96,1,42.5
140,72,12258,1,0,0:0:0:0:
140,72,12370,2,0,P|192:76|224:96,2,85
80,240,13042,5,8,0:0:0:0:
156,171,13266,1,0,0:0:0:0:
176,272,13490,1,0,0:0:0:0:
252,204,13713,2,0,L|260:152,1,42.5
348,108,14049,1,0,0:0:0:0:
348,108,14161,2,0,L|336:200,2,85
472,36,14833,5,8,0:0:0:0:
448,136,15057,1,0,0:0:0:0:
348,108,15281,1,0,0:0:0:0:
258,161,15505,2,0,L|252:204,1,42.5
164,260,15840,1,0,0:0:0:0:
164,260,15952,2,0,L|180:172,2,85
88,328,16624,6,0,P|160:360|240:328,1,170,8|0,0:0|0:0,0:0:0:0:
164,260,17296,1,0,0:0:0:0:
164,260,17407,2,0,P|112:228|48:232,1,127.5
88,328,17967,1,0,0:0:0:0:
240,192,18191,1,0,0:0:0:0:
164,260,18415,6,0,P|140:176|184:108,1,170,8|0,0:0|0:0,0:0:0:0:
240,192,19087,1,0,0:0:0:0:
240,192,19199,2,0,P|284:232|352:240,1,127.5
332,140,19758,1,0,0:0:0:0:
164,260,19982,1,0,0:0:0:0:
260,120,20206,6,0,P|320:64|396:104,1,170,8|0,0:0|0:0,0:0:0:0:
431,220,20878,1,0,0:0:0:0:
431,220,20990,2,0,L|332:140,1,127.5
320,40,21549,1,0,0:0:0:0:
344,244,21773,1,0,0:0:0:0:
260,120,21997,6,0,P|228:92|184:80,1,85
104,140,22445,2,0,P|136:168|180:180,1,85
176,179,22781,2,0,P|228:196|268:256,1,127.5
172,284,23340,1,0,0:0:0:0:
187,80,23564,1,0,0:0:0:0:
16,196,23788,5,8,0:0:0:0:
68,284,24012,2,0,L|68:372,1,85
172,284,24460,2,0,L|234:221,1,85
124,208,24907,2,0,L|124:123,2,85
32,64,25579,5,8,0:0:0:0:
188,80,25803,2,0,L|248:140,1,85
420,172,26251,2,0,L|335:172,1,85
264,312,26699,2,0,L|264:220,2,85
316,88,27370,6,0,P|388:40|472:48,1,170,8|0,0:0|0:0,0:0:0:0:
316,88,28042,1,0,0:0:0:0:
419,172,28266,2,0,P|351:219|267:213,1,170,8|0,0:0|0:0,0:0:0:0:
419,172,28937,1,0,0:0:0:0:
316,88,29161,5,8,0:0:0:0:
283,79,29272,1,0,0:0:0:0:
249,79,29384,1,0,0:0:0:0:
216,87,29496,1,0,0:0:0:0:
186,103,29608,1,0,0:0:0:0:
161,126,29720,1,0,0:0:0:0:
143,155,29832,1,0,0:0:0:0:
132,187,29944,1,0,0:0:0:0:
129,221,30057,6,0,P|128:244|132:264,1,42.5,0|0,3:0|0:0,0:0:0:0:
152,292,30281,2,0,L|215:351,1,85,0|0,0:0|3:0,0:0:0:0:
252,328,30616,2,0,L|252:372,2,42.5
337,255,30952,6,0,P|307:225|266:212,1,85,4|0,0:0|0:0,0:0:0:0:
252,328,31400,1,2,0:0:0:0:
360,156,31624,1,0,0:0:0:0:
337,255,31848,6,0,P|416:236|460:156,1,170,0|2,0:0|0:0,0:0:0:0:
360,156,32519,1,0,0:0:0:0:
257,147,32743,2,0,P|299:75|380:56,1,170,0|2,0:0|0:0,0:0:0:0:
360,156,33415,1,0,0:0:0:0:
257,147,33639,2,0,L|176:180,1,85,0|0,0:0|0:0,0:0:0:0:
52,256,34087,6,0,P|28:212|28:172,1,85,2|0,0:0|0:0,0:0:0:0:
128,188,34534,2,0,P|152:252|104:344,1,170,0|2,0:0|0:0,0:0:0:0:
52,256,35206,1,0,0:0:0:0:
128,188,35430,6,0,L|196:120,1,85,0|0,0:0|0:0,0:0:0:0:
348,100,35878,2,0,L|280:168,1,85,2|0,0:0|0:0,0:0:0:0:
240,276,36325,2,0,P|280:344|376:356,1,170,0|2,0:0|0:0,0:0:0:0:
440,292,36997,1,0,0:0:0:0:
416,192,37221,1,2,0:0:0:0:
339,260,37445,1,2,0:0:0:0:
339,260,37557,1,2,0:0:0:0:
339,260,37669,1,2,0:0:0:0:
512,224,37893,1,0,0:0:0:0:
339,260,38116,6,0,P|316:168|360:104,1,170,0|2,0:0|0:0,0:0:0:0:
416,192,38788,1,0,0:0:0:0:
248,240,39012,2,0,P|248:136|288:68,1,170,0|2,0:0|0:0,0:0:0:0:
416,192,39684,1,0,0:0:0:0:
248,240,39907,2,0,L|152:268,1,85,0|0,0:0|0:0,0:0:0:0:
48,356,40355,2,0,L|144:328,1,85,2|0,0:0|0:0,0:0:0:0:
232,344,40803,1,0,0:0:0:0:
64,252,41027,1,0,0:0:0:0:
64,252,41139,1,0,0:0:0:0:
64,252,41251,1,2,0:0:0:0:
164,268,41475,1,0,0:0:0:0:
24,156,41699,6,0,P|16:116|24:71,1,85,0|0,0:0|0:0,0:0:0:0:
116,116,42146,2,0,P|184:152|268:120,1,170,2|0,0:0|0:0,0:0:0:0:
196,48,42818,1,0,0:0:0:0:
266,121,43042,1,2,0:0:0:0:
116,116,43266,5,0,0:0:0:0:
25,162,43490,1,0,0:0:0:0:
43,262,43714,1,0,0:0:0:0:
144,276,43938,1,2,0:0:0:0:
188,185,44161,1,0,0:0:0:0:
25,162,44385,1,0,0:0:0:0:
144,276,44609,1,2,0:0:0:0:
144,276,44721,1,2,0:0:0:0:
144,276,44833,2,0,P|192:288|232:272,1,85,2|0,0:0|0:0,0:0:0:0:
388,228,45281,6,0,P|340:216|300:232,1,85,4|0,0:0|0:0,0:0:0:0:
348,320,45728,2,0,P|408:324|484:244,2,170,2|0|2,0:0|0:0|0:0,0:0:0:0:
388,228,46848,1,0,0:0:0:0:
456,152,47072,2,0,L|456:64,1,85,0|0,0:0|0:0,0:0:0:0:
388,228,47519,1,2,0:0:0:0:
456,67,47743,1,0,0:0:0:0:
372,127,47967,2,0,P|297:159|233:109,1,170,0|2,0:0|0:0,0:0:0:0:
372,127,48639,1,0,0:0:0:0:
208,40,48863,2,0,P|172:68|160:108,1,85,0|0,0:0|0:0,0:0:0:0:
112,248,49310,2,0,P|148:220|160:180,1,85,2|0,0:0|0:0,0:0:0:0:
60,156,49758,6,0,P|12:216|24:304,1,170,0|2,0:0|0:0,0:0:0:0:
116,348,50430,1,0,0:0:0:0:
253,255,50654,2,0,B|198:268|158:212|158:212|112:248,1,170,0|2,0:0|0:0,0:0:0:0:
236,172,51325,1,0,0:0:0:0:
328,216,51549,1,0,0:0:0:0:
432,216,51773,1,2,0:0:0:0:
432,216,51885,1,2,0:0:0:0:
432,216,51997,1,2,0:0:0:0:
253,255,52221,1,0,0:0:0:0:
380,152,52445,6,0,P|424:136|468:144,1,85,4|0,0:0|0:0,0:0:0:0:
480,280,52893,2,0,P|436:296|396:288,1,85,2|0,0:0|0:0,0:0:0:0:
253,255,53340,2,0,P|168:256|112:320,1,170,0|2,0:0|0:0,0:0:0:0:
212,348,54012,1,0,0:0:0:0:
220,176,54236,2,0,P|172:180|72:244,1,170,0|2,0:0|0:0,0:0:0:0:
212,348,54907,1,0,0:0:0:0:
220,176,55131,2,0,L|220:80,1,85,0|0,0:0|0:0,0:0:0:0:
304,236,55579,2,0,L|304:321,1,85,2|0,0:0|0:0,0:0:0:0:
372,160,56027,6,0,P|440:128|528:168,2,170,4|2|4,0:0|0:0|0:0,0:0:0:0:
304,236,57146,1,0,0:0:0:0:
428,309,57370,2,0,P|444:270|447:228,1,85,2|0,0:0|0:0,0:0:0:0:
304,236,57818,5,0,0:0:0:0:
304,236,57930,1,0,0:0:0:0:
304,236,58042,1,0,0:0:0:0:
140,272,58266,1,0,0:0:0:0:
140,272,58378,1,0,0:0:0:0:
380,216,58602,1,0,0:0:0:0:
364,188,58713,1,0,0:0:0:0:
336,168,58825,1,0,0:0:0:0:
304,160,58937,1,0,0:0:0:0:
272,168,59049,1,0,0:0:0:0:
244,188,59161,1,0,0:0:0:0:
232,220,59273,1,0,0:0:0:0:
220,252,59385,1,0,0:0:0:0:
216,284,59497,1,0,0:0:0:0:
200,316,59609,6,0,P|160:344|120:344,1,85,4|0,0:0|0:0,0:0:0:0:
304,236,60057,2,0,L|304:321,1,85,2|0,0:0|0:0,0:0:0:0:
65,301,60505,2,0,P|98:275|140:272,1,85,0|0,0:0|0:0,0:0:0:0:
344,168,60952,2,0,L|344:83,1,85,2|0,0:0|0:0,0:0:0:0:
200,316,61400,5,0,0:0:0:0:
200,316,61624,1,0,0:0:0:0:
32,136,61848,2,0,L|32:228,1,85,2|0,0:0|0:0,0:0:0:0:
300,268,62296,1,0,0:0:0:0:
300,268,62519,1,0,0:0:0:0:
104,320,62743,2,0,L|104:235,1,85,2|0,0:0|0:0,0:0:0:0:
184,104,63191,6,0,P|256:60|332:100,1,170,0|2,0:0|0:0,0:0:0:0:
352,192,63863,1,0,0:0:0:0:
313,283,64087,2,0,P|254:226|260:144,1,170,0|2,0:0|0:0,0:0:0:0:
348,92,64758,1,0,0:0:0:0:
416,272,64982,2,0,P|412:320|392:352,1,85,0|0,0:0|0:0,0:0:0:0:
312,284,65430,2,0,P|275:263|233:261,1,85,2|0,0:0|0:0,0:0:0:0:
0,265,65878,2,0,P|59:317|140:300,1,170,0|2,0:0|0:0,0:0:0:0:
84,143,66549,1,0,0:0:0:0:
84,143,66661,1,0,0:0:0:0:
84,143,66773,6,0,L|84:228,2,85,0|0|2,0:0|0:0|0:0,0:0:0:0:
168,84,67445,1,0,0:0:0:0:
244,152,67669,2,0,P|308:188|396:160,1,170,0|2,0:0|0:0,0:0:0:0:
324,88,68340,1,0,0:0:0:0:
160,212,68564,5,2,0:0:0:0:
160,248,69012,1,2,0:0:0:0:
180,276,69460,1,2,0:0:0:0:
180,308,69907,1,2,0:0:0:0:
200,336,70355,6,0,P|244:364|356:320,1,170,4|2,0:0|0:0,0:0:0:0:
368,228,71027,1,0,0:0:0:0:
275,180,71251,2,0,P|266:222|271:263,1,85,0|0,0:0|0:0,0:0:0:0:
348,330,71699,1,2,0:0:0:0:
275,180,71922,1,0,0:0:0:0:
176,100,72146,2,0,P|108:68|24:108,1,170,0|2,0:0|0:0,0:0:0:0:
176,100,72818,1,0,0:0:0:0:
28,104,73042,5,0,0:0:0:0:
104,172,73266,2,0,P|112:216|104:260,2,85,0|2|0,0:0|0:0|0:0,0:0:0:0:
32,324,73937,2,0,P|100:356|184:316,1,170,0|2,0:0|0:0,0:0:0:0:
264,256,74609,1,0,0:0:0:0:
264,256,74721,1,0,0:0:0:0:
264,256,74833,2,0,P|304:232|344:224,1,85,0|0,0:0|0:0,0:0:0:0:
440,252,75281,2,0,P|440:200|424:168,1,85,2|0,0:0|0:0,0:0:0:0:
336,124,75728,1,0,0:0:0:0:
372,292,75952,5,0,0:0:0:0:
395,316,76063,1,0,0:0:0:0:
426,328,76175,1,0,0:0:0:0:
460,326,76287,1,0,0:0:0:0:
489,310,76399,1,0,0:0:0:0:
509,283,76511,1,0,0:0:0:0:
512,250,76623,1,0,0:0:0:0:
508,217,76735,1,0,0:0:0:0:
487,191,76847,1,0,0:0:0:0:
456,176,76960,1,0,0:0:0:0:
428,156,77072,6,0,P|424:128|428:104,1,42.5,0|0,3:0|0:0,0:0:0:0:
448,80,77296,2,0,L|356:44,1,85,0|0,0:0|3:0,0:0:0:0:
232,100,77743,5,0,0:0:0:0:
204,119,77854,1,0,0:0:0:0:
176,139,77966,1,0,0:0:0:0:
184,172,78079,1,0,0:0:0:0:
156,192,78190,1,0,0:0:0:0:
129,212,78302,1,0,0:0:0:0:
102,232,78414,1,0,0:0:0:0:
88,136,78639,1,0,0:0:0:0:
272,176,78863,1,0,0:0:0:0:
272,176,78975,1,0,0:0:0:0:
272,176,79087,1,0,0:0:0:0:
272,176,79199,1,0,0:0:0:0:
272,176,79310,6,0,L|272:228,2,42.5
28,196,79758,1,0,0:0:0:0:
204,276,79982,1,0,0:0:0:0:
72,336,80206,1,0,0:0:0:0:
72,336,80318,1,0,0:0:0:0:
72,336,80430,1,0,0:0:0:0:
72,336,80542,1,0,0:0:0:0:
72,336,80654,1,0,0:0:0:0:
276,320,80878,1,0,0:0:0:0:
276,320,80990,1,0,0:0:0:0:
276,320,81102,6,0,P|352:312|408:324,1,127.5,4|0,0:0|0:0,0:0:0:0:
440,344,81549,1,2,0:0:0:0:
440,344,81773,2,0,P|424:264|432:208,1,127.5
456,184,82221,1,0,0:0:0:0:
504,92,82445,2,0,P|448:80|416:88,1,85,2|0,0:0|0:0,0:0:0:0:
296,172,82893,2,0,P|244:200|168:188,1,127.5
140,164,83340,1,2,0:0:0:0:
224,104,83564,2,0,P|244:88|264:80,1,42.5
304,80,83788,2,0,P|372:96|432:80,1,127.5
468,72,84236,1,2,0:0:0:0:
304,80,84460,1,0,0:0:0:0:
468,160,84684,6,0,P|500:224|484:288,1,127.5
464,312,85131,1,2,0:0:0:0:
400,236,85355,1,0,0:0:0:0:
308,192,85579,2,0,P|268:184|216:192,1,85
176,280,86027,2,0,P|216:288|268:280,1,85,2|0,0:0|0:0,0:0:0:0:
224,188,86475,2,0,P|172:176|104:204,1,127.5
80,236,86922,1,2,0:0:0:0:
92,336,87146,1,0,0:0:0:0:
176,280,87370,6,0,L|176:136,1,127.5
192,112,87818,2,0,P|232:80|272:68,1,85,2|0,0:0|0:0,0:0:0:0:
276,172,88266,5,4,0:0:0:0:
192,112,88490,1,0,0:0:0:0:
348,144,88713,1,2,0:0:0:0:
356,244,88937,1,0,0:0:0:0:
356,244,89049,1,0,0:0:0:0:
356,244,89161,2,0,P|356:288|340:332,1,85
276,172,89609,2,0,P|276:128|292:84,1,85,2|0,0:0|0:0,0:0:0:0:
356,244,90057,5,0,0:0:0:0:
256,272,90281,1,0,0:0:0:0:
184,196,90505,2,0,P|184:144|192:104,1,85,2|0,0:0|0:0,0:0:0:0:
328,328,90952,6,0,P|280:360|200:344,1,127.5
176,332,91400,1,2,0:0:0:0:
176,332,91624,1,0,0:0:0:0:
356,244,91848,2,0,P|396:272|416:308,1,85
252,352,92296,1,2,0:0:0:0:
136,264,92519,1,0,0:0:0:0:
328,328,92743,1,0,0:0:0:0:
144,184,92967,1,0,0:0:0:0:
356,244,93191,1,2,0:0:0:0:
204,128,93415,1,0,0:0:0:0:
316,140,93639,5,0,0:0:0:0:
316,140,93751,1,0,0:0:0:0:
316,140,93863,1,0,0:0:0:0:
316,140,93975,1,0,0:0:0:0:
316,140,94087,1,0,0:0:0:0:
248,236,94310,1,0,0:0:0:0:
222,269,94421,1,0,0:0:0:0:
186,291,94533,1,0,0:0:0:0:
144,299,94645,1,0,0:0:0:0:
103,292,94757,1,0,0:0:0:0:
66,270,94869,1,0,0:0:0:0:
40,237,94981,1,0,0:0:0:0:
27,197,95093,1,0,0:0:0:0:
30,155,95205,1,0,0:0:0:0:
47,116,95317,1,0,0:0:0:0:
77,86,95430,6,0,P|120:116|204:120,1,127.5,4|0,0:0|0:0,0:0:0:0:
232,100,95878,2,0,P|264:64|304:48,1,85,2|0,0:0|0:0,0:0:0:0:
324,148,96325,1,0,0:0:0:0:
164,32,96549,1,0,0:0:0:0:
248,180,96773,2,0,L|248:284,1,85,2|0,0:0|0:0,0:0:0:0:
188,348,97221,2,0,P|260:368|312:344,1,127.5
336,320,97669,1,2,0:0:0:0:
248,265,97893,1,0,0:0:0:0:
148,256,98116,6,0,P|112:280|88:324,1,85
188,348,98564,1,2,0:0:0:0:
336,320,98788,1,0,0:0:0:0:
148,256,99012,6,0,P|108:232|80:156,1,127.5
88,116,99460,1,2,0:0:0:0:
180,160,99684,1,0,0:0:0:0:
180,160,99796,1,0,0:0:0:0:
180,160,99907,2,0,P|224:184|272:192,1,85
308,176,100243,1,0,0:0:0:0:
308,176,100355,2,0,P|349:186|385:207,1,85,2|0,0:0|0:0,0:0:0:0:
412,252,100691,1,0,0:0:0:0:
412,252,100803,6,0,L|496:204,1,85
312,272,101251,1,2,0:0:0:0:
384,356,101475,1,0,0:0:0:0:
384,356,101587,1,0,0:0:0:0:
384,356,101699,2,0,L|468:308,1,85
280,368,102146,1,2,0:0:0:0:
412,252,102370,1,0,0:0:0:0:
212,288,102594,6,0,L|76:328,1,127.5,4|0,0:0|0:0,0:0:0:0:
48,316,103042,1,2,0:0:0:0:
48,316,103266,1,0,0:0:0:0:
200,208,103490,6,0,P|252:216|284:248,1,85
120,240,103937,2,0,P|68:232|36:200,1,85,2|0,0:0|0:0,0:0:0:0:
120,144,104385,2,0,P|160:112|276:140,2,170,0|2|0,0:0|0:0|0:0,0:0:0:0:
200,208,105505,1,0,0:0:0:0:
200,208,105616,1,0,0:0:0:0:
200,208,105728,1,2,0:0:0:0:
300,232,105952,1,0,0:0:0:0:
380,296,106176,6,0,P|404:232|388:176,1,127.5
360,144,106624,1,2,0:0:0:0:
360,144,106848,1,0,0:0:0:0:
300,232,107072,2,0,P|236:256|180:240,1,127.5
148,212,107520,1,2,0:0:0:0:
148,212,107744,1,0,0:0:0:0:
232,152,107967,2,0,P|200:120|160:108,2,85,0|0|2,0:0|0:0|0:0,0:0:0:0:
148,212,108639,6,0,L|104:240,1,42.5,2|0,0:0|0:0,0:0:0:0:
36,324,108863,2,0,L|71:301,1,42.5,2|0,0:0|0:0,0:0:0:0:
96,188,109087,2,0,L|60:210,1,42.5,2|0,0:0|0:0,0:0:0:0:
84,344,109310,2,0,L|168:296,1,85,2|0,0:0|0:0,0:0:0:0:
324,188,109758,6,0,P|388:188|440:232,1,127.5
444,268,110206,1,2,0:0:0:0:
324,188,110430,1,0,0:0:0:0:
356,284,110654,1,0,0:0:0:0:
420,172,110878,1,0,0:0:0:0:
268,260,111102,1,2,0:0:0:0:
500,208,111325,1,0,0:0:0:0:
360,104,111549,5,0,0:0:0:0:
316,104,111661,1,0,0:0:0:0:
276,116,111773,1,0,0:0:0:0:
244,148,111885,1,0,0:0:0:0:
212,180,111997,1,0,0:0:0:0:
176,196,112109,1,0,0:0:0:0:
132,200,112221,1,0,0:0:0:0:
92,188,112333,1,0,0:0:0:0:
56,164,112445,1,0,0:0:0:0:
140,68,112669,1,0,0:0:0:0:
328,200,112893,1,0,0:0:0:0:
365,218,113004,1,0,0:0:0:0:
406,218,113116,1,0,0:0:0:0:
443,198,113228,1,0,0:0:0:0:
466,163,113340,5,4,1:2:0:0:
392,92,120505,5,4,0:0:0:0:
428,112,120616,1,0,0:0:0:0:
456,144,120728,1,0,0:0:0:0:
468,184,120840,1,0,0:0:0:0:
464,224,120952,1,2,0:0:0:0:
452,264,121064,1,0,0:0:0:0:
424,296,121176,1,0,0:0:0:0:
384,312,121288,1,0,0:0:0:0:
344,312,121400,1,0,0:0:0:0:
304,296,121512,1,0,0:0:0:0:
268,272,121624,1,0,0:0:0:0:
228,264,121736,1,0,0:0:0:0:
188,272,121848,2,0,L|128:300,3,50.9999984436036,2|0|0|0,0:0|0:0|0:0|0:0,0:0:0:0:
100,284,122296,5,0,0:0:0:0:
68,260,122407,1,0,0:0:0:0:
52,224,122519,1,0,0:0:0:0:
48,184,122631,1,0,0:0:0:0:
56,144,122743,1,2,0:0:0:0:
76,108,122855,1,0,0:0:0:0:
108,80,122967,1,0,0:0:0:0:
148,72,123079,1,0,0:0:0:0:
184,92,123191,1,0,0:0:0:0:
220,112,123303,1,0,0:0:0:0:
260,112,123415,1,0,0:0:0:0:
300,108,123527,1,0,0:0:0:0:
336,92,123639,2,0,L|388:56,3,50.9999984436036,2|0|0|0,0:0|0:0|0:0|0:0,0:0:0:0:
356,168,124087,6,0,L|314:197,3,50.9999984436036,0|0|0|0,2:0|0:0|0:0|0:0,0:0:0:0:
436,176,124534,2,0,L|477:146,3,50.9999984436036,2|0|0|0,0:0|0:0|0:0|0:0,0:0:0:0:
384,256,124982,2,0,L|425:285,3,50.9999984436036,0|0|0|0,0:0|0:0|0:0|0:0,0:0:0:0:
292,228,125430,2,0,L|250:198,3,50.9999984436036,2|0|0|0,0:0|0:0|0:0|0:0,0:0:0:0:
200,328,125878,2,0,L|158:357,3,50.9999984436036,0|0|0|0,0:0|0:0|0:0|0:0,0:0:0:0:
84,244,126325,2,0,L|42:214,3,50.9999984436036,2|0|0|0,0:0|0:0|0:0|0:0,0:0:0:0:
196,176,126773,2,0,L|237:146,3,50.9999984436036,0|0|0|0,0:0|0:0|0:0|0:0,0:0:0:0:
84,244,127221,2,0,L|42:273,3,50.9999984436036,2|0|0|0,0:0|0:0|0:0|0:0,0:0:0:0:
112,164,127669,5,0,0:0:0:0:
128,128,127781,1,0,0:0:0:0:
160,100,127893,1,0,0:0:0:0:
200,92,128005,1,0,0:0:0:0:
240,104,128116,1,2,0:0:0:0:
268,132,128228,1,0,0:0:0:0:
292,168,128340,1,0,0:0:0:0:
320,200,128452,1,0,0:0:0:0:
360,212,128563,1,0,0:0:0:0:
400,208,128675,1,0,0:0:0:0:
436,184,128787,1,0,0:0:0:0:
460,152,128899,1,0,0:0:0:0:
464,112,129012,2,0,L|464:52,3,50.9999984436036,2|0|0|0,0:0|0:0|0:0|0:0,0:0:0:0:
376,68,129460,5,0,0:0:0:0:
360,104,129572,1,0,0:0:0:0:
328,132,129684,1,0,0:0:0:0:
288,140,129796,1,0,0:0:0:0:
248,128,129907,1,2,0:0:0:0:
220,100,130019,1,0,0:0:0:0:
196,64,130131,1,0,0:0:0:0:
168,32,130243,1,0,0:0:0:0:
128,20,130354,1,0,0:0:0:0:
88,24,130466,1,0,0:0:0:0:
52,48,130578,1,0,0:0:0:0:
28,80,130690,1,0,0:0:0:0:
24,120,130803,2,0,L|24:171,3,50.9999984436036,2|0|0|0,0:0|0:0|0:0|0:0,0:0:0:0:
44,204,131251,5,0,0:0:0:0:
68,240,131363,1,0,0:0:0:0:
100,264,131475,1,0,0:0:0:0:
136,280,131587,1,0,0:0:0:0:
176,280,131699,1,2,0:0:0:0:
216,268,131810,1,0,0:0:0:0:
248,244,131922,1,0,0:0:0:0:
268,208,132034,1,0,0:0:0:0:
260,168,132146,1,0,0:0:0:0:
228,144,132258,1,0,0:0:0:0:
188,140,132370,1,0,0:0:0:0:
156,164,132482,1,0,0:0:0:0:
148,204,132594,1,2,0:0:0:0:
164,240,132706,1,0,0:0:0:0:
196,268,132818,1,0,0:0:0:0:
232,288,132930,1,0,0:0:0:0:
272,288,133042,5,0,0:0:0:0:
312,276,133154,1,0,0:0:0:0:
340,248,133266,1,0,0:0:0:0:
360,212,133378,1,0,0:0:0:0:
388,184,133490,1,2,0:0:0:0:
428,172,133602,1,0,0:0:0:0:
468,180,133713,1,0,0:0:0:0:
492,212,133825,1,0,0:0:0:0:
504,252,133937,1,0,0:0:0:0:
488,288,134049,1,0,0:0:0:0:
452,308,134161,1,0,0:0:0:0:
412,304,134273,1,0,0:0:0:0:
376,288,134385,1,2,0:0:0:0:
348,260,134497,1,0,0:0:0:0:
332,220,134609,1,0,0:0:0:0:
320,180,134721,1,0,0:0:0:0:
296,148,134833,6,0,L|252:104,3,50.9999984436036,4|0|0|0,0:0|0:0|0:0|0:0,0:0:0:0:
164,104,135281,2,0,L|127:67,3,50.9999984436036,2|0|0|0,0:0|0:0|0:0|0:0,0:0:0:0:
32,64,135728,1,0,0:0:0:0:
24,104,135840,1,0,0:0:0:0:
28,144,135952,1,0,0:0:0:0:
44,180,136064,1,0,0:0:0:0:
72,212,136176,1,2,0:0:0:0:
104,232,136288,1,0,0:0:0:0:
144,240,136400,1,0,0:0:0:0:
184,240,136512,1,0,0:0:0:0:
224,228,136624,6,0,L|272:192,3,50.9999984436036
352,184,137072,2,0,L|392:153,3,50.9999984436036,2|0|0|0,0:0|0:0|0:0|0:0,0:0:0:0:
440,80,137519,1,0,0:0:0:0:
404,64,137631,1,0,0:0:0:0:
364,52,137743,1,0,0:0:0:0:
324,56,137855,1,0,0:0:0:0:
284,72,137967,1,2,0:0:0:0:
252,96,138079,1,0,0:0:0:0:
232,132,138191,1,0,0:0:0:0:
224,172,138303,1,0,0:0:0:0:
208,208,138415,6,0,L|172:252,3,50.9999984436036
140,268,138863,1,2,0:0:0:0:
140,268,138975,1,0,0:0:0:0:
140,268,139087,2,0,L|84:252,1,50.9999984436036
8,164,139310,5,0,0:0:0:0:
8,164,139422,1,0,0:0:0:0:
8,164,139534,2,0,L|64:180,1,50.9999984436036
152,136,139758,5,2,0:0:0:0:
152,136,139870,1,0,0:0:0:0:
152,136,139982,2,0,L|136:192,1,50.9999984436036
8,300,140206,5,0,0:0:0:0:
8,300,140318,1,0,0:0:0:0:
8,300,140430,2,0,L|24:244,1,50.9999984436036
68,88,140654,5,2,0:0:0:0:
68,88,140766,1,0,0:0:0:0:
68,88,140878,2,0,L|84:32,1,50.9999984436036
240,48,141101,5,0,0:0:0:0:
240,48,141213,1,0,0:0:0:0:
240,48,141325,2,0,L|224:104,1,50.9999984436036
180,252,141549,5,2,0:0:0:0:
180,252,141661,1,0,0:0:0:0:
180,252,141773,2,0,L|164:308,1,50.9999984436036
296,192,141997,5,0,0:0:0:0:
333,179,142108,1,0,0:0:0:0:
364,152,142220,1,0,0:0:0:0:
379,114,142332,1,0,0:0:0:0:
378,74,142444,1,2,0:0:0:0:
359,38,142556,1,0,0:0:0:0:
326,14,142668,1,0,0:0:0:0:
287,5,142780,1,0,0:0:0:0:
247,15,142892,1,0,0:0:0:0:
215,40,143004,1,0,0:0:0:0:
198,76,143116,1,0,0:0:0:0:
197,116,143228,1,0,0:0:0:0:
213,154,143340,2,0,P|232:173|258:187,3,50.9999984436036,2|0|0|0,0:0|0:0|0:0|0:0,0:0:0:0:
296,192,143788,5,0,0:0:0:0:
330,211,143900,1,0,0:0:0:0:
353,245,144012,1,0,0:0:0:0:
360,284,144124,1,0,0:0:0:0:
349,324,144236,1,2,0:0:0:0:
322,355,144348,1,0,0:0:0:0:
285,371,144460,1,0,0:0:0:0:
245,370,144572,1,0,0:0:0:0:
209,351,144684,1,0,0:0:0:0:
183,320,144796,1,0,0:0:0:0:
174,281,144908,1,0,0:0:0:0:
182,241,145019,1,0,0:0:0:0:
204,208,145131,2,0,P|232:188|264:188,3,50.9999984436036,2|0|0|0,0:0|0:0|0:0|0:0,0:0:0:0:
288,188,145579,5,4,0:0:0:0:
324,208,145691,1,0,0:0:0:0:
364,216,145803,1,0,0:0:0:0:
404,204,145915,1,0,0:0:0:0:
436,180,146027,1,2,0:0:0:0:
452,140,146139,1,0,0:0:0:0:
456,100,146251,1,0,0:0:0:0:
444,60,146363,1,0,0:0:0:0:
412,32,146475,5,4,0:0:0:0:
372,28,146587,1,0,0:0:0:0:
332,36,146699,1,0,0:0:0:0:
300,60,146810,1,0,0:0:0:0:
268,84,146922,1,2,0:0:0:0:
228,92,147034,1,0,0:0:0:0:
188,88,147146,1,0,0:0:0:0:
148,72,147258,1,0,0:0:0:0:
112,56,147370,6,0,L|48:56,2,50.9999984436036
208,180,147818,1,0,0:0:0:0:
208,180,147930,1,0,0:0:0:0:
380,288,148154,1,0,0:0:0:0:
351,317,148265,1,0,0:0:0:0:
318,341,148377,1,0,0:0:0:0:
281,358,148489,1,0,0:0:0:0:
242,367,148601,1,0,0:0:0:0:
201,369,148713,1,0,0:0:0:0:
161,364,148825,1,0,0:0:0:0:
122,350,148937,1,0,0:0:0:0:
87,330,149049,1,0,0:0:0:0:
64,304,149161,6,0,P|72:264|60:208,1,85,4|0,0:0|0:0,0:0:0:0:
8,60,149609,2,0,P|1:101|9:143,1,85,2|0,0:0|0:0,0:0:0:0:
200,96,150057,2,0,P|241:89|283:97,1,85,0|0,0:0|0:0,0:0:0:0:
472,148,150505,2,0,P|430:154|388:146,1,85,2|0,0:0|0:0,0:0:0:0:
432,56,150952,5,0,0:0:0:0:
432,56,151176,1,0,0:0:0:0:
304,184,151400,2,0,L|304:280,1,85,2|0,0:0|0:0,0:0:0:0:
472,148,151848,1,0,0:0:0:0:
472,148,152072,1,0,0:0:0:0:
336,212,152296,2,0,L|336:308,1,85,2|0,0:0|0:0,0:0:0:0:
380,116,152743,6,0,P|308:112|236:180,1,170,0|2,0:0|0:0,0:0:0:0:
196,268,153415,1,0,0:0:0:0:
152,360,153639,2,0,P|224:364|296:296,1,170,0|2,0:0|0:0,0:0:0:0:
336,212,154310,1,0,0:0:0:0:
168,148,154534,6,0,P|120:128|76:132,1,85
108,228,154982,2,0,P|156:248|200:244,1,85,2|0,0:0|0:0,0:0:0:0:
168,148,155430,1,0,0:0:0:0:
108,228,155654,1,0,0:0:0:0:
148,68,155878,1,2,0:0:0:0:
128,308,156102,1,0,0:0:0:0:
232,88,156325,6,0,P|272:64|320:56,1,85
410,30,156773,2,0,P|411:72|396:112,1,85,2|0,0:0|0:0,0:0:0:0:
312,168,157221,2,0,P|368:212|464:188,1,170,0|2,0:0|0:0,0:0:0:0:
395,112,157893,1,0,0:0:0:0:
216,140,158116,5,2,0:0:0:0:
185,157,158563,1,2,0:0:0:0:
194,190,159011,1,2,0:0:0:0:
228,193,159459,1,2,0:0:0:0:
241,160,159907,6,0,P|244:92|152:56,1,170,4|2,0:0|0:0,0:0:0:0:
80,116,160579,1,0,0:0:0:0:
141,196,160803,2,0,P|169:164|180:124,1,85
44,212,161251,2,0,P|16:243|5:284,1,85,2|0,0:0|0:0,0:0:0:0:
108,292,161699,2,0,P|184:292|240:220,1,170,0|2,0:0|0:0,0:0:0:0:
141,196,162370,1,0,0:0:0:0:
108,292,162594,5,0,0:0:0:0:
239,223,162818,1,0,0:0:0:0:
208,320,163042,1,2,0:0:0:0:
44,212,163266,1,0,0:0:0:0:
308,300,163490,2,0,P|368:320|456:264,1,170,0|2,0:0|0:0,0:0:0:0:
368,216,164161,1,2,0:0:0:0:
368,216,164273,1,2,0:0:0:0:
368,216,164385,2,0,L|292:160,1,85,2|0,0:0|0:0,0:0:0:0:
216,108,164833,2,0,P|248:76|288:64,1,85,2|0,0:0|0:0,0:0:0:0:
380,100,165281,1,0,0:0:0:0:
204,231,165505,5,0,0:0:0:0:
174,249,165616,1,0,0:0:0:0:
141,255,165728,1,0,0:0:0:0:
108,250,165840,1,0,0:0:0:0:
78,235,165952,1,0,0:0:0:0:
55,210,166064,1,0,0:0:0:0:
42,179,166176,1,0,0:0:0:0:
39,145,166288,1,0,0:0:0:0:
49,112,166400,1,0,0:0:0:0:
68,85,166512,1,0,0:0:0:0:
96,65,166624,6,0,P|128:56|152:56,1,42.5,0|0,3:0|0:0,0:0:0:0:
176,76,166848,2,0,P|212:96|260:100,1,85,0|0,0:0|3:0,0:0:0:0:
356,84,167296,5,0,0:0:0:0:
389,85,167407,1,0,0:0:0:0:
421,97,167519,1,0,0:0:0:0:
446,120,167631,1,0,0:0:0:0:
462,149,167743,1,0,0:0:0:0:
468,183,167855,1,0,0:0:0:0:
460,216,167967,1,0,0:0:0:0:
360,192,168191,1,0,0:0:0:0:
272,144,168415,1,0,0:0:0:0:
272,144,168527,1,0,0:0:0:0:
272,144,168639,1,0,0:0:0:0:
272,144,168751,1,0,0:0:0:0:
272,144,168863,6,0,L|208:144,2,42.5
272,248,169310,2,0,L|272:333,1,85
184,196,169758,1,0,0:0:0:0:
168,188,169870,1,0,0:0:0:0:
152,180,169982,1,0,0:0:0:0:
136,172,170094,1,0,0:0:0:0:
120,164,170206,1,0,0:0:0:0:
36,44,170430,1,0,0:0:0:0:
52,52,170542,1,0,0:0:0:0:
72,60,170654,6,0,L|208:128,1,136,4|0,0:0|0:0,0:0:0:0:
276,116,171325,1,0,0:0:0:0:
348,152,171549,2,0,P|388:168|440:168,1,68
468,112,171997,2,0,P|428:96|376:96,1,68
348,152,172445,2,0,P|296:196|224:180,1,136,2|0,0:0|0:0,0:0:0:0:
276,116,173116,1,0,0:0:0:0:
348,152,173340,1,0,0:0:0:0:
232,186,173564,1,0,0:0:0:0:
304,224,173788,2,0,L|324:296,1,68
372,356,174236,6,0,P|320:376|252:328,1,136,2|0,0:0|0:0,0:0:0:0:
104,248,174907,1,2,0:0:0:0:
255,336,175131,1,2,0:0:0:0:
188,188,175579,1,2,0:0:0:0:
148,348,176027,1,2,0:0:0:0:
272,240,176475,1,2,0:0:0:0:
104,248,176922,2,0,P|88:200|88:176,1,68,0|0,0:0|0:0,0:0:0:0:
136,116,177370,5,0,0:0:0:0:
136,116,177482,1,0,0:0:0:0:
136,116,177594,1,0,0:0:0:0:
136,116,177706,1,0,0:0:0:0:
136,116,177818,6,0,L|136:32,1,85,4|0,0:0|0:0,0:0:0:0:
48,80,178266,1,2,0:0:0:0:
220,160,178490,1,0,0:0:0:0:
220,160,178713,1,0,0:0:0:0:
320,132,178937,1,0,0:0:0:0:
320,132,179161,1,2,0:0:0:0:
188,240,179385,1,0,0:0:0:0:
188,240,179609,6,0,L|124:304,1,85,0|0,0:0|0:0,0:0:0:0:
228,328,180057,2,0,L|288:267,1,85,2|0,0:0|0:0,0:0:0:0:
364,200,180505,2,0,P|424:200|492:280,1,170,0|2,0:0|0:0,0:0:0:0:
392,300,181176,1,0,0:0:0:0:
356,96,181400,2,0,P|308:112|276:140,2,85,0|0|2,0:0|0:0|0:0,0:0:0:0:
364,200,182072,1,0,0:0:0:0:
281,133,182296,1,0,0:0:0:0:
268,232,182519,1,0,0:0:0:0:
188,172,182743,1,2,0:0:0:0:
364,200,182967,1,0,0:0:0:0:
176,272,183191,5,0,0:0:0:0:
176,272,183303,1,0,0:0:0:0:
176,272,183415,1,0,0:0:0:0:
176,272,183527,1,0,0:0:0:0:
176,272,183639,1,0,0:0:0:0:
200,72,183863,1,0,0:0:0:0:
204,76,183975,1,0,0:0:0:0:
208,80,184087,1,0,0:0:0:0:
212,84,184199,1,0,0:0:0:0:
216,88,184310,1,0,0:0:0:0:
220,92,184422,1,0,0:0:0:0:
252,84,184534,1,0,0:0:0:0:
284,88,184646,1,0,0:0:0:0:
316,104,184758,1,0,0:0:0:0:
340,128,184870,1,0,0:0:0:0:
360,156,184982,6,0,P|408:180|480:168,1,127.5,4|0,0:0|0:0,0:0:0:0:
508,140,185430,1,2,0:0:0:0:
360,156,185654,1,0,0:0:0:0:
428,80,185878,1,0,0:0:0:0:
444,220,186102,1,0,0:0:0:0:
328,60,186325,1,2,0:0:0:0:
348,256,186549,1,0,0:0:0:0:
236,168,186773,2,0,P|196:144|112:160,1,127.5
96,192,187221,1,2,0:0:0:0:
124,316,187445,5,0,0:0:0:0:
172,224,187669,1,0,0:0:0:0:
208,352,187893,1,0,0:0:0:0:
96,192,188116,1,2,0:0:0:0:
260,284,188340,1,0,0:0:0:0:
40,256,188564,6,0,P|12:196|32:136,1,127.5
64,116,189012,1,2,0:0:0:0:
268,180,189236,1,0,0:0:0:0:
268,180,189348,1,0,0:0:0:0:
268,180,189460,2,0,P|312:192|360:188,1,85
388,152,189796,1,0,0:0:0:0:
388,152,189907,2,0,P|430:150|471:162,1,85,2|0,0:0|0:0,0:0:0:0:
504,204,190243,1,0,0:0:0:0:
504,204,190355,6,0,P|488:128|448:84,1,127.5
412,68,190803,2,0,L|324:92,1,85,2|0,0:0|0:0,0:0:0:0:
268,180,191251,2,0,P|212:208|148:204,1,127.5
108,172,191699,2,0,L|48:240,1,85,2|0,0:0|0:0,0:0:0:0:
192,96,192146,2,0,L|188:8,2,85,4|0|2,0:0|0:0|0:0,0:0:0:0:
268,180,192818,1,0,0:0:0:0:
432,100,193042,5,0,0:0:0:0:
328,100,193266,1,0,0:0:0:0:
268,180,193490,2,0,P|256:224|272:264,1,85,2|0,0:0|0:0,0:0:0:0:
368,308,193937,2,0,P|405:234|379:155,2,170,0|2|0,0:0|0:0|0:0,0:0:0:0:
268,259,195057,1,0,0:0:0:0:
94,222,195281,2,0,P|134:211|176:220,1,85,2|0,0:0|0:0,0:0:0:0:
140,316,195728,2,0,P|84:324|16:288,1,127.5
0,256,196176,1,2,0:0:0:0:
0,256,196400,1,0,0:0:0:0:
94,222,196624,2,0,P|144:212|216:244,1,127.5
236,276,197072,1,2,0:0:0:0:
236,276,197296,1,0,0:0:0:0:
94,222,197519,5,0,0:0:0:0:
64,204,197631,1,0,0:0:0:0:
44,176,197743,1,0,0:0:0:0:
36,144,197855,1,0,0:0:0:0:
40,112,197967,1,0,0:0:0:0:
68,92,198079,1,0,0:0:0:0:
100,100,198191,1,0,0:0:0:0:
132,100,198303,1,0,0:0:0:0:
164,84,198415,1,0,0:0:0:0:
280,28,198639,1,0,0:0:0:0:
364,156,198863,1,0,0:0:0:0:
388,180,198975,1,0,0:0:0:0:
420,192,199087,1,0,0:0:0:0:
452,192,199199,1,0,0:0:0:0:
484,176,199310,6,0,P|504:240|492:300,1,127.5,4|0,0:0|0:0,0:0:0:0:
452,332,199758,1,2,0:0:0:0:
356,292,199982,1,0,0:0:0:0:
260,256,200206,2,0,P|208:256|164:268,1,85
88,316,200654,2,0,P|76:248|144:168,2,170,2|0|2,0:0|0:0|0:0,0:0:0:0:
176,263,201773,1,0,0:0:0:0:
236,184,201997,2,0,P|270:150|320:136,1,85
488,176,202445,2,0,P|453:209|404:224,1,85,2|0,0:0|0:0,0:0:0:0:
236,184,202893,6,0,P|164:160|88:212,2,170,0|2|0,0:0|0:0|0:0,0:0:0:0:
176,264,204012,1,0,0:0:0:0:
84,308,204236,2,0,L|4:352,1,85,2|0,0:0|0:0,0:0:0:0:
90,208,204684,5,0,0:0:0:0:
92,192,204796,1,0,0:0:0:0:
96,176,204907,1,0,0:0:0:0:
100,160,205019,1,0,0:0:0:0:
120,132,205131,1,0,0:0:0:0:
148,116,205243,1,0,0:0:0:0:
180,112,205355,1,0,0:0:0:0:
212,124,205467,1,0,0:0:0:0:
240,144,205579,2,0,P|280:164|336:152,1,85
444,116,206027,1,0,0:0:0:0:
451,149,206138,1,0,0:0:0:0:
449,182,206250,1,0,0:0:0:0:
439,215,206362,1,0,0:0:0:0:
421,244,206474,5,4,0:0:0:0:
256,192,206587,12,8,213639,0:0:0:0:
