osu file format v12

[General]
AudioFilename: David Mook-Scooby Doo Where Are You.mp3
AudioLeadIn: 0
PreviewTime: 6655
Countdown: 0
SampleSet: Soft
StackLeniency: 0.7
Mode: 0
LetterboxInBreaks: 0

[Editor]
Bookmarks: 26115
DistanceSpacing: 0.8
BeatDivisor: 4
GridSize: 4

[Metadata]
Title:Scooby-Doo, Where Are You?
TitleUnicode:Scooby-Doo, Where Are You?
Artist:Larry Markes
ArtistUnicode:Larry Markes
Creator:ezek
Version:Normal
Source:Scooby-Doo, Where Are You!
Tags:Hanna-Barbera XinCrin
BeatmapID:154050
BeatmapSetID:50063

[Difficulty]
HPDrainRate:4
CircleSize:4
OverallDifficulty:4
ApproachRate:5
SliderMultiplier:1.5
SliderTickRate:2

[Events]
//Background and Video events
0,0,"WBG.jpg",0,0
Video,-1535,"Videohq.avi"
//Break Periods
//Storyboard Layer 0 (Background)
//Storyboard Layer 1 (Fail)
//Storyboard Layer 2 (Pass)
//Storyboard Layer 3 (Foreground)
//Storyboard Sound Samples
//Background Colour Transformations
3,100,163,162,255

[TimingPoints]
5900,422.535211267606,4,2,1,60,1,0
6745,437.190323520839,4,2,1,60,1,0
18986,425.531914893617,4,2,1,60,1,0
19837,421.792618629174,4,2,1,60,1,0
20680,422.535211267606,4,2,1,60,1,0
21102,434.782608695652,4,2,1,60,1,0
22406,439.979467624844,4,2,1,60,1,0
25925,430.879712746858,4,2,1,60,1,0
27648,437.158469945355,4,2,1,60,1,0
31145,433.212996389892,4,2,1,60,1,0
32877,436.363636363636,4,2,1,60,1,0
33313,422.535211267606,4,2,1,60,1,0
33735,430.10752688172,4,2,1,60,1,0
34595,434.782608695652,4,2,1,60,1,0
36334,437.956204379562,4,2,1,60,1,0
38085,439.56043956044,4,2,1,60,1,0
38964,454.545454545455,4,2,1,60,1,0
39418,425.531914893617,4,2,1,60,1,0
39843,400,4,2,1,60,1,0
40243,424.028268551237,4,2,1,60,1,0
41515,436.363636363636,4,2,1,60,1,0
45878,425.531914893617,4,2,1,60,1,0
47580,428.571428571429,4,2,1,60,1,0
48437,442.80442804428,4,2,1,60,1,0
50208,436.363636363636,4,2,1,60,1,0
53698,430.10752688172,4,2,1,60,1,0
56278,441.176470588235,4,2,1,60,1,0
58042,437.956204379562,4,2,1,60,1,0
58917,434.782608695652,4,2,1,60,1,0

[Colours]
Combo1 : 114,114,114
Combo2 : 128,0,255
Combo3 : 255,170,85
Combo4 : 140,85,23

[HitObjects]
248,40,5899,2,8,P|204:48|180:64,1,75
188,124,6322,2,8,P|224:132|260:124,1,75
304,80,6745,5,0,0:0:0:0:
424,104,7182,1,8,0:0:0:0:
472,216,7619,2,0,B|408:352,1,150,2|8,0:0|0:0,0:0:0:0:
360,240,8493,1,0,0:0:0:0:
256,184,8930,1,8,0:0:0:0:
256,304,9368,1,0,0:0:0:0:
152,240,9805,1,8,0:0:0:0:
104,352,10242,6,0,B|40:216,1,150,2|8,0:0|0:0,0:0:0:0:
40,112,11116,1,0,0:0:0:0:
136,40,11554,1,8,0:0:0:0:
196,44,11772,1,2,0:0:0:0:
312,44,12209,1,0,0:0:0:0:
376,40,12428,1,8,0:0:0:0:
496,40,12865,2,8,P|492:76|480:112,1,75
420,116,13302,2,8,P|412:152|420:192,1,75
424,248,13740,6,0,B|392:328|304:320,2,150,0|8|2,0:0|0:0|0:0,0:0:0:0:
312,200,15051,2,0,B|304:112|216:104,2,150,8|2|8,0:0|0:0|0:0,0:0:0:0:
256,224,16144,1,2,0:0:0:0:
136,220,16581,2,0,L|72:180,1,75,0|8,0:0|0:0,0:0:0:0:
96,124,17018,6,0,L|140:64,1,75
256,32,17674,1,8,0:0:0:0:
308,60,17893,2,0,P|400:120|452:224,1,225,2|8,0:0|0:0,0:0:0:0:
452,344,18986,5,0,0:0:0:0:
332,332,19411,1,8,0:0:0:0:
324,272,19624,2,8,P|320:244|284:216,1,75
228,216,20047,2,8,P|192:244|188:272,1,75
196,332,20469,1,8,0:0:0:0:
136,344,20680,6,8,B|104:288|104:288|80:248|104:208,1,150,4|8,0:0|0:0,0:0:0:0:
152,172,21319,1,0,0:0:0:0:
184,120,21536,2,0,P|256:96|328:120,1,150,2|8,0:0|0:0,0:0:0:0:
356,168,22188,1,0,0:0:0:0:
404,204,22406,2,0,B|428:244|404:284|404:284|372:340,2,150,2|8|0,0:0|0:0|0:0,0:0:0:0:
416,144,23505,1,0,0:0:0:0:
416,144,23725,1,8,0:0:0:0:
328,72,24165,6,0,P|256:48|184:72,1,150,2|8,0:0|0:0,0:0:0:0:
132,96,24825,1,0,0:0:0:0:
32,160,25265,1,0,0:0:0:0:
32,160,25485,1,8,0:0:0:0:
104,256,25925,1,0,0:0:0:0:
164,260,26140,6,4,P|240:236|284:184,1,150
252,68,27002,1,4,0:0:0:0:
428,36,27648,6,0,B|492:52|492:124|428:140,1,150,2|8,0:0|0:0,0:0:0:0:
376,248,28522,2,0,B|312:264|312:336|376:352,2,150,2|8|0,0:0|0:0|0:0,0:0:0:0:
272,192,29833,1,8,0:0:0:0:
216,300,30270,1,0,0:0:0:0:
160,192,30708,1,8,0:0:0:0:
52,140,31145,6,0,P|84:72|148:40,1,150,4|8,0:0|0:0,0:0:0:0:
256,96,32011,1,2,0:0:0:0:
364,40,32444,2,0,P|428:72|460:140,1,150,8|0,0:0|0:0,0:0:0:0:
428,256,33313,2,8,B|496:288,2,75
372,240,33950,5,8,0:0:0:0:
320,252,34165,1,2,0:0:0:0:
240,344,34595,2,0,B|224:288|144:288|128:344,1,150,0|8,0:0|0:0,0:0:0:0:
168,232,35464,2,0,B|88:240|56:328,1,150,0|8,0:0|0:0,0:0:0:0:
64,200,36334,2,8,B|128:152|208:168,1,150,0|8,0:0|0:0,0:0:0:0:
288,80,37209,2,4,L|364:80,1,75
460,148,37866,2,4,L|384:148,1,75
268,172,38524,1,2,0:0:0:0:
304,344,39191,5,4,0:0:0:0:
212,344,39524,1,4,0:0:0:0:
116,344,39843,6,8,P|136:292|180:260,1,112.5,4|8,0:0|0:0,0:0:0:0:
256,216,40455,1,8,0:0:0:0:
192,152,40773,2,8,P|120:156|84:140,1,112.5
40,32,41515,5,0,0:0:0:0:
160,40,41951,1,8,0:0:0:0:
264,96,42387,2,0,B|304:64|368:64|408:96,1,150,0|8,0:0|0:0,0:0:0:0:
480,192,43260,1,0,0:0:0:0:
408,288,43696,2,0,B|368:320|304:320|264:288,1,150,8|0,0:0|0:0,0:0:0:0:
232,248,44351,2,0,B|192:216|128:216|88:248,1,150,2|4,0:0|0:0,0:0:0:0:
132,132,45224,2,0,L|200:92,1,75
248,64,45660,2,0,P|284:48|320:36,1,75
380,32,46090,6,4,P|416:60|480:56,2,112.5,4|4|4,0:0|0:0|0:0,0:0:0:0:
304,124,47154,2,0,B|288:200,2,75,0|0|2,0:0|0:0|0:0,0:0:0:0:
280,240,48008,1,2,0:0:0:0:
384,304,48437,6,0,B|328:352|328:352|288:360|256:336,1,150,4|8,0:0|0:0,0:0:0:0:
212,224,49322,2,0,B|180:200|140:208|140:208|84:256,1,150,2|8,0:0|0:0,0:0:0:0:
12,352,50208,1,0,0:0:0:0:
84,256,50644,1,8,0:0:0:0:
112,140,51080,1,0,0:0:0:0:
228,112,51517,2,0,B|292:72|380:88,1,150,8|0,0:0|0:0,0:0:0:0:
476,152,52389,6,0,B|412:192|324:176,1,150,8|0,0:0|0:0,0:0:0:0:
408,268,53262,1,8,0:0:0:0:
316,344,53698,1,0,0:0:0:0:
208,296,54128,1,8,0:0:0:0:
208,236,54343,2,0,B|188:172|228:152|200:88,1,150,2|2,0:0|0:0,0:0:0:0:
168,40,54988,1,8,0:0:0:0:
60,76,55418,5,4,0:0:0:0:
32,192,55848,1,8,0:0:0:0:
48,312,56278,2,0,B|128:344|192:296,1,150,2|8,0:0|0:0,0:0:0:0:
136,192,57160,2,0,B|216:160|280:208,1,150,2|8,0:0|0:0,0:0:0:0:
320,248,57822,1,2,0:0:0:0:
440,228,58260,1,0,0:0:0:0:
440,228,58479,1,8,0:0:0:0:
256,192,58917,12,4,61525,0:0:0:0:
