osu file format v11

[General]
AudioFilename: Lapfoxed Forever.mp3
AudioLeadIn: 3000
PreviewTime: 106982
Countdown: 1
SampleSet: Soft
StackLeniency: 0.7
Mode: 0
LetterboxInBreaks: 1

[Editor]
Bookmarks: 1027,26254,54618,89527,106982,124441,141975,159404,176868,194313,211781,228144
DistanceSpacing: 1.2
BeatDivisor: 4
GridSize: 4

[Metadata]
Title:Lapfoxed Forever
TitleUnicode:Lapfoxed Forever
Artist:Lapfox Trax feat. guilhox
ArtistUnicode:Lapfox Trax feat. guilhox
Creator:Blue Dragon
Version:Normal
Source:
Tags:renard queenston foenix furries in a blender fiab jackal queenston adraen the queenstons mayhem kitsune^2 klippa kitcaliber banned forever hardcore disco the daeva suite objection set me free contact what you do outsider eggs the steel monster above the city arcadepunk vultures it's murder amber starlight sinisterrrrrrrr banana mashup [luanny]
BeatmapID:202327
BeatmapSetID:59521

[Difficulty]
HPDrainRate:3
CircleSize:3
OverallDifficulty:3
ApproachRate:4
SliderMultiplier:0.8
SliderTickRate:2

[Events]
//Background and Video events
0,0,"lapfox.png"
//Break Periods
2,17727,24934
2,89727,96389
2,177059,192993
//Storyboard Layer 0 (Background)
//Storyboard Layer 1 (Fail)
//Storyboard Layer 2 (Pass)
//Storyboard Layer 3 (Foreground)
//Storyboard Sound Samples
//Background Colour Transformations
3,100,163,162,255

[TimingPoints]
73,272.727272727273,4,2,0,80,1,0
1436,-100,4,1,0,40,0,0
1845,-100,4,2,0,80,0,0
3345,-100,4,1,0,40,0,0
3891,-100,4,2,0,80,0,0
4436,-100,4,1,0,40,0,0
4709,-100,4,2,0,80,0,0
5800,-100,4,1,0,40,0,0
6209,-100,4,2,0,80,0,0
7709,-100,4,1,0,40,0,0
8254,-100,4,2,0,80,0,0
8800,-100,4,1,0,40,0,0
9073,-100,4,2,0,80,0,0
10163,-100,4,1,0,40,0,0
10573,-100,4,2,0,80,0,0
12073,-100,4,1,0,40,0,0
12618,-100,4,2,0,80,0,0
16436,-100,4,1,0,40,0,0
17527,-100,4,1,0,80,0,0
26254,-100,4,2,0,80,0,0
34709,-200,4,2,0,80,0,0
42618,-100,4,2,0,80,0,0
43709,-200,4,2,0,80,0,0
51345,-100,4,2,0,80,0,0
54618,-100,4,2,0,80,0,1
72073,-100,4,2,0,80,0,0
88436,-200,4,2,0,80,0,0
89527,-100,4,1,0,80,0,0
97709,-100,4,2,0,80,0,0
98254,-100,4,2,0,80,0,0
101527,-100,4,1,0,40,0,0
102073,-100,4,2,0,80,0,0
106709,-200,4,2,0,80,0,0
106982,-100,4,1,0,40,0,0
107118,-100,4,2,0,80,0,0
124441,273.660205245154,4,2,0,80,1,0
124441,-200,4,2,0,50,0,0
141950,272.727272727273,4,2,0,80,1,0
141950,-100,4,2,0,80,0,1
159336,-100,4,2,0,80,0,0
159404,-100,4,2,0,80,0,1
176859,-100,4,1,0,80,0,0
194313,-200,4,2,0,80,0,0
207472,-200,4,2,0,5,0,0
207609,-200,4,2,0,80,0,0
207745,-200,4,2,0,5,0,0
207881,-200,4,2,0,80,0,0
208018,-200,4,2,0,5,0,0
208154,-200,4,2,0,80,0,0
208290,-200,4,2,0,5,0,0
208427,-200,4,2,0,80,0,0
208563,-200,4,2,0,5,0,0
208700,-200,4,2,0,80,0,0
208836,-200,4,2,0,5,0,0
208972,-200,4,2,0,80,0,0
209109,-200,4,2,0,5,0,0
209245,-200,4,2,0,80,0,0
209381,-200,4,2,0,5,0,0
209518,-200,4,2,0,80,0,0
209654,-200,4,2,0,5,0,0
209790,-200,4,2,0,80,0,0
209927,-200,4,2,0,5,0,0
210063,-200,4,2,0,80,0,0
210200,-200,4,2,0,5,0,0
210336,-200,4,2,0,40,0,0
211781,272.727272727273,4,2,0,80,1,0
211781,-100,4,2,0,80,0,1
228144,-200,4,2,0,80,0,0
228690,-100,4,2,0,80,0,0
229235,-100,4,2,0,80,0,1
246690,-100,4,1,0,80,0,0

[Colours]
Combo1 : 255,167,47
Combo2 : 126,250,52
Combo3 : 225,57,103
Combo4 : 70,133,238

[HitObjects]
56,56,73,1,0,0:0:0
184,152,618,1,2,0:0:0
56,248,1163,2,0,P|56:328,2,80
132,216,1982,1,0,0:0:0
200,260,2254,6,0,P|232:320|320:328,1,160,2|8,0:0|0:0,0:0:0
284,256,3073,1,0,0:0:0
352,216,3345,2,0,P|400:216,2,40
284,172,3891,1,2,0:0:0
260,96,4163,1,0,0:0:0
320,40,4436,6,0,P|376:84|464:80,1,160,0|2,0:0|0:0,0:0:0
508,144,5254,1,0,0:0:0
480,220,5527,2,0,P|480:304,2,80
328,268,6618,6,2,P|248:237|248:298|169:268,1,160
108,224,7436,1,0,0:0:0
64,156,7709,2,0,P|24:156,2,40
92,80,8254,2,0,P|252:120,1,160,2|0,0:0|0:0,0:0:0
384,40,9345,5,2,0:0:0
448,88,9618,1,0,0:0:0
452,168,9891,2,0,P|440:220|360:288,1,160,2|0,0:0|0:0,0:0:0
284,264,10709,1,0,0:0:0
208,236,10982,2,0,P|156:216|156:216|92:216,2,120,2|0|0,0:0|0:0|0:0,0:0:0
188,312,12073,5,0,0:0:0
116,344,12345,1,0,0:0:0
40,320,12618,2,0,P|12:284|8:244,1,80,2|0,0:0|0:0,0:0:0
56,188,13163,6,0,P|64:120|40:76,2,120,2|2|0,0:0|0:0|0:0,0:0:0
112,244,14254,2,0,P|104:312|128:356,2,120,2|2|0,0:0|0:0|0:0,0:0:0
172,192,15345,1,0,0:0:0
256,56,15891,1,8,0:0:0
340,192,16436,6,0,P|340:272,2,80,0|0|8,0:0|0:0|0:0,0:0:0
404,144,17254,1,0,0:0:0
468,192,17527,1,4,0:0:0
376,32,26254,5,2,0:0:0
500,136,26800,1,0,0:0:0
428,280,27345,2,0,P|380:324|136:312,1,320,2|2,0:0|0:0,0:0:0
228,180,28982,1,0,0:0:0
76,224,29527,2,0,P|48:176|48:68,1,160,2|0,0:0|0:0,0:0:0
116,32,30345,1,0,0:0:0
176,88,30618,6,0,P|240:120|240:120|328:108,1,160,0|2,0:0|0:0,0:0:0
468,32,31709,2,0,P|432:76|420:252,1,240,2|0,0:0|0:0,0:0:0
480,304,32800,1,2,0:0:0
332,244,33345,1,0,0:0:0
208,344,33891,1,2,0:0:0
60,280,34436,2,0,P|44:196,1,80
45,201,34982,6,4,P|104:192|156:108,1,160,4|2,0:0|0:0,0:0:0
272,28,36891,1,0,0:0:0
272,28,37163,2,0,P|296:80|352:108,1,120,2|0,0:0|0:0,0:0:0
383,73,38254,1,2,0:0:0
479,73,38800,1,0,0:0:0
428,152,39345,6,0,P|408:208|428:264,1,120,2|0,0:0|0:0,0:0:0
461,296,40436,1,2,0:0:0
393,363,40982,1,0,0:0:0
308,316,41527,2,0,P|268:316|228:308,1,80,2|0,0:0|0:0,0:0:0
168,236,42618,6,0,P|92:236|92:236|56:260,2,120,4|4|0,0:0|0:0|0:0,0:0:0
212,252,43709,6,0,P|256:184,1,80,2|8,0:0|0:0,0:0:0
164,156,44800,1,2,0:0:0
72,184,45345,1,0,0:0:0
93,94,45891,2,0,P|162:61|232:94,1,160,0|2,0:0|0:0,0:0:0
256,188,47527,1,0,0:0:0
256,284,48073,5,0,0:0:0
336,336,48618,2,8,P|420:336,2,80,8|0|8,0:0|0:0|0:0,0:0:0
256,284,50254,1,2,0:0:0
176,336,50800,2,8,P|92:336,1,80,8|4,0:0|0:0,0:0:0
256,192,51618,12,2,54073,0:0:0
392,48,54618,6,4,P|428:64|476:172,1,160,4|8,0:0|0:0,0:0:0
420,224,55436,1,0,0:0:0
404,304,55709,1,2,0:0:0
228,284,56254,6,0,P|148:284,1,80
84,332,56800,2,2,P|120:268|108:96,1,240
136,28,57891,1,0,0:0:0
256,132,58436,1,8,0:0:0
376,28,58982,6,2,P|460:28|460:28|516:88,1,160,2|8,0:0|0:0,0:0:0
480,156,59800,1,0,0:0:0
448,228,60073,2,0,P|420:272|432:336,2,120
480,156,61163,1,2,0:0:0
404,128,61436,1,0,0:0:0
328,104,61709,2,0,P|252:104|211:170,1,160,2|0,0:0|0:0,0:0:0
292,176,62527,6,0,P|324:256|216:340,1,240,2|0,0:0|0:0,0:0:0
148,304,63618,1,0,0:0:0
72,280,63891,2,0,P|40:220|44:124,1,160,0|2,0:0|0:0,0:0:0
168,28,64982,1,8,0:0:0
256,160,65527,6,0,P|228:240,2,80,2|0|2,0:0|0:0|0:0,0:0:0
308,100,66345,1,0,0:0:0
372,52,66618,2,4,P|416:96|512:104,1,160,2|8,0:0|0:0,0:0:0
492,28,67436,1,0,0:0:0
492,28,67709,6,2,P|440:88|440:248,1,240,2|0,0:0|0:0,0:0:0
480,312,68800,2,0,P|504:348|504:348|504:388,2,80,2|0|2,0:0|0:0|0:0,0:0:0
400,312,69618,1,0,0:0:0
332,352,69891,6,0,P|276:356|196:296,1,160,2|2,0:0|0:0,0:0:0
168,220,70709,1,0,0:0:0
152,140,70982,2,0,P|80:96,1,80,0|2,0:0|0:0,0:0:0
72,20,71527,2,0,P|80:100|40:172,1,160,0|4,0:0|0:0,0:0:0
24,248,72345,5,0,0:0:0
68,316,72618,1,2,0:0:0
144,344,72891,1,0,0:0:0
224,336,73163,2,0,P|288:320|364:372,1,160,2|0,0:0|0:0,0:0:0
444,372,73982,1,0,0:0:0
412,300,74254,6,0,P|472:144,1,160,2|8,0:0|0:0,0:0:0
436,76,75073,1,0,0:0:0
360,56,75345,2,0,P|300:212,1,160,0|8,0:0|0:0,0:0:0
240,252,76163,1,0,0:0:0
160,256,76436,6,0,P|80:260|24:316,2,160,2|8|2,0:0|0:0|0:0,0:0:0
216,316,77800,2,0,P|160:372,2,80,0|8|0,0:0|0:0|0:0,0:0:0
260,248,78618,1,2,0:0:0
320,196,78891,1,0,0:0:0
340,272,79163,1,8,0:0:0
252,136,79709,5,2,0:0:0
192,188,79982,1,0,0:0:0
172,112,80254,2,8,P|12:112,1,160,8|2,0:0|0:0,0:0:0
28,192,81073,5,0,0:0:0
12,272,81345,1,8,0:0:0
60,336,81618,1,0,0:0:0
132,300,81891,2,0,P|220:264|304:372,1,240,2|0,0:0|0:0,0:0:0
207,360,82982,2,0,P|292:264|380:300,1,240,2|0,0:0|0:0,0:0:0
440,352,84073,5,0,0:0:0
468,276,84345,1,0,0:0:0
416,216,84618,2,0,P|416:128,1,80,2|0,0:0|0:0,0:0:0
360,80,85163,6,4,P|312:116|208:120,1,160,4|0,0:0|0:0,0:0:0
160,64,85982,1,0,0:0:0
84,44,86254,1,2,0:0:0
20,192,86800,1,0,0:0:0
68,256,87073,1,0,0:0:0
44,332,87345,1,2,0:0:0
256,192,87482,12,0,89527,0:0:0
40,40,97709,5,0,0:0:0
104,88,97982,1,2,0:0:0
168,40,98254,2,0,P|240:48|300:120,2,160
192,200,99891,1,8,0:0:0
192,200,100436,2,0,P|120:192|60:120,2,160,2|8|0,0:0|0:0|0:0,0:0:0
344,248,102073,1,0,0:0:0
468,352,102618,6,0,P|456:276|500:208,1,160,2|0,0:0|0:0,0:0:0
464,136,103436,1,0,0:0:0
464,56,103709,2,0,P|304:16,1,160,2|0,0:0|0:0,0:0:0
232,44,104527,1,2,0:0:0
212,120,104800,1,4,0:0:0
300,264,105345,1,8,0:0:0
140,276,105891,6,0,P|68:312,1,80
20,372,106436,2,0,P|64:320|48:232,1,160,2|4,0:0|0:0,0:0:0
8,80,107527,5,8,0:0:0
76,40,107800,1,0,0:0:0
76,120,108073,2,0,P|124:164|212:152,1,160,2|8,0:0|0:0,0:0:0
256,84,108891,1,0,0:0:0
300,152,109163,2,0,P|388:164|436:120,2,160,2|8|2,0:0|0:0|0:0,0:0:0
256,308,110800,5,2,0:0:0
324,352,111073,1,8,0:0:0
372,288,111345,2,0,P|388:220|324:156,1,160,2|8,0:0|0:0,0:0:0
256,188,112163,1,0,0:0:0
180,157,112436,2,0,P|124:220|140:288,1,160,2|8,0:0|0:0,0:0:0
188,352,113254,1,0,0:0:0
256,307,113527,6,0,P|223:230|288:230|256:153,2,160,2|8|2,0:0|0:0|0:0,0:0:0
324,352,114891,2,0,P|408:352,1,80,0|8,0:0|0:0,0:0:0
468,304,115436,1,0,0:0:0
440,228,115709,6,4,P|412:144|416:72,1,160,2|2,0:0|0:0,0:0:0
352,28,116527,1,0,0:0:0
276,52,116800,1,8,0:0:0
140,144,117345,5,2,0:0:0
60,157,117618,1,0,0:0:0
87,82,117891,2,0,P|159:64|216:124,1,160,8|8,0:0|0:0,0:0:0
256,192,118709,1,0,0:0:0
296,263,118982,2,0,P|352:319|425:302,1,160,2|8,0:0|0:0,0:0:0
452,227,119800,1,0,0:0:0
372,240,120073,6,2,P|372:72,1,160,2|8,0:0|0:0,0:0:0
308,32,120891,1,0,0:0:0
256,92,121163,1,2,0:0:0
256,292,121709,5,2,0:0:0
204,352,121982,1,0,0:0:0
140,304,122254,2,2,P|140:144,2,160,2|8|2,0:0|0:0|0:0,0:0:0
256,192,123891,5,0,0:0:0
336,192,124163,1,0,0:0:0
416,192,124436,5,4,0:0:0
428,72,125261,1,0,0:0:0
428,72,125535,2,0,P|372:90|316:72,1,120,2|0,0:0|0:0,0:0:0
312,40,126630,2,0,P|256:21|200:40,1,120,2|0,0:0|0:0,0:0:0
195,72,127724,2,0,P|139:90|84:72,1,120,2|0,0:0|0:0,0:0:0
56,44,128819,5,2,0:0:0
20,116,129366,1,0,0:0:0
44,192,129914,1,2,0:0:0
20,268,130461,1,0,0:0:0
56,340,131008,2,0,P|92:328|132:340,1,80,2|0,0:0|0:0,0:0:0
208,360,132103,2,0,P|244:372|284:360,2,80,2|8|2,0:0|0:0|0:0,0:0:0
244,288,133745,5,8,0:0:0
324,288,134292,2,0,P|408:288,1,80,0|8,0:0|0:0,0:0:0
476,248,135387,2,0,P|444:180|448:96,1,160,2|2,0:0|0:0,0:0:0
492,32,137029,1,0,0:0:0
412,24,137576,6,0,P|368:28|340:48,1,80,2|0,0:0|0:0,0:0:0
396,104,138671,2,0,P|368:124|324:128,1,80,2|0,0:0|0:0,0:0:0
244,124,139765,1,2,0:0:0
192,60,140313,1,0,0:0:0
256,192,140586,12,4,141950,0:0:0
388,320,142495,5,8,0:0:0
484,192,143040,2,0,P|464:144|480:40,1,160,0|2,0:0|0:0,0:0:0
400,24,143859,1,2,0:0:0
368,96,144131,2,0,P|328:96,2,40
384,176,144677,1,4,0:0:0
270,289,145222,6,0,P|310:289,2,40,0|0|0,0:0|0:0|0:0,0:0:0
204,336,145768,1,8,0:0:0
124,328,146040,1,8,0:0:0
64,276,146313,6,0,P|28:236|24:200,1,80,2|0,0:0|0:0,0:0:0
64,140,146859,2,2,P|156:64|304:160,1,320
256,224,148222,1,0,0:0:0
208,160,148495,2,2,P|356:64|448:140,1,320
472,216,149859,1,0,0:0:0
468,296,150131,1,8,0:0:0
408,348,150404,1,8,0:0:0
328,340,150677,5,0,0:0:0
198,245,151222,2,2,P|256:101|313:245,1,400,2|0,0:0|0:0,0:0:0
256,184,152859,2,0,P|256:16,1,160,2|4,0:0|0:0,0:0:0
100,60,153950,5,2,0:0:0
76,136,154222,1,0,0:0:0
52,212,154495,1,8,0:0:0
180,308,155040,5,2,0:0:0
340,292,155586,2,0,P|282:229|306:155|354:152|403:149|427:75|369:13,1,320,2|0,0:0|0:0,0:0:0
312,80,156950,1,0,0:0:0
256,136,157222,2,0,P|228:232|288:356,1,240,2|0,0:0|0:0,0:0:0
256,192,158313,12,4,159404,0:0:0
396,308,159950,5,0,0:0:0
460,260,160222,1,0,0:0:0
388,224,160495,2,2,P|376:184|412:76,1,160,2|0,0:0|0:0,0:0:0
476,28,161313,1,0,0:0:0
476,28,161586,1,2,0:0:0
320,64,162131,5,8,0:0:0
256,112,162404,2,0,P|256:160,2,40,0|0|2,0:0|0:0|0:0,0:0:0
180,84,162950,1,0,0:0:0
100,88,163222,2,0,P|48:144|48:228,1,160,8|4,0:0|0:0,0:0:0
140,356,164313,6,2,P|184:288,1,80,2|0,0:0|0:0,0:0:0
252,332,164859,2,0,P|329:365|329:300|406:332,2,160,2|8|2,0:0|0:0|0:0,0:0:0
256,252,166222,1,0,0:0:0
300,184,166495,1,8,0:0:0
380,168,166768,2,0,P|460:168,1,80,0|8,0:0|0:0,0:0:0
508,16,167586,1,2,0:0:0
352,44,168131,6,0,P|316:56|272:52,1,80
196,36,168677,1,2,0:0:0
120,56,168950,1,0,0:0:0
64,112,169222,2,0,P|52:224|128:320,1,240,2|0,0:0|0:0,0:0:0
200,352,170313,1,2,0:0:0
256,296,170586,2,0,P|332:272|332:272|408:296,1,160
480,336,171404,2,0,P|513:259|448:259|480:182,1,160,2|8,0:0|0:0,0:0:0
416,36,172495,6,0,P|336:36,1,80,2|0,0:0|0:0,0:0:0
296,104,173040,2,0,P|216:104,1,80,8|0,0:0|0:0,0:0:0
176,36,173586,2,0,P|96:36,2,80,2|0|8,0:0|0:0|0:0,0:0:0
256,24,174404,1,0,0:0:0
256,24,174677,6,0,P|289:101|224:101|256:178,1,160,2|0,0:0|0:0,0:0:0
369,291,175768,2,0,P|336:214|401:214|369:137,1,160,2|0,0:0|0:0,0:0:0
412,68,176586,1,8,0:0:0
488,48,176859,5,4,0:0:0
396,52,194313,5,4,0:0:0
456,104,194859,1,0,0:0:0
432,180,195404,1,2,0:0:0
316,288,196495,2,0,P|196:288,1,120,2|2,0:0|0:0,0:0:0
84,328,198131,5,0,0:0:0
52,256,198677,2,0,P|52:188,2,60,2|2|0,0:0|0:0|0:0,0:0:0
164,140,200586,1,0,0:0:0
164,140,200859,2,0,P|164:208,2,60,2|2|0,0:0|0:0|0:0,0:0:0
288,36,202768,5,0,0:0:0
288,36,203040,2,0,P|452:36,1,160,2|2,0:0|0:0,0:0:0
504,92,204677,1,0,0:0:0
484,176,205222,2,0,P|324:176,1,160,2|2,0:0|0:0,0:0:0
260,200,206859,1,0,0:0:0
227,160,207404,22,0,B|180:140|131:195|174:275|226:247|277:271|277:271|307:225|366:224|363:133|293:109|263:150,1,440,2|2,0:0|0:0,0:0:0
444,56,211781,6,0,P|472:100|464:172,2,120,4|0|0,0:0|0:0|0:0,0:0:0
364,40,212871,1,2,0:0:0
336,156,213281,1,0,0:0:0
220,124,213690,1,0,0:0:0
220,124,213962,6,0,P|144:152,1,80,2|0,0:0|0:0,0:0:0
88,208,214508,1,0,0:0:0
76,288,214781,1,0,0:0:0
140,332,215053,2,0,P|172:352|220:352,1,80,2|0,0:0|0:0,0:0:0
298,353,215599,2,0,P|340:352|372:332,1,80,8|0,0:0|0:0,0:0:0
312,276,216144,6,4,P|372:248|448:296,1,160,4|2,0:0|0:0,0:0:0
372,332,216962,1,0,0:0:0
372,332,217235,2,0,P|376:204|312:116,1,240,2|0,0:0|0:0,0:0:0
256,172,218326,2,0,P|172:168,1,80,2|0,0:0|0:0,0:0:0
120,112,218871,1,0,0:0:0
108,32,219144,1,0,0:0:0
44,84,219417,6,0,P|8:164,1,80,2|0,0:0|0:0,0:0:0
88,184,219962,2,0,P|52:264,1,80,2|0,0:0|0:0,0:0:0
132,284,220508,6,4,P|96:328|36:336,2,120,4|2|0,0:0|0:0|0:0,0:0:0
192,232,221599,1,0,0:0:0
256,280,221871,1,0,0:0:0
320,232,222144,1,2,0:0:0
380,284,222417,1,0,0:0:0
380,284,222690,6,0,P|444:252|460:164,1,160,2|0,0:0|0:0,0:0:0
392,128,223508,1,0,0:0:0
316,152,223781,2,0,P|239:119|239:184|162:152,1,160,2|0,0:0|0:0,0:0:0
200,80,224599,1,0,0:0:0
120,84,224871,2,0,P|88:120|128:224,1,160,2|0,0:0|0:0,0:0:0
184,260,225690,1,0,0:0:0
252,220,225962,2,0,P|281:122|249:86,1,160,2|0,0:0|0:0,0:0:0
188,32,226781,1,0,0:0:0
108,24,227053,5,2,0:0:0
40,68,227326,1,0,0:0:0
20,144,227599,1,2,0:0:0
36,220,227871,1,2,0:0:0
88,280,228144,6,0,P|128:280,1,40
188,336,228690,6,0,P|268:312|340:336,1,160,2|4,0:0|0:0,0:0:0
412,372,229508,1,0,0:0:0
484,340,229781,2,0,P|492:300|484:256,1,80,2|0,0:0|0:0,0:0:0
416,220,230326,1,0,0:0:0
372,152,230599,1,0,0:0:0
372,72,230871,2,0,P|400:40,2,40,2|0|0,0:0|0:0|0:0,0:0:0
216,28,231690,5,0,0:0:0
144,60,231963,2,0,P|136:100|144:144,1,80,2|0,0:0|0:0,0:0:0
212,180,232508,1,0,0:0:0
256,248,232781,1,0,0:0:0
256,328,233053,2,0,P|228:360,2,40,2|0|0,0:0|0:0|0:0,0:0:0
96,348,233871,5,0,0:0:0
40,292,234144,1,2,0:0:0
36,212,234417,1,0,0:0:0
80,144,234690,2,0,P|124:144,2,40
48,68,235235,2,0,P|4:68,2,40,2|2|0,0:0|0:0|0:0,0:0:0
120,32,235781,6,0,P|200:56|288:40,1,160,0|2,0:0|0:0,0:0:0
336,96,236599,1,0,0:0:0
412,68,236871,2,0,P|428:32,2,40,2|2|0,0:0|0:0|0:0,0:0:0
336,96,237417,2,0,P|320:132,2,40,2|2|0,0:0|0:0|0:0,0:0:0
400,144,237962,6,0,P|388:220|448:272,1,160,2|0,0:0|0:0,0:0:0
468,192,238781,1,0,0:0:0
468,192,239053,2,0,P|480:116|420:64,1,160,2|0,0:0|0:0,0:0:0
344,84,239871,1,0,0:0:0
292,148,240144,2,0,P|248:160|212:160,1,80,0|2,0:0|0:0,0:0:0
157,103,240690,2,0,P|122:103|78:115,1,80,2|0,0:0|0:0,0:0:0
40,188,241235,5,0,0:0:0
40,268,241508,1,0,0:0:0
84,332,241781,1,2,0:0:0
160,360,242053,1,0,0:0:0
236,340,242326,6,0,P|296:320|392:336,1,160,0|2,0:0|0:0,0:0:0
440,272,243144,1,0,0:0:0
416,196,243417,2,0,P|356:216|260:200,1,160,0|2,0:0|0:0,0:0:0
137,34,244508,6,0,P|216:52,1,80,2|0,0:0|0:0,0:0:0
296,52,245053,2,0,P|384:32,1,80,2|0,0:0|0:0,0:0:0
448,64,245599,2,0,P|496:64,2,40
392,120,246144,2,2,P|376:144|392:268,1,160,2|4,0:0|0:0,0:0:0
