osu file format v11

[General]
AudioFilename: Lapfoxed Forever.mp3
AudioLeadIn: 3000
PreviewTime: 106982
Countdown: 1
SampleSet: Normal
StackLeniency: 0.7
Mode: 0
LetterboxInBreaks: 1

[Editor]
Bookmarks: 26254,54618,89527,106982,124441,141975,159404,176868,194313,211781,228144
DistanceSpacing: 0.9
BeatDivisor: 4
GridSize: 4

[Metadata]
Title:Lapfoxed Forever
TitleUnicode:Lapfoxed Forever
Artist:Lapfox Trax feat. guilhox
ArtistUnicode:Lapfox Trax feat. guilhox
Creator:Blue Dragon
Version:Nogard
Source:
Tags:renard queenston foenix furries in a blender fiab jackal queenston adraen the queenstons mayhem kitsune^2 klippa kitcaliber banned forever hardcore disco the daeva suite objection set me free contact what you do outsider eggs the steel monster above the city arcadepunk vultures it's murder amber starlight sinisterrrrrrrr banana mashup [luanny]
BeatmapID:178353
BeatmapSetID:59521

[Difficulty]
HPDrainRate:6
CircleSize:4
OverallDifficulty:8
ApproachRate:9
SliderMultiplier:1.6
SliderTickRate:2

[Events]
//Background and Video events
0,0,"lapfox.png"
//Break Periods
2,17727,25654
2,89727,97109
2,177059,193713
//Storyboard Layer 0 (Background)
//Storyboard Layer 1 (Fail)
//Storyboard Layer 2 (Pass)
//Storyboard Layer 3 (Foreground)
//Storyboard Sound Samples
//Background Colour Transformations
3,100,163,162,255

[TimingPoints]
73,272.727272727273,4,2,0,80,1,0
1436,-100,4,1,0,40,0,0
1845,-100,4,2,0,80,0,0
3345,-100,4,1,0,40,0,0
3891,-100,4,2,0,80,0,0
4436,-100,4,1,0,40,0,0
4709,-100,4,2,0,80,0,0
5800,-100,4,1,0,40,0,0
6209,-100,4,2,0,80,0,0
7709,-100,4,1,0,40,0,0
8254,-100,4,2,0,80,0,0
8800,-100,4,1,0,40,0,0
9073,-100,4,2,0,80,0,0
10163,-100,4,1,0,40,0,0
10573,-100,4,2,0,80,0,0
17527,-100,4,1,0,80,0,0
26254,-100,4,2,0,80,0,0
34709,-200,4,2,0,80,0,0
42618,-100,4,2,0,80,0,0
43709,-200,4,2,0,80,0,0
51345,-100,4,2,0,80,0,0
54618,-80,4,2,0,80,0,1
72073,-89.2857142857143,4,2,0,80,0,0
88436,-200,4,2,0,80,0,0
89527,-100,4,1,0,80,0,0
97709,-100,4,2,0,80,0,0
98254,-100,4,2,0,80,0,0
101527,-100,4,1,0,40,0,0
102073,-100,4,2,0,80,0,0
106709,-200,4,2,0,80,0,0
106982,-200,4,1,0,40,0,0
107118,-89.2857142857143,4,2,0,80,0,0
124441,273.660205245154,4,2,0,80,1,0
124441,-200,4,2,0,50,0,0
141950,272.727272727273,4,2,0,80,1,0
141950,-100,4,2,0,80,0,1
146313,-90.9090909090909,4,2,0,80,0,1
150677,-83.3333333333333,4,2,0,80,0,1
155040,-71.9424460431655,4,2,0,80,0,1
159336,-66.6666666666667,4,2,0,80,0,0
159404,-66.6666666666667,4,2,0,80,0,1
176859,-100,4,1,0,80,0,0
194313,-200,4,2,0,80,0,0
207472,-200,4,2,0,5,0,0
207609,-200,4,2,0,80,0,0
207745,-200,4,2,0,5,0,0
207881,-200,4,2,0,80,0,0
208018,-200,4,2,0,5,0,0
208154,-200,4,2,0,80,0,0
208290,-200,4,2,0,5,0,0
208427,-200,4,2,0,80,0,0
208563,-200,4,2,0,5,0,0
208700,-200,4,2,0,80,0,0
208836,-200,4,2,0,5,0,0
208972,-200,4,2,0,80,0,0
209109,-200,4,2,0,5,0,0
209245,-200,4,2,0,80,0,0
209381,-200,4,2,0,5,0,0
209518,-200,4,2,0,80,0,0
209654,-200,4,2,0,5,0,0
209790,-200,4,2,0,80,0,0
209927,-200,4,2,0,5,0,0
210063,-200,4,2,0,80,0,0
210200,-200,4,2,0,5,0,0
210336,-200,4,2,0,40,0,0
211781,272.727272727273,4,2,0,80,1,0
211781,-80,4,2,0,80,0,1
228144,-200,4,2,0,80,0,0
229235,-66.6666666666667,4,2,0,80,0,1
246690,-66.6666666666667,4,1,0,80,0,0

[Colours]
Combo1 : 255,167,47
Combo2 : 126,250,52
Combo3 : 225,57,103
Combo4 : 70,133,238

[HitObjects]
36,304,73,1,0,0:0:0
96,264,209,1,0,0:0:0
160,296,345,1,8,0:0:0
176,300,413,1,0,0:0:0
192,304,482,1,0,0:0:0
232,244,618,2,0,B|276:236|292:196,1,80,2|0,0:0|0:0,0:0:0
288,124,891,1,0,0:0:0
216,108,1027,2,0,B|172:116|156:156,2,80,2|0|0,0:0|0:0|0:0,0:0:0
264,52,1436,5,0,0:0:0
332,32,1572,1,0,0:0:0
404,44,1709,1,0,0:0:0
448,100,1845,2,8,B|492:92|508:52,2,80,2|2|2,0:0|0:0|0:0,0:0:0
396,152,2254,2,0,B|363:190|376:262|447:277,1,160,2|0,0:0|0:0,0:0:0
500,212,2663,1,0,0:0:0
496,356,2800,6,0,B|412:368,1,80,2|0,0:0|0:0,0:0:0
352,336,3073,1,8,0:0:0
280,348,3209,1,0,0:0:0
212,368,3345,6,0,B|152:304,3,80
88,316,3891,2,0,B|80:272|40:256,1,80,2|0,0:0|0:0,0:0:0
32,240,4095,1,0,0:0:0
24,224,4163,1,0,0:0:0
52,156,4300,1,2,0:0:0
96,100,4436,6,0,B|106:60|146:40,1,80
220,32,4709,1,2,0:0:0
288,52,4845,1,0,0:0:0
336,108,4982,2,2,B|344:156|312:180,1,80,2|0,0:0|0:0,0:0:0
256,228,5254,1,0,0:0:0
240,156,5391,2,0,B|324:204|310:294,1,160,2|0,0:0|0:0,0:0:0
268,348,5800,1,0,0:0:0
200,372,5936,1,0,0:0:0
128,356,6073,1,0,0:0:0
72,312,6209,6,2,B|24:304|0:336,2,80
123,260,6618,2,0,B|188:280|234:223|224:174,1,160,2|0,0:0|0:0,0:0:0
248,104,7027,1,0,0:0:0
260,88,7095,1,0,0:0:0
272,72,7163,2,8,B|356:44,1,80,8|0,0:0|0:0,0:0:0
448,128,7436,2,8,B|364:156,1,80,0|8,0:0|0:0,0:0:0
304,184,7709,5,0,0:0:0
283,253,7845,1,0,0:0:0
310,321,7982,1,0,0:0:0
376,348,8118,1,0,0:0:0
448,336,8254,1,2,0:0:0
464,329,8323,1,0,0:0:0
479,318,8391,1,0,0:0:0
491,305,8459,1,0,0:0:0
500,289,8527,1,2,0:0:0
505,271,8595,1,0,0:0:0
510,254,8663,1,2,0:0:0
510,235,8732,1,0,0:0:0
508,216,8800,6,0,B|460:144,1,80
456,76,9073,1,8,0:0:0
392,40,9209,1,0,0:0:0
320,40,9345,2,8,B|312:92|256:132|192:116,1,160,8|0,0:0|0:0,0:0:0
128,100,9754,2,8,B|204:140|240:212,1,160,8|0,0:0|0:0,0:0:0
284,268,10163,1,0,0:0:0
272,340,10300,1,0,0:0:0
208,376,10436,1,0,0:0:0
272,340,10573,6,2,B|312:352|342:316,2,80,2|2|0,0:0|0:0|0:0,0:0:0
212,300,10982,2,0,B|156:232|68:256,1,160,2|0,0:0|0:0,0:0:0
32,316,11391,1,0,0:0:0
96,348,11527,2,0,B|8:216,1,160,2|0,0:0|0:0,0:0:0
68,44,11936,2,0,B|156:176,1,160,2|0,0:0|0:0,0:0:0
228,196,12345,1,0,0:0:0
300,184,12482,1,0,0:0:0
356,140,12618,1,8,0:0:0
348,44,12754,1,0,0:0:0
332,52,12822,1,0,0:0:0
320,64,12890,1,0,0:0:0
264,108,13027,5,8,0:0:0
196,80,13163,2,2,B|112:64,1,80,2|0,0:0|0:0,0:0:0
56,28,13436,1,0,0:0:0
52,100,13573,2,0,B|64:176|64:176|16:248,1,160,2|0,0:0|0:0,0:0:0
36,316,13982,1,0,0:0:0
96,356,14118,1,0,0:0:0
168,348,14254,2,8,B|232:236|376:264,2,240,8|8|0,0:0|0:0|0:0,0:0:0
168,348,15209,1,2,0:0:0
365,51,15618,6,2,B|365:95|405:115,1,80,2|0,0:0|0:0,0:0:0
457,167,15891,2,0,B|480:233|429:278|369:263,1,160,2|0,0:0|0:0,0:0:0
304,244,16300,1,0,0:0:0
252,292,16436,5,0,0:0:0
156,333,16573,1,0,0:0:0
117,239,16709,1,0,0:0:0
23,283,16845,1,8,0:0:0
19,265,16913,1,0,0:0:0
15,247,16982,1,0,0:0:0
36,148,17118,1,0,0:0:0
109,74,17254,1,8,0:0:0
125,66,17323,1,8,0:0:0
142,60,17391,1,8,0:0:0
159,56,17459,1,8,0:0:0
176,54,17527,1,4,0:0:0
493,167,26254,6,0,B|416:127|340:168,1,160,2|0,0:0|0:0,0:0:0
288,220,26663,1,0,0:0:0
306,292,26800,2,0,B|383:332|460:292,1,160,2|0,0:0|0:0,0:0:0
364,72,27345,6,0,B|278:81|237:157,1,160,2|0,0:0|0:0,0:0:0
168,184,27754,2,0,B|120:180|104:140,2,80,2|0|0,0:0|0:0|0:0,0:0:0
196,252,28163,1,8,0:0:0
176,320,28300,1,0,0:0:0
112,356,28436,6,0,B|24:224,1,160,2|0,0:0|0:0,0:0:0
20,152,28845,1,0,0:0:0
44,84,28982,2,0,B|128:108|184:32,1,160,8|0,0:0|0:0,0:0:0
240,80,29391,1,0,0:0:0
304,48,29527,2,0,B|388:32,1,80,2|0,0:0|0:0,0:0:0
456,164,29800,2,0,B|372:180,1,80,8|0,0:0|0:0,0:0:0
380,107,30073,1,2,0:0:0
368,248,30209,1,0,0:0:0
376,260,30277,1,0,0:0:0
384,272,30345,1,0,0:0:0
432,324,30482,1,2,0:0:0
364,344,30618,6,0,B|296:292|212:312,1,160,2|0,0:0|0:0,0:0:0
148,344,31027,1,0,0:0:0
136,272,31163,2,0,B|104:196,1,80,8|0,0:0|0:0,0:0:0
192,120,31436,2,0,B|193:199,1,80,0|0,0:0|0:0,0:0:0
280,160,31709,2,0,B|344:164|384:124|384:64,1,160,2|0,0:0|0:0,0:0:0
312,60,32118,2,2,B|424:172,1,160,2|0,0:0|0:0,0:0:0
456,236,32527,1,8,0:0:0
428,300,32663,1,0,0:0:0
360,328,32800,6,0,B|272:224|140:268,1,240,2|0,0:0|0:0,0:0:0
96,320,33345,2,0,B|200:232|156:100,1,240,2|0,0:0|0:0,0:0:0
104,52,33891,2,0,B|32:88,1,80,2|0,0:0|0:0,0:0:0
240,112,34163,2,0,B|312:76,1,80,8|0,0:0|0:0,0:0:0
374,112,34436,1,2,0:0:0
380,128,34504,1,0,0:0:0
383,145,34573,1,0,0:0:0
383,162,34641,1,0,0:0:0
381,180,34709,6,0,B|378:224|352:254,1,80,2|4,0:0|0:0,0:0:0
293,294,35254,1,0,0:0:0
272,323,35391,1,2,0:0:0
200,317,35663,1,0,0:0:0
169,335,35800,1,2,0:0:0
103,304,36073,2,0,B|56:302|43:260,1,80,2|0,0:0|0:0,0:0:0
28,189,36618,1,0,0:0:0
58,123,36891,1,0,0:0:0
123,92,37163,6,0,B|204:57,1,80,2|0,0:0|0:0,0:0:0
222,86,37573,2,0,B|303:51,1,80,2|0,0:0|0:0,0:0:0
321,79,37982,1,0,0:0:0
384,116,38254,1,2,0:0:0
420,180,38527,1,0,0:0:0
424,252,38800,1,0,0:0:0
392,316,39073,1,0,0:0:0
328,348,39345,6,0,B|284:352|252:332,1,80,2|0,0:0|0:0,0:0:0
220,312,39754,2,0,B|186:283|177:246,1,80,2|0,0:0|0:0,0:0:0
172,212,40163,2,0,B|176:116|261:83,1,160,2|0,0:0|0:0,0:0:0
328,80,40982,1,2,0:0:0
312,148,41254,1,0,0:0:0
316,184,41391,1,0,0:0:0
324,220,41527,6,0,B|352:253|389:262,1,80,2|0,0:0|0:0,0:0:0
512,280,41936,2,0,B|483:313|446:322,1,80,2|0,0:0|0:0,0:0:0
384,360,42345,1,0,0:0:0
368,356,42413,1,0,0:0:0
352,352,42482,1,0,0:0:0
336,348,42550,1,0,0:0:0
320,344,42618,6,0,B|232:368|168:308,1,160,2|0,0:0|0:0,0:0:0
136,140,43027,2,0,B|224:116|288:176,1,160,2|0,0:0|0:0,0:0:0
356,156,43436,1,0,0:0:0
412,112,43573,1,0,0:0:0
444,48,43709,6,0,B|364:24,1,80,4|0,0:0|0:0,0:0:0
308,68,44254,1,2,0:0:0
236,80,44527,1,0,0:0:0
164,68,44800,2,0,B|96:88|84:152,2,120,2|0|0,0:0|0:0|0:0,0:0:0
180,140,45891,2,0,B|144:176|148:224|148:224|105:257|97:332|152:379|230:351|223:300|202:278,1,320,0|2,0:0|0:0,0:0:0
268,248,47254,1,0,0:0:0
324,204,47527,1,0,0:0:0
380,160,47800,1,0,0:0:0
440,120,48073,6,0,B|440:40,1,80,2|0,0:0|0:0,0:0:0
500,160,48618,2,0,B|500:240,1,80,2|0,0:0|0:0,0:0:0
464,300,49163,2,0,B|420:352|356:336,2,120,2|0|2,0:0|0:0|0:0,0:0:0
420,244,50254,1,0,0:0:0
348,228,50527,1,0,0:0:0
288,268,50800,2,0,B|256:240,2,40,2|0|0,0:0|0:0|0:0,0:0:0
266,338,51345,6,4,B|184:348,1,80,4|0,0:0|0:0,0:0:0
136,296,51618,1,0,0:0:0
88,244,51754,2,4,B|6:254,2,80,2|0|0,0:0|0:0|0:0,0:0:0
132,188,52163,1,0,0:0:0
180,132,52300,1,0,0:0:0
224,76,52436,1,2,0:0:0
256,192,52504,12,10,54073,0:0:0
452,252,54618,6,4,B|444:308|384:320,1,100,4|0,0:0|0:0,0:0:0
308,332,54891,1,2,0:0:0
240,292,55027,1,0,0:0:0
212,216,55163,2,0,B|140:188|68:240|60:312,1,200,8|0,0:0|0:0,0:0:0
100,376,55573,1,0,0:0:0
0,248,55709,6,0,B|24:44,1,200,2|0,0:0|0:0,0:0:0
88,96,56118,1,2,0:0:0
164,120,56254,1,0,0:0:0
244,120,56391,1,0,0:0:0
320,100,56527,2,8,B|376:88|388:32,1,100,8|0,0:0|0:0,0:0:0
300,176,56800,6,0,B|287:252|353:311|417:305,1,200,2|0,0:0|0:0,0:0:0
408,224,57209,1,0,0:0:0
484,196,57345,2,2,B|508:92,1,100,2|0,0:0|0:0,0:0:0
496,280,57618,2,2,B|472:384,1,100,2|0,0:0|0:0,0:0:0
400,344,57891,5,0,0:0:0
320,356,58027,1,0,0:0:0
300,360,58095,1,0,0:0:0
280,364,58163,1,8,0:0:0
244,292,58300,1,0,0:0:0
172,256,58436,1,0,0:0:0
152,248,58504,1,0,0:0:0
136,236,58573,1,0,0:0:0
124,220,58641,1,0,0:0:0
120,200,58709,2,0,B|16:176,1,100,8|0,0:0|0:0,0:0:0
144,44,58982,6,4,B|192:56|240:20,1,100,4|0,0:0|0:0,0:0:0
296,80,59254,1,2,0:0:0
372,60,59391,1,0,0:0:0
444,96,59527,2,0,B|488:160|476:236|408:276,1,200,2|0,0:0|0:0,0:0:0
344,308,59936,1,0,0:0:0
268,280,60073,6,0,B|224:312|172:308,1,100,2|0,0:0|0:0,0:0:0
96,296,60345,1,0,0:0:0
192,188,60482,2,0,B|142:184|98:216,1,100,2|0,0:0|0:0,0:0:0
36,164,60754,1,0,0:0:0
64,88,60891,1,8,0:0:0
132,48,61027,1,0,0:0:0
212,40,61163,6,0,B|312:32,1,100,2|0,0:0|0:0,0:0:0
380,76,61436,1,0,0:0:0
420,144,61573,1,0,0:0:0
408,224,61709,2,0,B|418:280|471:292,1,100,2|0,0:0|0:0,0:0:0
392,368,61982,2,0,B|381:311|328:299,1,100,2|0,0:0|0:0,0:0:0
252,276,62254,1,0,0:0:0
176,308,62391,1,0,0:0:0
160,320,62459,1,0,0:0:0
148,336,62527,2,0,B|112:380|60:368,1,100,2|0,0:0|0:0,0:0:0
28,292,62800,5,2,0:0:0
20,272,62868,1,0,0:0:0
16,252,62936,1,0,0:0:0
20,232,63004,1,0,0:0:0
28,212,63073,1,2,0:0:0
32,192,63141,1,0,0:0:0
36,172,63209,1,0,0:0:0
32,152,63277,1,0,0:0:0
28,132,63345,6,0,B|56:36,1,100,2|0,0:0|0:0,0:0:0
136,32,63618,1,2,0:0:0
192,88,63754,1,0,0:0:0
200,168,63891,2,0,B|132:208|120:284|156:344,1,200,2|0,0:0|0:0,0:0:0
92,384,64300,1,0,0:0:0
228,356,64436,2,0,B|328:320,1,100,2|0,0:0|0:0,0:0:0
356,252,64709,1,0,0:0:0
480,148,64845,2,0,B|380:184,1,100,2|0,0:0|0:0,0:0:0
308,160,65118,1,0,0:0:0
244,112,65254,1,8,0:0:0
208,40,65391,1,0,0:0:0
208,232,65527,6,2,B|148:328|32:320,1,200,2|0,0:0|0:0,0:0:0
12,244,65936,1,0,0:0:0
80,200,66073,2,0,B|125:166|122:113,1,100,2|0,0:0|0:0,0:0:0
44,40,66345,2,0,B|-1:73|1:126,1,100,2|0,0:0|0:0,0:0:0
208,232,66618,1,0,0:0:0
304,208,66754,1,0,0:0:0
376,136,66891,1,8,0:0:0
392,36,67027,1,0,0:0:0
488,64,67163,6,0,B|512:160,1,100
464,316,67436,2,0,B|440:220,1,100,8|0,0:0|0:0,0:0:0
368,184,67709,5,2,0:0:0
292,212,67845,1,0,0:0:0
256,284,67982,1,0,0:0:0
272,360,68118,1,0,0:0:0
196,336,68254,2,0,B|149:316|98:336,1,100,2|0,0:0|0:0,0:0:0
0,232,68527,2,0,B|46:251|97:232,1,100,0|0,0:0|0:0,0:0:0
164,184,68800,2,0,B|228:177|280:105|252:33,1,200,2|0,0:0|0:0,0:0:0
348,200,69209,2,0,B|283:206|231:278|259:350,1,200,2|0,0:0|0:0,0:0:0
340,360,69618,1,0,0:0:0
412,324,69754,1,0,0:0:0
432,244,69891,6,2,B|432:140|504:56,1,200,2|0,0:0|0:0,0:0:0
428,24,70300,1,0,0:0:0
371,80,70436,2,0,B|324:60|273:80,1,100,2|0,0:0|0:0,0:0:0
216,136,70709,2,0,B|169:155|118:136,1,100,2|0,0:0|0:0,0:0:0
72,72,70982,1,0,0:0:0
100,212,71118,1,0,0:0:0
40,164,71254,1,8,0:0:0
120,282,71390,1,0,0:0:0
176,340,71527,5,0,0:0:0
196,344,71595,1,0,0:0:0
216,344,71663,1,0,0:0:0
236,340,71732,1,0,0:0:0
252,332,71800,1,0,0:0:0
268,320,71868,1,0,0:0:0
280,304,71936,1,0,0:0:0
288,288,72004,1,0,0:0:0
296,272,72073,6,0,B|291:214|345:155|414:168,1,179.2000021875,2|0,0:0|0:0,0:0:0
484,168,72482,1,0,0:0:0
448,104,72618,2,2,B|422:61|448:19,1,89.60000109375,2|0,0:0|0:0,0:0:0
448,232,72891,2,0,B|473:274|448:316,1,89.60000109375
388,276,73163,6,0,B|323:249|258:295|251:352,1,179.2000021875,2|0,0:0|0:0,0:0:0
180,372,73573,1,2,0:0:0
124,328,73709,2,0,B|92:372|44:372,2,89.60000109375
112,256,74118,1,0,0:0:0
56,212,74254,6,0,B|124:48,1,179.2000021875,2|0,0:0|0:0,0:0:0
196,28,74663,1,0,0:0:0
216,96,74800,2,0,B|216:184,1,89.60000109375,2|0,0:0|0:0,0:0:0
296,288,75073,2,0,B|296:200,1,89.60000109375,0|0,0:0|0:0,0:0:0
352,152,75345,2,0,B|421:151|463:83|448:27,1,179.2000021875,2|0,0:0|0:0,0:0:0
376,28,75754,1,0,0:0:0
508,136,75891,2,0,B|492:180|448:200,1,89.60000109375,2|0,0:0|0:0,0:0:0
436,212,76095,1,0,0:0:0
424,224,76163,1,0,0:0:0
396,292,76300,1,8,0:0:0
332,324,76436,6,0,B|148:340,1,179.2000021875,2|0,0:0|0:0,0:0:0
92,300,76845,1,0,0:0:0
44,244,76982,2,0,B|29:197|62:162,1,89.60000109375,2|0,0:0|0:0,0:0:0
196,64,77254,1,0,0:0:0
156,124,77391,1,0,0:0:0
180,192,77527,6,0,B|216:289|327:272,1,179.2000021875,2|0,0:0|0:0,0:0:0
392,144,77936,2,0,B|355:46|244:63,1,179.2000021875,2|0,0:0|0:0,0:0:0
188,96,78345,1,0,0:0:0
120,76,78482,1,0,0:0:0
76,20,78618,6,0,B|0:28|-16:112|28:156,1,179.2000021875,2|0,0:0|0:0,0:0:0
76,204,79027,1,0,0:0:0
72,276,79163,2,0,B|24:288|12:336,1,89.60000109375,2|0,0:0|0:0,0:0:0
136,244,79436,2,0,B|184:232|196:184,1,89.60000109375,0|0,0:0|0:0,0:0:0
246,133,79709,2,0,B|302:118|370:160|371:229,1,179.2000021875,2|0,0:0|0:0,0:0:0
312,264,80118,1,0,0:0:0
432,268,80254,1,2,0:0:0
441,252,80323,1,0,0:0:0
447,235,80391,1,0,0:0:0
450,217,80459,1,0,0:0:0
450,199,80527,1,0,0:0:0
448,181,80595,1,0,0:0:0
444,163,80663,1,0,0:0:0
439,145,80732,1,0,0:0:0
428,132,80800,6,0,B|271:34,1,179.2000021875,2|0,0:0|0:0,0:0:0
216,76,81209,1,0,0:0:0
148,96,81345,1,2,0:0:0
76,84,81482,1,0,0:0:0
120,28,81618,1,0,0:0:0
120,28,81754,1,0,0:0:0
100,152,81891,6,0,B|44:236|100:320,1,179.2000021875,2|0,0:0|0:0,0:0:0
240,212,82300,2,0,B|296:296|240:380,1,179.2000021875,2|0,0:0|0:0,0:0:0
180,340,82709,1,0,0:0:0
180,340,82845,1,0,0:0:0
336,244,82982,2,0,B|321:144|223:119,1,179.2000021875,2|0,0:0|0:0,0:0:0
156,100,83391,1,0,0:0:0
224,208,83527,2,0,B|321:183|336:83,1,179.2000021875,2|0,0:0|0:0,0:0:0
292,28,83936,1,0,0:0:0
408,100,84073,6,0,B|456:100|488:64,1,89.60000109375,2|0,0:0|0:0,0:0:0
488,320,84345,2,0,B|456:284|408:284,1,89.60000109375,0|0,0:0|0:0,0:0:0
340,192,84618,1,2,0:0:0
272,212,84754,1,0,0:0:0
272,212,84823,1,0,0:0:0
272,212,84891,2,0,B|223:209|238:247|190:244,1,89.60000109375,0|2,0:0|0:0,0:0:0
128,212,85163,6,4,B|68:200|36:248|36:248|0:184,1,179.2000021875,4|0,0:0|0:0,0:0:0
36,120,85573,1,0,0:0:0
96,80,85709,2,0,B|128:44|176:56,1,89.60000109375,2|0,0:0|0:0,0:0:0
224,108,85982,1,0,0:0:0
292,128,86118,1,0,0:0:0
440,52,86254,6,0,B|455:108|413:176|344:177,1,179.2000021875,2|0,0:0|0:0,0:0:0
294,227,86663,2,0,B|225:228|183:296|198:352,1,179.2000021875,2|0,0:0|0:0,0:0:0
264,376,87073,1,0,0:0:0
328,348,87209,1,0,0:0:0
392,376,87345,6,0,B|504:232,1,179.2000021875,2|0,0:0|0:0,0:0:0
472,168,87754,1,0,0:0:0
404,152,87891,2,0,B|335:151|293:83|308:27,1,179.2000021875,2|0,0:0|0:0,0:0:0
307,28,88300,1,0,0:0:0
232,24,88436,6,0,B|200:56|160:52,1,80,2|0,0:0|0:0,0:0:0
16,40,88982,1,0,0:0:0
20,56,89050,1,0,0:0:0
24,72,89118,1,0,0:0:0
28,88,89186,1,0,0:0:0
32,104,89254,1,0,0:0:0
36,120,89323,1,0,0:0:0
40,136,89391,1,0,0:0:0
44,152,89459,1,0,0:0:0
48,168,89527,1,4,0:0:0
174,306,97709,5,2,0:0:0
182,321,97777,1,0,0:0:0
194,333,97845,1,0,0:0:0
209,342,97913,1,0,0:0:0
225,349,97982,1,2,0:0:0
242,354,98050,1,0,0:0:0
259,356,98118,1,2,0:0:0
336,348,98254,6,0,B|372:272|468:264,1,160,2|0,0:0|0:0,0:0:0
496,200,98663,1,0,0:0:0
444,72,98800,2,0,B|421:109|444:146,1,80,2|0,0:0|0:0,0:0:0
506,110,99073,1,0,0:0:0
392,192,99209,2,0,B|348:168|280:196|280:268,1,160,2|0,0:0|0:0,0:0:0
236,324,99618,2,0,B|204:356|164:344,1,80,2|0,0:0|0:0,0:0:0
24,316,99891,2,0,B|56:284|96:296,1,80,2|0,0:0|0:0,0:0:0
156,256,100163,1,0,0:0:0
172,184,100300,1,0,0:0:0
128,128,100436,6,0,B|64:80,1,80,2|0,0:0|0:0,0:0:0
200,112,100709,1,0,0:0:0
216,104,100777,1,0,0:0:0
228,92,100845,1,0,0:0:0
280,40,100982,1,2,0:0:0
352,28,101118,1,0,0:0:0
420,48,101254,1,8,0:0:0
452,112,101391,1,0,0:0:0
448,184,101527,6,0,B|452:228|412:252,1,80
341,251,101800,2,0,B|302:274|306:318,1,80,0|0,0:0|0:0,0:0:0
360,368,102073,1,2,0:0:0
236,336,102209,1,0,0:0:0
236,336,102277,1,0,0:0:0
236,336,102345,2,0,B|160:368,1,80,0|2,0:0|0:0,0:0:0
96,340,102618,6,0,B|8:304|32:212,1,160,2|2,0:0|0:0,0:0:0
84,160,103027,1,0,0:0:0
132,108,103163,2,0,B|104:32,2,80,0|2|0,0:0|0:0|0:0,0:0:0
196,144,103573,2,0,B|274:185|274:102|352:144,1,160,2|0,0:0|0:0,0:0:0
460,268,103982,2,0,B|381:226|381:309|303:268,1,160,2|0,0:0|0:0,0:0:0
244,236,104391,1,0,0:0:0
176,252,104527,1,0,0:0:0
128,308,104663,1,0,0:0:0
108,376,104800,6,0,B|100:288|40:232,1,160,2|0,0:0|0:0,0:0:0
8,172,105209,1,0,0:0:0
76,148,105345,1,2,0:0:0
128,100,105482,1,0,0:0:0
160,36,105618,1,0,0:0:0
88,40,105754,1,0,0:0:0
200,96,105891,6,0,B|292:76,1,80,8|0,0:0|0:0,0:0:0
452,152,106163,2,0,B|360:132,1,80,8|0,0:0|0:0,0:0:0
276,184,106436,1,2,0:0:0
270,198,106504,1,0,0:0:0
267,213,106573,1,0,0:0:0
266,228,106641,1,0,0:0:0
267,243,106709,6,0,B|287:320,1,80,2|4,0:0|0:0,0:0:0
360,356,107118,1,0,0:0:0
436,328,107254,2,0,B|472:296|456:244,1,89.60000109375,2|0,0:0|0:0,0:0:0
388,204,107527,2,0,B|344:152|376:72|444:68,1,179.2000021875,8|0,0:0|0:0,0:0:0
452,152,107936,1,0,0:0:0
344,32,108073,2,0,B|312:68|264:60,1,89.60000109375,2|0,0:0|0:0,0:0:0
128,152,108345,2,0,B|160:116|208:124,1,89.60000109375,8|0,0:0|0:0,0:0:0
272,172,108618,1,2,0:0:0
288,252,108754,1,0,0:0:0
248,324,108891,1,8,0:0:0
172,352,109027,1,0,0:0:0
92,336,109163,6,0,B|8:272|48:176,2,179.2000021875,2|8|2,0:0|0:0|0:0,0:0:0
148,276,109845,1,0,0:0:0
160,196,109982,1,0,0:0:0
128,124,110118,1,2,0:0:0
64,76,110254,2,0,B|240:28,1,179.2000021875,8|0,0:0|0:0,0:0:0
300,80,110663,1,0,0:0:0
380,96,110800,2,8,B|424:100|460:64,1,89.60000109375,8|0,0:0|0:0,0:0:0
476,52,111004,1,0,0:0:0
484,36,111073,1,8,0:0:0
480,140,111209,1,0,0:0:0
408,176,111345,6,2,B|356:188|344:236,1,89.60000109375,2|0,0:0|0:0,0:0:0
428,328,111618,2,2,B|480:316|492:268,1,89.60000109375,2|0,0:0|0:0,0:0:0
356,308,111891,2,0,B|292:392|196:352,1,179.2000021875,2|8,0:0|0:0,0:0:0
140,295,112300,1,0,0:0:0
160,216,112436,2,0,B|224:132|320:172,1,179.2000021875,2|8,0:0|0:0,0:0:0
388,208,112845,1,0,0:0:0
296,88,112982,2,0,B|248:76|208:94,1,89.60000109375,2|0,0:0|0:0,0:0:0
137,132,113254,2,0,B|95:159|82:201,1,89.60000109375,2|0,0:0|0:0,0:0:0
76,280,113527,6,0,B|101:380|207:381,2,179.2000021875,2|8|2,0:0|0:0|0:0,0:0:0
83,201,114209,1,0,0:0:0
28,140,114345,1,0,0:0:0
48,60,114482,1,2,0:0:0
120,24,114618,2,0,B|208:64|296:40,1,179.2000021875,8|0,0:0|0:0,0:0:0
340,108,115027,2,0,B|416:64,1,89.60000109375,0|8,0:0|0:0,0:0:0
434,51,115232,1,0,0:0:0
434,71,115300,1,0,0:0:0
437,91,115368,1,0,0:0:0
443,110,115436,1,0,0:0:0
454,127,115504,1,0,0:0:0
467,142,115573,1,0,0:0:0
481,156,115641,1,0,0:0:0
497,168,115709,6,0,B|452:350,1,179.2000021875,2|2,0:0|0:0,0:0:0
376,356,116118,1,0,0:0:0
340,284,116254,2,0,B|256:228|172:284,1,179.2000021875,8|0,0:0|0:0,0:0:0
180,364,116663,1,0,0:0:0
256,340,116800,2,0,B|256:156,1,179.2000021875,2|0,0:0|0:0,0:0:0
192,112,117209,1,0,0:0:0
216,36,117345,6,2,B|172:20|128:36,1,89.60000109375,2|0,0:0|0:0,0:0:0
296,36,117618,2,2,B|340:52|384:36,1,89.60000109375,2|0,0:0|0:0,0:0:0
320,112,117891,2,0,B|460:228,1,179.2000021875,2|0,0:0|0:0,0:0:0
388,268,118300,1,0,0:0:0
320,226,118436,2,0,B|458:112,1,179.2000021875,2|0,0:0|0:0,0:0:0
432,36,118845,1,2,0:0:0
352,16,118982,2,0,B|284:88|188:80,1,179.2000021875,8|0,0:0|0:0,0:0:0
124,40,119391,1,0,0:0:0
152,144,119527,5,8,0:0:0
146,163,119595,1,0,0:0:0
138,181,119663,1,0,0:0:0
127,198,119732,1,0,0:0:0
113,212,119800,2,0,B|66:227|62:280,1,89.60000109375,2|0,0:0|0:0,0:0:0
0,368,120073,6,8,B|60:292|164:308,1,179.2000021875,8|2,0:0|0:0,0:0:0
232,344,120482,1,0,0:0:0
304,312,120618,2,0,B|388:340,1,89.60000109375,2|0,0:0|0:0,0:0:0
292,236,120891,2,0,B|208:208,1,89.60000109375,8|0,0:0|0:0,0:0:0
360,200,121163,2,8,B|375:100|299:40,1,179.2000021875,2|8,0:0|0:0,0:0:0
236,96,121573,1,0,0:0:0
164,132,121709,1,2,0:0:0
84,128,121845,1,0,0:0:0
12,88,121982,2,0,B|32:44|80:24,1,89.60000109375,2|0,0:0|0:0,0:0:0
12,172,122254,6,8,B|-3:271|72:331,2,179.2000021875,8|0|2,0:0|0:0|0:0,0:0:0
84,128,122936,1,0,0:0:0
120,200,123073,2,0,B|130:245|179:261,1,89.60000109375,0|2,0:0|0:0,0:0:0
252,300,123345,2,0,B|337:345|337:254|422:300,1,179.2000021875,8|0,0:0|0:0,0:0:0
480,356,123754,1,0,0:0:0
457,233,123891,2,0,B|428:192|457:150,1,89.60000109375,8|0,0:0|0:0,0:0:0
401,93,124163,2,0,B|429:51|401:10,1,89.60000109375,0|8,0:0|0:0,0:0:0
335,46,124441,6,4,B|289:49|272:89,1,80,4|0,0:0|0:0,0:0:0
246,113,124851,2,4,B|228:152|183:156,1,80,2|0,0:0|0:0,0:0:0
158,181,125261,1,0,0:0:0
100,224,125535,5,2,0:0:0
132,288,125809,1,0,0:0:0
160,312,125946,1,0,0:0:0
232,304,126219,1,0,0:0:0
267,315,126356,1,2,0:0:0
336,300,126630,6,0,B|360:264|404:264,1,80,2|0,0:0|0:0,0:0:0
429,238,127040,2,0,B|473:238|497:202,1,80,0|0,0:0|0:0,0:0:0
500,168,127451,2,0,B|480:80,1,80,2|2,0:0|0:0,0:0:0
376,32,127998,5,2,0:0:0
376,32,128135,2,0,B|360:76|312:84,1,80
300,112,128545,2,0,B|224:88,1,80,2|2,0:0|0:0,0:0:0
168,44,129093,2,0,B|124:52,1,40,2|0,0:0|0:0,0:0:0
128,124,129503,2,0,B|102:160,1,40,0|2,0:0|0:0,0:0:0
168,196,129914,2,0,B|172:248|212:272|248:272,2,120,2|0|2,0:0|0:0|0:0,0:0:0
240,120,131008,2,0,B|273:119|313:143|317:195,2,120,2|0|2,0:0|0:0|0:0,0:0:0
232,48,132103,6,0,B|272:32|312:48,1,80,2|0,0:0|0:0,0:0:0
328,64,132468,1,0,0:0:0
348,76,132559,1,0,0:0:0
372,80,132650,2,8,B|408:96|424:140,1,80,8|0,0:0|0:0,0:0:0
416,160,133015,1,0,0:0:0
416,184,133106,1,0,0:0:0
428,204,133198,6,0,B|492:264,1,80,2|0,0:0|0:0,0:0:0
492,296,133608,2,0,B|476:368|408:364,1,120,8|0,0:0|0:0,0:0:0
335,364,134292,6,0,B|271:304,1,80,2|0,0:0|0:0,0:0:0
271,272,134702,2,0,B|287:200|355:204,1,120,8|0,0:0|0:0,0:0:0
384,136,135387,6,0,B|348:64,1,80,2|0,0:0|0:0,0:0:0
360,32,135797,2,0,B|316:48|280:24,1,80,2|0,0:0|0:0,0:0:0
252,44,136208,1,0,0:0:0
196,88,136482,6,0,B|152:108|148:148,1,80,2|0,0:0|0:0,0:0:0
144,184,136892,2,0,B|145:232|180:251,1,80,2|0,0:0|0:0,0:0:0
208,272,137303,2,0,B|248:298|284:279,1,80,0|2,0:0|0:0,0:0:0
316,88,137850,5,0,0:0:0
316,88,137987,2,0,B|360:108|364:148,1,80,2|0,0:0|0:0,0:0:0
368,184,138397,2,0,B|366:232|331:251,1,80,2|2,0:0|0:0,0:0:0
300,316,138944,5,0,0:0:0
320,348,139081,1,2,0:0:0
388,328,139355,1,0,0:0:0
408,360,139492,1,2,0:0:0
476,340,139765,2,0,B|496:216,2,120,2|0|2,0:0|0:0|0:0,0:0:0
256,192,140860,12,0,141681,0:0:0
388,320,141950,6,0,B|428:300|432:252,1,80,4|0,0:0|0:0,0:0:0
344,144,142222,2,0,B|304:164|300:212,1,80,8|0,0:0|0:0,0:0:0
288,280,142495,1,0,0:0:0
228,320,142631,2,8,B|160:332|120:284,1,120,8|0,0:0|0:0,0:0:0
100,256,142904,2,8,B|82:213|107:180,1,80,8|0,0:0|0:0,0:0:0
84,104,143176,5,0,0:0:0
104,100,143244,1,0,0:0:0
124,96,143313,2,2,B|161:114|199:96,1,80,2|0,0:0|0:0,0:0:0
356,40,143586,2,2,B|318:21|280:40,1,80,2|0,0:0|0:0,0:0:0
280,120,143859,1,2,0:0:0
288,136,143927,1,0,0:0:0
296,152,143995,1,0,0:0:0
364,192,144131,6,0,B|444:192,1,80,8|0,0:0|0:0,0:0:0
288,232,144404,2,0,B|208:232,1,80,0|0,0:0|0:0,0:0:0
144,368,144677,1,2,0:0:0
84,232,144813,1,0,0:0:0
12,364,144950,2,0,B|24:324|0:288,1,80,0|0,0:0|0:0,0:0:0
12,208,145222,1,2,0:0:0
16,188,145290,1,0,0:0:0
16,168,145359,1,0,0:0:0
12,148,145427,1,0,0:0:0
3,131,145495,6,0,B|59:75,1,80,2|0,0:0|0:0,0:0:0
208,72,145768,1,8,0:0:0
132,32,145904,1,0,0:0:0
212,156,146040,2,0,B|232:196|212:232,1,80,8|0,0:0|0:0,0:0:0
144,284,146313,5,4,0:0:0
64,260,146450,1,0,0:0:0
168,364,146586,2,0,B|212:352|256:364,1,88.000002685547,8|0,0:0|0:0,0:0:0
332,328,146859,1,0,0:0:0
492,288,146995,2,0,B|448:300|404:288,1,88.000002685547,8|0,0:0|0:0,0:0:0
336,240,147268,2,8,B|316:176|360:112|420:104,1,176.000005371094,8|0,0:0|0:0,0:0:0
432,104,147609,1,0,0:0:0
448,108,147677,5,2,0:0:0
424,192,147813,1,0,0:0:0
296,88,147950,2,0,B|252:72|208:88,1,88.000002685547,2|0,0:0|0:0,0:0:0
104,216,148222,1,2,0:0:0
104,216,148290,1,0,0:0:0
104,216,148359,2,0,B|148:232|192:216,1,88.000002685547,0|2,0:0|0:0,0:0:0
244,152,148631,1,0,0:0:0
236,288,148768,1,0,0:0:0
236,288,148904,1,0,0:0:0
164,336,149040,6,4,B|68:316|0:384,2,176.000005371094,4|0|2,0:0|0:0|0:0,0:0:0
184,348,149654,1,0,0:0:0
204,356,149722,1,0,0:0:0
224,360,149790,1,0,0:0:0
248,360,149859,2,0,B|300:360|328:320,1,88.000002685547,2|0,0:0|0:0,0:0:0
364,248,150131,1,8,0:0:0
376,228,150200,1,0,0:0:0
380,208,150268,1,0,0:0:0
380,188,150336,1,0,0:0:0
376,168,150404,1,8,0:0:0
368,148,150472,1,0,0:0:0
356,132,150540,1,0,0:0:0
340,116,150609,1,0,0:0:0
320,104,150677,6,0,B|268:100|240:56,1,95.9999970703126,4|0,0:0|0:0,0:0:0
156,32,150950,1,8,0:0:0
88,88,151086,1,0,0:0:0
96,240,151222,2,0,B|140:208|144:152,2,95.9999970703126,0|8|0,0:0|0:0|0:0,0:0:0
36,304,151631,2,0,B|100:388|208:360,1,191.999994140625,8|0,0:0|0:0,0:0:0
220,348,151972,1,0,0:0:0
236,336,152040,2,0,B|231:284|265:247,1,95.9999970703126,2|0,0:0|0:0,0:0:0
400,296,152313,2,0,B|404:347|370:384,1,95.9999970703126,2|0,0:0|0:0,0:0:0
448,232,152586,1,2,0:0:0
448,232,152654,1,0,0:0:0
448,232,152722,1,0,0:0:0
444,148,152859,6,0,B|396:136|368:92,1,95.9999970703126,8|0,0:0|0:0,0:0:0
416,24,153131,1,0,0:0:0
416,24,153268,1,0,0:0:0
284,104,153404,2,0,B|176:100|128:196,2,191.999994140625,2|0|2,0:0|0:0|0:0,0:0:0
300,112,154018,1,0,0:0:0
312,124,154086,1,0,0:0:0
320,140,154154,1,0,0:0:0
324,159,154222,2,0,B|388:239,1,95.9999970703126,2|0,0:0|0:0,0:0:0
464,244,154495,1,8,0:0:0
348,300,154631,1,0,0:0:0
348,300,154700,1,0,0:0:0
348,300,154768,2,8,B|308:272|256:280,1,95.9999970703126,8|0,0:0|0:0,0:0:0
168,244,155040,5,4,0:0:0
76,272,155177,1,0,0:0:0
4,212,155313,2,0,B|28:164|28:164|20:108,1,111.200003393555,8|0,0:0|0:0,0:0:0
0,12,155586,1,0,0:0:0
88,44,155722,2,8,B|152:100|248:80,1,166.800005090332,8|0,0:0|0:0,0:0:0
260,64,155995,2,8,B|321:51|364:88,1,111.200003393555,8|0,0:0|0:0,0:0:0
400,176,156268,5,0,0:0:0
400,176,156336,1,0,0:0:0
400,176,156404,1,2,0:0:0
304,184,156540,1,0,0:0:0
468,112,156677,1,2,0:0:0
436,268,156813,1,0,0:0:0
368,336,156950,1,2,0:0:0
368,336,157018,1,0,0:0:0
368,336,157086,2,0,B|308:328|264:364,1,111.200003393555,0|8,0:0|0:0,0:0:0
172,348,157359,5,0,0:0:0
100,288,157495,1,0,0:0:0
80,196,157631,1,0,0:0:0
100,104,157768,2,0,B|188:32,1,111.200003393555,2|0,0:0|0:0,0:0:0
384,96,158040,2,0,B|296:168,1,111.200003393555,0|0,0:0|0:0,0:0:0
352,244,158313,1,2,0:0:0
276,300,158450,1,0,0:0:0
252,304,158518,1,0,0:0:0
232,308,158586,2,0,B|172:304|136:352,1,111.200003393555,2|0,0:0|0:0,0:0:0
24,220,158859,5,0,0:0:0
40,200,158927,1,0,0:0:0
56,180,158995,1,0,0:0:0
72,160,159063,1,0,0:0:0
88,140,159131,1,0,0:0:0
104,120,159200,1,0,0:0:0
120,100,159268,1,0,0:0:0
136,80,159336,1,0,0:0:0
152,64,159404,6,4,B|220:40|256:100,1,120.000004577637,4|0,0:0|0:0,0:0:0
300,184,159677,1,8,0:0:0
392,156,159813,1,0,0:0:0
452,80,159950,1,0,0:0:0
460,104,160018,1,0,0:0:0
476,124,160086,2,8,B|460:184|508:240,1,120.000004577637,8|0,0:0|0:0,0:0:0
432,384,160359,2,8,B|448:324|400:268,1,120.000004577637,8|0,0:0|0:0,0:0:0
316,312,160631,1,0,0:0:0
296,300,160700,1,0,0:0:0
276,288,160768,2,0,B|220:256|160:272,1,120.000004577637,2|0,0:0|0:0,0:0:0
0,348,161040,2,0,B|56:380|116:364,1,120.000004577637,2|0,0:0|0:0,0:0:0
52,232,161313,1,2,0:0:0
44,208,161381,1,0,0:0:0
36,184,161450,1,0,0:0:0
96,112,161586,6,4,B|116:48|184:40,1,120.000004577637,2|0,0:0|0:0,0:0:0
240,116,161859,1,0,0:0:0
336,124,161995,1,0,0:0:0
416,72,162131,2,0,B|472:44,2,60.0000022888184,2|0|0,0:0|0:0|0:0,0:0:0
420,168,162404,1,8,0:0:0
476,244,162540,1,0,0:0:0
384,268,162677,5,2,0:0:0
360,276,162745,1,0,0:0:0
340,288,162813,1,0,0:0:0
324,304,162881,1,0,0:0:0
312,324,162950,2,0,B|264:368|200:356,1,120.000004577637,2|0,0:0|0:0,0:0:0
112,324,163222,2,0,B|32:279|29:174|92:119,1,240.000009155274,8|8,0:0|0:0,0:0:0
188,100,163631,1,0,0:0:0
260,36,163768,6,0,B|312:68|384:48,1,120.000004577637,4|0,0:0|0:0,0:0:0
472,64,164040,2,8,B|392:56|320:152|376:232,1,240.000009155274,8|0,0:0|0:0,0:0:0
398,325,164450,2,0,B|454:357|511:325,1,120.000004577637,8|0,0:0|0:0,0:0:0
316,292,164722,2,0,B|259:259|202:292,1,120.000004577637,8|0,0:0|0:0,0:0:0
128,356,164995,1,0,0:0:0
104,348,165063,1,0,0:0:0
80,340,165131,1,2,0:0:0
24,260,165268,1,0,0:0:0
112,224,165404,1,2,0:0:0
184,164,165540,1,0,0:0:0
220,76,165677,1,2,0:0:0
204,56,165745,1,0,0:0:0
188,40,165813,1,0,0:0:0
92,36,165950,6,0,B|52:92|92:148,1,120.000004577637,8|0,0:0|0:0,0:0:0
212,356,166222,2,0,B|252:300|212:244,1,120.000004577637,0|8,0:0|0:0,0:0:0
304,212,166495,1,2,0:0:0
344,124,166631,1,0,0:0:0
324,28,166768,1,0,0:0:0
408,72,166904,1,0,0:0:0
504,80,167040,1,2,0:0:0
496,104,167109,1,0,0:0:0
492,128,167177,1,0,0:0:0
492,152,167245,1,0,0:0:0
496,176,167313,2,0,B|512:296,1,120.000004577637,8|0,0:0|0:0,0:0:0
436,356,167586,2,0,B|364:248|228:264,1,240.000009155274,2|0,0:0|0:0,0:0:0
136,292,167995,1,0,0:0:0
152,196,168131,6,0,B|60:116,1,120.000004577637,4|0,0:0|0:0,0:0:0
148,72,168404,2,0,B|248:100|308:32|308:32|376:56,1,240.000009155274,8|0,0:0|0:0,0:0:0
384,148,168813,1,8,0:0:0
472,188,168950,1,0,0:0:0
336,264,169086,1,8,0:0:0
248,224,169223,1,0,0:0:0
192,340,169359,1,0,0:0:0
168,332,169427,1,0,0:0:0
144,324,169495,2,0,B|100:272|32:284,1,120.000004577637,2|0,0:0|0:0,0:0:0
64,376,169768,1,0,0:0:0
64,376,169904,1,0,0:0:0
20,176,170040,2,0,B|48:120,2,60.0000022888184,2|0|0,0:0|0:0|0:0,0:0:0
112,208,170313,5,2,0:0:0
208,196,170450,1,0,0:0:0
280,132,170586,1,0,0:0:0
308,40,170722,1,0,0:0:0
380,104,170859,2,0,B|500:104,1,120.000004577637,2|0,0:0|0:0,0:0:0
216,60,171131,2,0,B|96:60,1,120.000004577637,8|0,0:0|0:0,0:0:0
24,124,171404,1,2,0:0:0
12,144,171472,1,0,0:0:0
8,168,171540,1,0,0:0:0
8,192,171609,1,0,0:0:0
12,216,171677,2,0,B|32:272|112:292,1,120.000004577637,2|0,0:0|0:0,0:0:0
168,356,171950,2,8,B|252:256|384:276,1,240.000009155274
452,344,172359,1,0,0:0:0
416,172,172495,5,4,0:0:0
340,112,172631,1,0,0:0:0
280,36,172768,2,8,B|216:24|160:60,1,120.000004577637,8|0,0:0|0:0,0:0:0
124,144,173040,1,0,0:0:0
160,236,173177,2,8,B|224:248|280:212,2,120.000004577637,8|0|8,0:0|0:0|0:0,0:0:0
76,284,173586,1,0,0:0:0
112,372,173722,1,0,0:0:0
136,368,173790,1,0,0:0:0
160,364,173859,1,2,0:0:0
244,316,173995,1,0,0:0:0
324,368,174131,1,0,0:0:0
360,280,174268,1,0,0:0:0
444,324,174404,2,0,B|500:208,1,120.000004577637,2|0,0:0|0:0,0:0:0
448,132,174677,5,2,0:0:0
431,112,174745,1,0,0:0:0
414,96,174813,1,2,0:0:0
396,84,174881,1,0,0:0:0
374,71,174950,1,2,0:0:0
352,62,175018,1,0,0:0:0
328,57,175086,1,0,0:0:0
304,56,175154,1,0,0:0:0
283,60,175222,2,0,B|226:93|166:68,3,120.000004577637,2|0|2|0,0:0|0:0|0:0|0:0,0:0:0
64,252,175768,5,2,0:0:0
81,272,175836,1,0,0:0:0
98,288,175904,1,2,0:0:0
116,300,175972,1,0,0:0:0
138,313,176041,1,2,0:0:0
160,322,176109,1,0,0:0:0
184,327,176177,1,0,0:0:0
208,328,176245,1,0,0:0:0
229,324,176313,2,0,B|285:290|345:315,2,120.000004577637,2|0|8,0:0|0:0|0:0,0:0:0
256,192,176859,5,4,0:0:0
372,304,194313,5,4,0:0:0
404,288,194450,1,0,0:0:0
436,272,194586,1,0,0:0:0
464,204,194859,5,2,0:0:0
448,132,195131,1,0,0:0:0
384,100,195404,1,0,0:0:0
96,120,196495,6,0,B|24:104|32:32,2,120,2|0|2,0:0|0:0|0:0,0:0:0
228,172,197859,5,2,0:0:0
220,244,198131,1,0,0:0:0
196,272,198268,1,0,0:0:0
176,300,198404,1,0,0:0:0
116,344,198677,6,0,B|72:332|56:296,1,80,2|0,0:0|0:0,0:0:0
40,264,199086,2,0,B|17:224|31:187,1,80,2|0,0:0|0:0,0:0:0
36,152,199495,2,0,B|59:63|131:32,1,160,2|0,0:0|0:0,0:0:0
184,80,200313,2,0,B|223:102|260:88,1,80,0|0,0:0|0:0,0:0:0
324,56,200859,6,0,B|404:56,1,80,2|0,0:0|0:0,0:0:0
429,81,201268,2,0,B|462:140|441:195,1,120,2|8,0:0|0:0,0:0:0
92,352,202768,5,0,0:0:0
128,288,203040,2,0,B|92:228|24:244,2,120,2|0|2,0:0|0:0|0:0,0:0:0
420,32,204677,5,2,0:0:0
384,96,205222,2,0,B|420:156|488:140,2,120,2|0|2,0:0|0:0|0:0,0:0:0
260,24,206586,5,2,0:0:0
188,24,206859,1,0,0:0:0
152,32,206995,1,0,0:0:0
116,40,207131,1,0,0:0:0
200,131,207404,22,0,B|106:90|10:201|96:360|199:304|299:353|299:353|360:261|477:257|472:77|333:29|272:111,1,880,2|2,0:0|0:0,0:0:0
256,192,210950,12,4,211781,0:0:0
420,276,212053,5,0,0:0:0
340,320,212190,1,0,0:0:0
276,256,212326,2,0,B|220:248|184:288,1,100,8|0,0:0|0:0,0:0:0
112,340,212599,1,0,0:0:0
44,280,212735,1,0,0:0:0
88,200,212871,2,0,B|116:88|8:32,1,200,2|0,0:0|0:0,0:0:0
8,124,213281,1,0,0:0:0
124,24,213417,2,2,B|164:52|220:44,1,100,2|0,0:0|0:0,0:0:0
372,144,213690,2,2,B|332:116|276:124,1,100,8|0,0:0|0:0,0:0:0
216,188,213962,6,2,B|192:276|256:324|328:324,1,200,2|0,0:0|0:0,0:0:0
380,256,214371,1,0,0:0:0
424,336,214508,2,0,B|460:292|512:292,1,100,2|0,0:0|0:0,0:0:0
380,256,214781,1,0,0:0:0
340,176,214917,2,0,B|228:132|208:36,1,200,2|0,0:0|0:0,0:0:0
296,24,215326,1,2,0:0:0
164,140,215462,1,0,0:0:0
356,96,215599,2,0,B|408:104|423:163,1,100,8|0,0:0|0:0,0:0:0
304,264,215871,2,0,B|252:256|237:197,1,100,8|0,0:0|0:0,0:0:0
320,352,216144,6,0,B|240:376|176:324|160:268,1,200,2|0,0:0|0:0,0:0:0
232,120,216553,2,0,B|312:96|376:148|392:204,1,200,2|0,0:0|0:0,0:0:0
396,292,216962,1,0,0:0:0
316,252,217099,1,0,0:0:0
480,236,217235,2,0,B|492:128,1,100,8|0,0:0|0:0,0:0:0
436,64,217508,1,0,0:0:0
352,28,217644,2,8,B|264:104|164:72,1,200,8|0,0:0|0:0,0:0:0
168,164,218053,1,0,0:0:0
84,128,218190,1,0,0:0:0
12,184,218326,6,0,B|-4:248|28:316|116:328,1,200,2|0,0:0|0:0,0:0:0
192,284,218735,1,0,0:0:0
280,260,218871,2,0,B|328:288|336:344,1,100,2|0,0:0|0:0,0:0:0
216,200,219144,1,0,0:0:0
184,116,219281,1,0,0:0:0
216,32,219417,2,0,B|332:0|396:84,1,200,2|0,0:0|0:0,0:0:0
444,160,219826,1,0,0:0:0
440,180,219894,1,0,0:0:0
440,200,219962,1,2,0:0:0
444,220,220031,1,0,0:0:0
452,236,220099,2,0,B|460:292|512:324,1,100,0|2,0:0|0:0,0:0:0
428,368,220371,1,0,0:0:0
348,324,220508,6,0,B|296:312|248:336,1,100,2|0,0:0|0:0,0:0:0
204,256,220781,1,8,0:0:0
120,228,220917,1,0,0:0:0
36,264,221053,2,0,B|4:364,1,100,2|0,0:0|0:0,0:0:0
44,164,221326,2,0,B|76:64,1,100,8|0,0:0|0:0,0:0:0
152,112,221599,6,0,B|232:168|344:144,1,200,2|0,0:0|0:0,0:0:0
168,240,222008,2,0,B|280:216|360:272,1,200,2|0,0:0|0:0,0:0:0
448,272,222417,1,0,0:0:0
480,356,222553,1,0,0:0:0
424,172,222690,6,0,B|408:116|448:80,1,100,2|0,0:0|0:0,0:0:0
504,148,222962,1,0,0:0:0
504,148,223099,1,0,0:0:0
372,36,223235,2,2,B|272:56,1,100,2|0,0:0|0:0,0:0:0
304,140,223508,2,8,B|188:124|124:208,1,200,8|2,0:0|0:0,0:0:0
196,264,223917,1,0,0:0:0
168,72,224053,1,8,0:0:0
276,224,224190,1,0,0:0:0
292,232,224258,1,0,0:0:0
312,236,224326,2,0,B|368:252|408:216,1,100,2|0,0:0|0:0,0:0:0
484,40,224599,2,0,B|428:24|388:60,1,100,8|0,0:0|0:0,0:0:0
460,140,224871,5,4,0:0:0
496,224,225008,1,0,0:0:0
476,312,225144,1,2,0:0:0
396,352,225281,1,0,0:0:0
308,336,225417,2,0,B|232:256|124:284,1,200,8|0,0:0|0:0,0:0:0
52,336,225826,1,0,0:0:0
84,192,225962,2,0,B|48:84,1,100,2|0,0:0|0:0,0:0:0
176,188,226235,1,0,0:0:0
256,144,226371,2,0,B|256:32,1,100,2|0,0:0|0:0,0:0:0
336,188,226644,1,0,0:0:0
428,192,226781,2,0,B|464:84,1,100,2|0,0:0|0:0,0:0:0
337,326,227053,6,0,B|309:372|255:395|201:372|174:326,1,200,2|0,0:0|0:0,0:0:0
256,284,227462,1,0,0:0:0
256,192,227599,2,0,B|206:97|305:97|256:2,1,200,2|0,0:0|0:0,0:0:0
32,112,228144,6,0,B|32:192,1,80,2|0,0:0|0:0,0:0:0
144,340,228690,5,0,0:0:0
168,336,228758,1,0,0:0:0
192,332,228826,1,0,0:0:0
216,328,228894,1,0,0:0:0
240,324,228962,1,0,0:0:0
264,320,229031,1,0,0:0:0
288,316,229099,1,0,0:0:0
312,312,229167,1,0,0:0:0
336,304,229235,6,4,B|400:284|408:216,1,120.000004577637,4|0,0:0|0:0,0:0:0
328,160,229508,1,2,0:0:0
368,72,229644,1,0,0:0:0
244,204,229781,2,0,B|176:228|132:184,1,120.000004577637,8|0,0:0|0:0,0:0:0
52,132,230053,1,0,0:0:0
80,40,230190,2,0,B|148:16|192:60,2,120.000004577637,0|8|0,0:0|0:0|0:0,0:0:0
52,132,230599,1,0,0:0:0
8,216,230735,1,0,0:0:0
40,308,230871,2,0,B|104:324|136:376,1,120.000004577637,2|0,0:0|0:0,0:0:0
224,340,231144,1,0,0:0:0
320,360,231281,1,0,0:0:0
396,300,231417,6,4,B|336:224|384:128|468:112,1,240.000009155274,4|2,0:0|0:0,0:0:0
496,204,231826,1,0,0:0:0
312,104,231962,1,2,0:0:0
304,300,232099,1,0,0:0:0
496,204,232235,2,0,B|464:260|496:320,1,120.000004577637,2|0,0:0|0:0,0:0:0
408,356,232508,5,2,0:0:0
288,344,232644,1,2,0:0:0
196,264,232781,1,2,0:0:0
164,148,232917,1,2,0:0:0
216,40,233053,2,0,B|272:76|332:56,1,120.000004577637,8|0,0:0|0:0,0:0:0
352,68,233258,1,0,0:0:0
372,80,233326,1,8,0:0:0
432,152,233462,1,0,0:0:0
196,264,233599,6,0,B|128:272|112:336,1,120.000004577637,4|0,0:0|0:0,0:0:0
204,360,233871,1,2,0:0:0
284,308,234008,1,0,0:0:0
108,200,234144,2,0,B|160:164|228:176,1,120.000004577637,8|0,0:0|0:0,0:0:0
308,220,234417,1,0,0:0:0
388,168,234553,1,0,0:0:0
376,72,234690,6,0,B|260:40,1,120.000004577637,2|0,0:0|0:0,0:0:0
396,256,234962,2,0,B|512:288,1,120.000004577637,2|0,0:0|0:0,0:0:0
468,120,235235,1,2,0:0:0
388,168,235371,1,2,0:0:0
308,220,235508,2,2,B|254:217|224:171|238:136,1,120.000004577637,2|0,0:0|0:0,0:0:0
152,92,235781,6,4,B|128:212|4:272,1,240.000009155274,4|2,0:0|0:0,0:0:0
56,352,236190,1,0,0:0:0
140,304,236326,1,2,0:0:0
164,296,236394,1,0,0:0:0
188,288,236462,2,0,B|224:344|296:340,2,120.000004577637,0|2|0,0:0|0:0|0:0,0:0:0
272,240,236871,5,2,0:0:0
276,216,236940,1,0,0:0:0
272,193,237008,1,0,0:0:0
262,173,237076,1,0,0:0:0
247,155,237144,1,2,0:0:0
228,139,237212,1,0,0:0:0
206,127,237281,1,0,0:0:0
182,122,237349,1,0,0:0:0
161,123,237417,2,0,B|36:156,1,120.000004577637,2|2,0:0|0:0,0:0:0
32,176,237621,1,0,0:0:0
24,200,237690,2,0,B|16:272|56:312,1,120.000004577637,0|2,0:0|0:0,0:0:0
144,348,237962,5,4,0:0:0
204,272,238099,1,0,0:0:0
292,308,238235,2,0,B|356:312|392:252,1,120.000004577637,8|0,0:0|0:0,0:0:0
400,44,238508,2,0,B|336:40|300:100,1,120.000004577637,2|0,0:0|0:0,0:0:0
440,168,238781,1,2,0:0:0
254,184,238917,1,0,0:0:0
52,92,239053,6,0,B|112:64|164:112,1,120.000004577637,2|0,0:0|0:0,0:0:0
164,272,239326,2,0,B|112:320|52:292,1,120.000004577637,0|0,0:0|0:0,0:0:0
16,204,239599,1,2,0:0:0
104,164,239735,1,2,0:0:0
196,184,239871,2,0,B|264:176|300:116,1,120.000004577637,2|0,0:0|0:0,0:0:0
332,36,240144,6,4,B|304:128|368:204|452:208,1,240.000009155274,4|2,0:0|0:0,0:0:0
480,116,240553,1,0,0:0:0
484,300,240690,2,0,B|440:352|368:332,1,120.000004577637,2|0,0:0|0:0,0:0:0
256,204,240962,2,0,B|300:152|372:172,1,120.000004577637,2|0,0:0|0:0,0:0:0
296,284,241235,1,2,0:0:0
220,340,241371,1,0,0:0:0
196,336,241440,1,0,0:0:0
172,332,241508,1,2,0:0:0
108,264,241644,1,0,0:0:0
24,216,241781,2,0,B|-8:156|20:100,1,120.000004577637,2|0,0:0|0:0,0:0:0
36,83,241985,1,0,0:0:0
52,66,242053,2,0,B|112:34|168:62,1,120.000004577637,2|0,0:0|0:0,0:0:0
212,148,242326,5,2,0:0:0
304,172,242462,1,0,0:0:0
396,144,242599,1,0,0:0:0
452,68,242735,1,0,0:0:0
396,144,242871,5,8,0:0:0
472,200,243007,1,0,0:0:0
500,292,243144,1,0,0:0:0
476,384,243280,1,0,0:0:0
404,320,243417,5,2,0:0:0
316,288,243553,1,0,0:0:0
220,300,243690,1,0,0:0:0
132,336,243826,1,0,0:0:0
40,316,243962,5,8,0:0:0
12,224,244099,1,0,0:0:0
68,148,244235,1,0,0:0:0
36,56,244371,1,0,0:0:0
132,72,244508,6,0,B|176:124|240:100,1,120.000004577637,2|0,0:0|0:0,0:0:0
376,68,244781,2,0,B|324:112|348:176,1,120.000004577637,2|0,0:0|0:0,0:0:0
380,312,245053,2,0,B|336:260|272:284,1,120.000004577637,2|0,0:0|0:0,0:0:0
136,316,245326,2,0,B|188:272|164:208,1,120.000004577637,2|0,0:0|0:0,0:0:0
236,140,245599,5,0,0:0:0
244,120,245667,1,0,0:0:0
260,100,245735,1,0,0:0:0
276,84,245803,1,0,0:0:0
296,72,245871,1,0,0:0:0
320,64,245940,1,0,0:0:0
344,60,246008,1,0,0:0:0
368,60,246076,1,0,0:0:0
392,64,246143,5,2,0:0:0
416,72,246212,1,0,0:0:0
436,84,246281,1,0,0:0:0
452,100,246349,1,0,0:0:0
464,120,246417,2,0,B|476:160,8,30.0000011444092,2|0|2|0|2|0|2|0|4,0:0|0:0|0:0|0:0|0:0|0:0|0:0|0:0|0:0,0:0:0
