osu file format v11

[General]
AudioFilename: Lapfoxed Forever.mp3
AudioLeadIn: 3000
PreviewTime: 106982
Countdown: 1
SampleSet: Soft
StackLeniency: 0.7
Mode: 0
LetterboxInBreaks: 1

[Editor]
Bookmarks: 1027,26254,54618,89527,106982,124441,141975,159404,176868,194313,211781,228144
DistanceSpacing: 0.5
BeatDivisor: 8
GridSize: 4

[Metadata]
Title:Lapfoxed Forever
TitleUnicode:Lapfoxed Forever
Artist:Lapfox Trax feat. guilhox
ArtistUnicode:Lapfox Trax feat. guilhox
Creator:Blue Dragon
Version:Insane
Source:
Tags:renard queenston foenix furries in a blender fiab jackal queenston adraen the queenstons mayhem kitsune^2 klippa kitcaliber banned forever hardcore disco the daeva suite objection set me free contact what you do outsider eggs the steel monster above the city arcadepunk vultures it's murder amber starlight sinisterrrrrrrr banana mashup [luanny]
BeatmapID:178448
BeatmapSetID:59521

[Difficulty]
HPDrainRate:6
CircleSize:4
OverallDifficulty:8
ApproachRate:9
SliderMultiplier:1.4
SliderTickRate:2

[Events]
//Background and Video events
0,0,"lapfox.png"
//Break Periods
2,17727,25654
2,89727,97109
2,177059,193713
//Storyboard Layer 0 (Background)
//Storyboard Layer 1 (Fail)
//Storyboard Layer 2 (Pass)
//Storyboard Layer 3 (Foreground)
//Storyboard Sound Samples
//Background Colour Transformations
3,100,163,162,255

[TimingPoints]
73,272.727272727273,4,2,0,80,1,0
1436,-100,4,1,0,40,0,0
1845,-100,4,2,0,80,0,0
3345,-100,4,1,0,40,0,0
3891,-100,4,2,0,80,0,0
4436,-100,4,1,0,40,0,0
4709,-100,4,2,0,80,0,0
5800,-100,4,1,0,40,0,0
6209,-100,4,2,0,80,0,0
7709,-100,4,1,0,40,0,0
8254,-100,4,2,0,80,0,0
8800,-100,4,1,0,40,0,0
9073,-100,4,2,0,80,0,0
10163,-100,4,1,0,40,0,0
10573,-100,4,2,0,80,0,0
16436,-100,4,1,0,40,0,0
17527,-100,4,1,0,80,0,0
26254,-100,4,2,0,80,0,0
34709,-200,4,2,0,80,0,0
42618,-100,4,2,0,80,0,0
43709,-200,4,2,0,80,0,0
51345,-100,4,2,0,80,0,0
54618,-100,4,2,0,80,0,1
72073,-100,4,2,0,80,0,0
88436,-200,4,2,0,80,0,0
89527,-100,4,1,0,80,0,0
97709,-100,4,2,0,80,0,0
98254,-100,4,2,0,80,0,0
101527,-100,4,1,0,40,0,0
102073,-100,4,2,0,80,0,0
106709,-200,4,2,0,80,0,0
106982,-200,4,1,0,40,0,0
107118,-100,4,2,0,80,0,0
124441,273.660205245154,4,2,0,80,1,0
124441,-200,4,2,0,50,0,0
141950,272.727272727273,4,2,0,80,1,0
141950,-100,4,2,0,80,0,1
159336,-100,4,2,0,80,0,0
159404,-100,4,2,0,80,0,1
176859,-100,4,1,0,80,0,0
194313,-200,4,2,0,80,0,0
207472,-200,4,2,0,5,0,0
207609,-200,4,2,0,80,0,0
207745,-200,4,2,0,5,0,0
207881,-200,4,2,0,80,0,0
208018,-200,4,2,0,5,0,0
208154,-200,4,2,0,80,0,0
208290,-200,4,2,0,5,0,0
208427,-200,4,2,0,80,0,0
208563,-200,4,2,0,5,0,0
208700,-200,4,2,0,80,0,0
208836,-200,4,2,0,5,0,0
208972,-200,4,2,0,80,0,0
209109,-200,4,2,0,5,0,0
209245,-200,4,2,0,80,0,0
209381,-200,4,2,0,5,0,0
209518,-200,4,2,0,80,0,0
209654,-200,4,2,0,5,0,0
209790,-200,4,2,0,80,0,0
209927,-200,4,2,0,5,0,0
210063,-200,4,2,0,80,0,0
210200,-200,4,2,0,5,0,0
210336,-200,4,2,0,40,0,0
211781,272.727272727273,4,2,0,80,1,0
211781,-100,4,2,0,80,0,1
228144,-200,4,2,0,80,0,0
229235,-100,4,2,0,80,0,1
246690,-100,4,1,0,80,0,0

[Colours]
Combo1 : 255,167,47
Combo2 : 126,250,52
Combo3 : 225,57,103
Combo4 : 70,133,238

[HitObjects]
44,304,73,1,0,0:0:0
94,255,209,1,0,0:0:0
160,276,345,2,0,B|228:276,1,70,2|0,0:0|0:0,0:0:0
272,220,618,2,2,B|324:220|352:164|336:120,1,140,2|0,0:0|0:0,0:0:0
212,52,1027,2,2,B|160:52|132:108|148:152,1,140,2|0,0:0|0:0,0:0:0
144,224,1436,1,0,0:0:0
124,292,1573,1,0,0:0:0
64,328,1709,1,0,0:0:0
124,292,1845,6,0,B|148:324|144:360,2,70,0|2|0,0:0|0:0|0:0,0:0:0
64,252,2254,2,0,B|8:192|28:120,1,140,2|0,0:0|0:0,0:0:0
96,104,2663,1,0,0:0:0
136,48,2800,2,0,B|208:24,1,70,2|0,0:0|0:0,0:0:0
308,104,3073,2,0,B|241:126,1,70,8|0,0:0|0:0,0:0:0
204,184,3345,1,0,0:0:0
200,256,3482,1,0,0:0:0
240,316,3618,1,0,0:0:0
308,336,3754,1,0,0:0:0
376,316,3891,6,0,B|412:300|412:260,1,70,2|0,0:0|0:0,0:0:0
404,248,4095,1,0,0:0:0
396,232,4163,1,0,0:0:0
412,164,4300,1,2,0:0:0
436,96,4436,6,0,B|484:40,1,70
360,108,4709,1,2,0:0:0
296,84,4845,1,0,0:0:0
264,20,4982,2,0,B|232:84|148:84,1,140,2|0,0:0|0:0,0:0:0
98,34,5391,2,0,B|162:66|162:150,1,140,2|0,0:0|0:0,0:0:0
156,220,5800,1,0,0:0:0
124,284,5936,1,0,0:0:0
68,328,6073,1,0,0:0:0
124,284,6209,6,0,B|72:240,2,70,2|2|2,0:0|0:0|0:0,0:0:0
160,344,6618,2,0,B|240:348|276:280,1,140,2|0,0:0|0:0,0:0:0
256,212,7027,1,0,0:0:0
208,160,7163,2,0,B|128:156|92:224,1,140,2|0,0:0|0:0,0:0:0
36,264,7573,1,0,0:0:0
28,196,7709,6,0,B|0:132,1,70
68,112,7982,2,0,B|96:48,1,70,0|0,0:0|0:0,0:0:0
164,64,8254,1,2,0:0:0
180,68,8323,1,0,0:0:0
196,68,8391,1,0,0:0:0
212,64,8459,1,0,0:0:0
228,56,8527,2,0,B|264:32,3,35
272,32,8800,6,0,B|308:27|336:55,1,70,0|0,0:0|0:0,0:0:0
368,116,9073,1,2,0:0:0
436,132,9209,1,0,0:0:0
476,188,9345,2,0,B|484:260|428:316,1,140,2|0,0:0|0:0,0:0:0
358,314,9754,2,0,B|285:306|229:361,1,140,2|0,0:0|0:0,0:0:0
168,328,10163,1,0,0:0:0
108,288,10300,1,0,0:0:0
48,252,10436,1,0,0:0:0
44,324,10573,6,0,B|35:365|3:377,2,70,0|2|0,0:0|0:0|0:0,0:0:0
48,252,10982,2,0,B|40:179|95:123,1,140,2|0,0:0|0:0,0:0:0
160,152,11391,1,0,0:0:0
228,136,11527,2,2,B|264:128|280:92,1,70,2|0,0:0|0:0,0:0:0
240,36,11800,1,0,0:0:0
188,80,11936,2,0,B|243:136|235:208,1,140,2|0,0:0|0:0,0:0:0
212,272,12345,1,0,0:0:0
156,312,12482,2,0,B|172:348,2,35,0|0|2,0:0|0:0|0:0,0:0:0
88,328,12754,2,0,B|88:367,1,35
88,328,12891,2,0,B|60:304|64:263,1,70,0|2,0:0|0:0,0:0:0
84,196,13163,5,2,0:0:0
32,148,13300,1,0,0:0:0
12,80,13436,1,0,0:0:0
44,16,13573,2,0,B|120:24|156:92,1,140,2|0,0:0|0:0,0:0:0
200,144,13982,1,2,0:0:0
268,160,14118,1,0,0:0:0
328,124,14254,6,8,B|411:125|441:54|441:54|514:62,2,210,2|2|0,0:0|0:0|0:0,0:0:0
332,196,15209,1,0,0:0:0
388,240,15345,2,0,B|416:268|456:264,1,70,2|0,0:0|0:0,0:0:0
484,204,15618,1,2,0:0:0
368,344,15891,6,0,B|232:372,1,140,2|0,0:0|0:0,0:0:0
168,344,16300,1,0,0:0:0
116,296,16436,1,0,0:0:0
88,232,16573,1,0,0:0:0
80,164,16709,1,0,0:0:0
96,96,16845,2,0,B|60:76,2,35,8|0|0,0:0|0:0|0:0,0:0:0
148,48,17118,1,0,0:0:0
216,36,17254,1,8,0:0:0
232,48,17323,1,0,0:0:0
248,56,17391,1,0,0:0:0
264,64,17459,1,0,0:0:0
280,68,17527,1,4,0:0:0
412,48,26254,6,0,B|474:95|474:165,1,140,2|0,0:0|0:0,0:0:0
444,232,26663,1,0,0:0:0
392,280,26800,1,2,0:0:0
372,348,26936,1,0,0:0:0
392,280,27073,2,0,B|452:316,1,70
320,300,27345,6,0,B|248:300|201:362,1,140,2|0,0:0|0:0,0:0:0
132,348,27754,1,0,0:0:0
76,304,27891,2,0,B|44:284|40:248,1,70,2|0,0:0|0:0,0:0:0
112,168,28163,2,0,B|144:188|148:224,1,70,0|0,0:0|0:0,0:0:0
28,160,28436,2,0,B|28:84|100:48,1,140,2|0,0:0|0:0,0:0:0
160,84,28845,1,0,0:0:0
232,92,28982,2,8,B|300:60,1,70,8|0,0:0|0:0,0:0:0
364,40,29254,1,0,0:0:0
428,68,29391,1,0,0:0:0
460,132,29527,6,0,B|444:204|500:264,1,140,2|0,0:0|0:0,0:0:0
476,328,29936,1,0,0:0:0
416,368,30073,1,8,0:0:0
348,352,30209,1,0,0:0:0
332,344,30277,1,0,0:0:0
320,332,30345,2,0,B|292:304|256:304,1,70,0|2,0:0|0:0,0:0:0
196,268,30618,6,4,B|148:328|72:316,1,140,4|2,0:0|0:0,0:0:0
20,268,31027,1,0,0:0:0
0,200,31163,1,8,0:0:0
12,132,31300,1,0,0:0:0
56,80,31436,2,0,B|88:68|108:36,1,70
172,63,31709,6,0,B|286:45|358:135,2,210,2|0|0,0:0|0:0|0:0,0:0:0
156,132,32663,1,0,0:0:0
208,180,32800,2,0,B|208:260|140:296,1,140,2|0,0:0|0:0,0:0:0
96,348,33209,1,0,0:0:0
68,284,33345,2,0,B|0:268,1,70,2|0,0:0|0:0,0:0:0
172,364,33618,2,0,B|240:380,1,70,2|0,0:0|0:0,0:0:0
289,330,33891,2,0,B|289:250|355:215,1,140,2|0,0:0|0:0,0:0:0
416,184,34300,1,0,0:0:0
444,120,34436,1,2,0:0:0
440,104,34504,1,0,0:0:0
432,88,34573,1,0,0:0:0
420,76,34641,1,0,0:0:0
408,64,34709,6,0,B|340:44,1,70,2|4,0:0|0:0,0:0:0
296,140,35391,1,2,0:0:0
192,152,35800,1,0,0:0:0
124,136,36073,2,0,B|64:141|28:103,2,105,2|0|0,0:0|0:0|0:0,0:0:0
144,204,37163,2,0,B|171:279|237:311|310:298,1,210
376,280,38254,1,2,0:0:0
420,224,38527,1,0,0:0:0
428,156,38800,1,0,0:0:0
412,88,39073,1,0,0:0:0
360,40,39345,6,0,B|338:93|279:104,2,105
412,88,40436,2,0,B|280:28,1,140,2|0,0:0|0:0,0:0:0
216,44,41254,1,0,0:0:0
156,80,41527,2,0,B|152:136|100:164,2,105,2|0|2,0:0|0:0|0:0,0:0:0
140,72,42413,1,0,0:0:0
124,64,42482,1,0,0:0:0
108,56,42550,1,0,0:0:0
92,48,42618,6,4,B|28:76|16:160,1,140,4|0,0:0|0:0,0:0:0
16,228,43027,2,4,B|44:292|128:304,1,140,4|0,0:0|0:0,0:0:0
192,276,43436,1,2,0:0:0
256,248,43573,1,2,0:0:0
324,220,43709,6,0,B|388:196,1,70,4|0,0:0|0:0,0:0:0
428,136,44254,1,2,0:0:0
424,68,44527,1,0,0:0:0
364,32,44800,2,0,B|307:15|265:51,2,105,2|0|0,0:0|0:0|0:0,0:0:0
364,104,45891,2,0,B|288:192|172:164,1,210,0|0,0:0|0:0,0:0:0
104,160,46982,1,2,0:0:0
60,212,47254,1,0,0:0:0
44,280,47527,2,0,B|76:344,1,70
144,360,48073,5,2,0:0:0
212,372,48345,1,0,0:0:0
276,344,48618,1,8,0:0:0
312,284,48891,1,0,0:0:0
308,216,49163,2,0,B|292:160|232:144,2,105,2|0|8,0:0|0:0|0:0,0:0:0
372,240,50254,2,0,B|448:240,1,70,2|0,0:0|0:0,0:0:0
491,190,50800,1,2,0:0:0
260,36,51345,6,0,B|192:56,1,70,4|0,0:0|0:0,0:0:0
143,105,51618,1,0,0:0:0
93,154,51754,2,0,B|25:174,2,70,0|8|0,0:0|0:0|0:0,0:0:0
152,188,52163,1,0,0:0:0
184,248,52300,1,2,0:0:0
180,316,52436,1,8,0:0:0
256,192,52504,12,10,54073,0:0:0
416,48,54618,6,4,B|448:108,1,70,4|0,0:0|0:0,0:0:0
448,180,54891,1,2,0:0:0
388,216,55027,1,0,0:0:0
320,220,55163,2,0,B|264:208|240:164|248:116,1,140,8|0,0:0|0:0,0:0:0
292,60,55573,1,0,0:0:0
180,96,55709,6,0,B|48:152,1,140,2|0,0:0|0:0,0:0:0
32,224,56118,1,2,0:0:0
48,292,56254,2,0,B|20:360,1,70
128,292,56527,2,0,B|156:224,1,70,8|0,0:0|0:0,0:0:0
224,212,56800,6,0,B|304:208|336:136,1,140,2|0,0:0|0:0,0:0:0
320,72,57209,1,0,0:0:0
264,32,57345,2,0,B|184:36|152:108,2,140,2|0|2,0:0|0:0|0:0,0:0:0
320,72,58027,1,0,0:0:0
336,64,58095,1,0,0:0:0
352,56,58163,2,0,B|420:56,1,70,8|0,0:0|0:0,0:0:0
472,108,58436,1,2,0:0:0
484,120,58504,1,0,0:0:0
492,136,58573,1,0,0:0:0
496,152,58641,1,0,0:0:0
496,168,58709,2,0,B|496:240,1,70,8|0,0:0|0:0,0:0:0
440,280,58982,6,4,B|380:240,1,70,4|0,0:0|0:0,0:0:0
317,283,59254,2,4,B|332:352,1,70,2|0,0:0|0:0,0:0:0
208,324,59527,2,4,B|248:264,1,70,8|0,0:0|0:0,0:0:0
292,212,59800,1,0,0:0:0
304,144,59936,1,0,0:0:0
276,80,60073,2,0,B|224:24|148:36,1,140,2|0,0:0|0:0,0:0:0
36,172,60482,2,0,B|88:228|164:216,1,140,2|0,0:0|0:0,0:0:0
212,164,60891,1,8,0:0:0
212,164,61027,1,0,0:0:0
280,180,61163,6,0,B|408:124,1,140,2|0,0:0|0:0,0:0:0
472,156,61573,1,0,0:0:0
412,200,61709,2,0,B|320:240|320:240|292:276,1,140,2|0,0:0|0:0,0:0:0
336,328,62118,1,0,0:0:0
404,348,62254,2,0,B|440:352|472:324,2,70,2|0|8,0:0|0:0|0:0,0:0:0
336,328,62663,1,0,0:0:0
272,360,62800,1,2,0:0:0
256,364,62868,1,0,0:0:0
240,364,62936,1,0,0:0:0
224,360,63004,1,0,0:0:0
208,352,63073,2,0,B|180:328,3,35,8|0|0|0,0:0|0:0|0:0|0:0,0:0:0
172,316,63345,6,0,B|160:280|120:272,1,70,2|0,0:0|0:0,0:0:0
56,296,63618,1,8,0:0:0
8,244,63754,1,0,0:0:0
20,176,63891,2,0,B|76:128|80:48,2,140,2|0|2,0:0|0:0|0:0,0:0:0
76,220,64573,1,0,0:0:0
144,224,64709,1,0,0:0:0
208,196,64845,2,0,B|248:192|264:156,1,70,2|0,0:0|0:0,0:0:0
284,92,65118,1,0,0:0:0
240,36,65254,1,8,0:0:0
284,92,65391,1,0,0:0:0
356,96,65527,6,0,B|436:96|474:157,1,140,2|0,0:0|0:0,0:0:0
500,224,65936,1,0,0:0:0
480,292,66073,2,0,B|420:336,1,70,2|0,0:0|0:0,0:0:0
356,356,66345,1,8,0:0:0
292,324,66482,1,0,0:0:0
264,256,66618,6,0,B|272:216|312:208,2,70,2|0|8,0:0|0:0|0:0,0:0:0
200,288,67027,1,0,0:0:0
184,292,67095,1,0,0:0:0
168,296,67163,2,0,B|128:296|104:320,1,70,2|0,0:0|0:0,0:0:0
0,260,67436,2,0,B|40:260|64:236,1,70,8|0,0:0|0:0,0:0:0
112,184,67709,5,4,0:0:0
136,116,67845,1,0,0:0:0
124,44,67982,2,0,B|96:24|56:32,1,70,2|0,0:0|0:0,0:0:0
196,68,68254,2,0,B|274:84|324:32,2,140,8|0|2,0:0|0:0|0:0,0:0:0
136,116,68936,1,0,0:0:0
192,164,69073,2,0,B|256:216,1,70,0|2,0:0|0:0,0:0:0
312,180,69345,1,0,0:0:0
384,188,69482,1,0,0:0:0
436,236,69618,2,0,B|460:264|460:304,1,70,8|0,0:0|0:0,0:0:0
500,360,69891,6,4,B|368:312,1,140,4|0,0:0|0:0,0:0:0
300,332,70300,1,0,0:0:0
236,300,70436,2,0,B|212:272|220:236,1,70,2|0,0:0|0:0,0:0:0
156,316,70709,2,0,B|180:344|172:380,1,70,8|0,0:0|0:0,0:0:0
100,376,70982,1,0,0:0:0
44,332,71118,1,0,0:0:0
44,332,71186,1,0,0:0:0
44,332,71254,1,8,0:0:0
20,264,71391,1,0,0:0:0
28,192,71527,5,0,0:0:0
40,180,71595,1,0,0:0:0
52,168,71663,1,0,0:0:0
64,156,71732,1,0,0:0:0
76,144,71800,1,0,0:0:0
88,132,71868,1,0,0:0:0
100,120,71936,1,0,0:0:0
112,108,72004,1,0,0:0:0
124,96,72073,6,2,B|176:40|252:40,1,140,2|0,0:0|0:0,0:0:0
304,80,72482,1,0,0:0:0
372,92,72618,2,0,B|428:48,1,70,2|0,0:0|0:0,0:0:0
328,148,72891,1,0,0:0:0
348,216,73027,1,0,0:0:0
404,256,73163,2,0,B|476:284|488:360,1,140,2|0,0:0|0:0,0:0:0
420,380,73573,2,0,B|336:360,1,70,2|0,0:0|0:0,0:0:0
272,304,73845,2,0,B|356:284,2,70,0|2|0,0:0|0:0|0:0,0:0:0
212,344,74254,6,0,B|128:340|100:268,1,140,2|0,0:0|0:0,0:0:0
140,212,74663,1,0,0:0:0
84,168,74800,2,0,B|24:40,2,140,2|0|2,0:0|0:0|0:0,0:0:0
140,212,75482,1,0,0:0:0
208,232,75618,1,0,0:0:0
276,224,75754,1,0,0:0:0
340,196,75891,2,0,B|379:196|400:226,1,70,2|0,0:0|0:0,0:0:0
408,240,76095,1,0,0:0:0
416,256,76163,2,0,B|476:304,1,70,0|2,0:0|0:0,0:0:0
444,364,76436,6,0,B|368:348|308:388,1,140,2|0,0:0|0:0,0:0:0
244,360,76845,1,0,0:0:0
188,316,76982,2,0,B|216:240,1,70,2|0,0:0|0:0,0:0:0
116,304,77254,2,0,B|88:380,1,70,0|0,0:0|0:0,0:0:0
28,340,77527,2,0,B|-8:276|8:200,1,140,2|0,0:0|0:0,0:0:0
24,136,77936,2,0,B|56:70|128:41,1,140,2|0,0:0|0:0,0:0:0
180,88,78345,1,0,0:0:0
248,104,78482,1,0,0:0:0
264,96,78550,1,0,0:0:0
280,88,78618,6,0,B|316:88|344:120,1,70,2|0,0:0|0:0,0:0:0
404,88,78891,1,0,0:0:0
404,88,79027,1,0,0:0:0
324,188,79163,2,0,B|344:260|424:276,2,140,2|0|2,0:0|0:0|0:0,0:0:0
256,180,79845,1,0,0:0:0
240,176,79913,1,0,0:0:0
224,172,79982,2,0,B|192:180|156:172,1,70,8|0,0:0|0:0,0:0:0
88,192,80254,1,2,0:0:0
72,200,80323,1,0,0:0:0
60,212,80391,1,0,0:0:0
48,228,80459,1,0,0:0:0
40,244,80527,2,0,B|32:280,3,35
40,296,80800,6,0,B|76:360|160:348,1,140,2|0,0:0|0:0,0:0:0
220,312,81209,1,0,0:0:0
276,356,81345,2,0,B|312:356|312:356|340:372,1,70,2|0,0:0|0:0,0:0:0
168,264,81618,2,0,B|132:264|132:264|104:248,1,70,0|0,0:0|0:0,0:0:0
72,184,81891,2,0,B|68:108|136:68,1,140,2|0,0:0|0:0,0:0:0
185,117,82300,2,0,B|261:121|301:53,1,140,2|0,0:0|0:0,0:0:0
368,72,82709,1,0,0:0:0
436,88,82845,1,0,0:0:0
448,100,82913,1,0,0:0:0
456,116,82982,6,0,B|472:200|408:244,1,140,2|0,0:0|0:0,0:0:0
344,232,83391,1,0,0:0:0
304,288,83527,2,0,B|328:356,1,70,2|0,0:0|0:0,0:0:0
184,354,83800,2,0,B|208:288,1,70,8|0,0:0|0:0,0:0:0
158,238,84073,2,0,B|98:197|114:113,1,140,2|0,0:0|0:0,0:0:0
176,80,84482,1,0,0:0:0
220,24,84618,1,2,0:0:0
288,48,84754,1,0,0:0:0
304,60,84823,1,0,0:0:0
320,68,84891,2,0,B|388:88,1,70,0|2,0:0|0:0,0:0:0
452,116,85163,6,4,B|448:188|508:240,1,140,4|0,0:0|0:0,0:0:0
496,308,85573,1,0,0:0:0
444,352,85709,2,0,B|368:372,1,70,2|0,0:0|0:0,0:0:0
316,332,85982,1,0,0:0:0
304,264,86118,1,0,0:0:0
324,196,86254,6,0,B|291:121|354:63,1,140,2|0,0:0|0:0,0:0:0
162,68,86663,2,0,B|220:121|187:196,1,140,2|0,0:0|0:0,0:0:0
152,256,87073,1,0,0:0:0
88,284,87209,1,0,0:0:0
20,272,87345,5,2,0:0:0
184,364,87618,1,0,0:0:0
112,144,87891,1,2,0:0:0
276,236,88164,1,0,0:0:0
340,204,88300,1,0,0:0:0
376,144,88436,6,0,B|404:80,1,70,2|0,0:0|0:0,0:0:0
456,180,88982,1,2,0:0:0
452,196,89050,1,0,0:0:0
448,212,89118,1,0,0:0:0
444,228,89186,1,0,0:0:0
440,244,89254,1,2,0:0:0
436,260,89323,1,0,0:0:0
432,276,89391,1,0,0:0:0
428,292,89459,1,0,0:0:0
424,308,89527,1,4,0:0:0
336,48,97709,6,0,B|368:64,3,35,2|0|0|0,0:0|0:0|0:0|0:0,0:0:0
384,72,97982,2,0,B|416:88,3,35,2|0|2|0,0:0|0:0|0:0|0:0,0:0:0
432,96,98254,6,4,B|500:136|492:216,1,140,4|8,0:0|0:0,0:0:0
460,276,98663,1,0,0:0:0
392,296,98800,2,0,B|356:300|328:328,1,70,2|0,0:0|0:0,0:0:0
280,376,99073,1,0,0:0:0
280,272,99209,2,0,B|256:204|256:204|192:168,1,140,2|0,0:0|0:0,0:0:0
44,184,99618,2,0,B|68:252|68:252|132:288,1,140,2|0,0:0|0:0,0:0:0
196,300,100027,2,0,B|208:336|196:368,2,70,0|2|0,0:0|0:0|0:0,0:0:0
104,136,100436,6,0,B|152:80|228:80,1,140,2|0,0:0|0:0,0:0:0
288,116,100845,1,0,0:0:0
356,104,100982,2,0,B|384:84|424:88,1,70,2|0,0:0|0:0,0:0:0
336,176,101254,2,0,B|308:196|268:192,1,70,8|0,0:0|0:0,0:0:0
412,188,101527,1,0,0:0:0
472,224,101663,1,0,0:0:0
500,288,101800,1,0,0:0:0
496,356,101936,1,0,0:0:0
428,332,102073,6,0,B|394:314|360:332,1,70,2|0,0:0|0:0,0:0:0
344,340,102277,1,0,0:0:0
328,348,102345,2,0,B|294:365|260:348,1,70,0|2,0:0|0:0,0:0:0
204,308,102618,6,0,B|160:280|144:224|168:180,1,140,0|2,0:0|0:0,0:0:0
236,180,103027,1,0,0:0:0
112,136,103163,2,0,B|60:84,1,70,0|2,0:0|0:0,0:0:0
0,120,103436,1,0,0:0:0
100,16,103573,2,0,B|152:68,1,70,2|0,0:0|0:0,0:0:0
208,100,103845,1,0,0:0:0
276,120,103982,1,0,0:0:0
344,120,104118,1,0,0:0:0
412,100,104254,2,0,B|452:88|468:48,1,70,0|2,0:0|0:0,0:0:0
396,176,104527,2,0,B|356:188|340:228,1,70,0|2,0:0|0:0,0:0:0
288,264,104800,6,0,B|363:249|419:306,2,140,2|0|8,0:0|0:0|0:0,0:0:0
232,304,105482,1,0,0:0:0
180,256,105618,2,0,B|120:296,1,70,0|8,0:0|0:0,0:0:0
16,260,105891,1,0,0:0:0
120,200,106027,1,0,0:0:0
20,140,106163,1,0,0:0:0
124,80,106299,1,0,0:0:0
232,32,106436,5,2,0:0:0
248,36,106504,1,0,0:0:0
264,40,106573,1,0,0:0:0
280,44,106641,1,0,0:0:0
296,48,106709,2,0,B|368:48,1,70,2|4,0:0|0:0,0:0:0
424,92,107118,5,0,0:0:0
448,156,107254,2,2,B|464:192|504:200,1,70,2|0,0:0|0:0,0:0:0
376,148,107527,2,0,B|300:133|244:190,1,140,2|8,0:0|0:0,0:0:0
220,276,107936,1,0,0:0:0
196,368,108073,2,0,B|271:382|327:325,1,140,2|0,0:0|0:0,0:0:0
388,296,108482,6,0,B|428:288|456:304,2,70,0|2|0,0:0|0:0|0:0,0:0:0
332,252,108891,1,8,0:0:0
304,188,109027,1,0,0:0:0
304,120,109163,6,0,B|424:36,2,140,2|0|8,0:0|0:0|0:0,0:0:0
232,124,109845,1,0,0:0:0
180,76,109982,2,0,B|148:60|112:68,1,70,0|2,0:0|0:0,0:0:0
52,32,110254,2,0,B|106:85|92:160,1,140,8|0,0:0|0:0,0:0:0
60,224,110663,1,0,0:0:0
8,272,110800,2,0,B|16:308|44:332,1,70,2|0,0:0|0:0,0:0:0
56,344,111004,1,0,0:0:0
72,352,111073,2,0,B|103:371|139:368,1,70,8|0,0:0|0:0,0:0:0
200,332,111345,6,4,B|240:268|316:260,1,140,4|2,0:0|0:0,0:0:0
384,276,111754,1,0,0:0:0
440,320,111891,2,0,B|400:380,1,70,2|0,0:0|0:0,0:0:0
452,248,112163,2,0,B|492:188,1,70,8|0,0:0|0:0,0:0:0
476,120,112436,2,0,B|404:112|356:48,1,140,2|0,0:0|0:0,0:0:0
288,40,112845,1,0,0:0:0
220,64,112982,6,0,B|187:76|187:76|154:64,1,70,2|0,0:0|0:0,0:0:0
20,104,113254,2,0,B|52:91|52:91|85:104,1,70,2|0,0:0|0:0,0:0:0
144,140,113527,2,0,B|204:184|196:264,2,140,2|0|8,0:0|0:0|0:0,0:0:0
156,64,114209,1,0,0:0:0
80,176,114345,2,0,B|46:192|40:232,1,70,0|2,0:0|0:0,0:0:0
8,292,114618,2,8,B|84:280|132:344,1,140,8|0,0:0|0:0,0:0:0
200,356,115027,1,0,0:0:0
268,356,115163,5,2,0:0:0
284,348,115232,1,0,0:0:0
300,340,115300,1,0,0:0:0
316,332,115368,1,0,0:0:0
332,324,115436,2,0,B|372:304,3,35
376,300,115709,6,0,B|424:260|424:204|404:168,1,140,2|2,0:0|0:0,0:0:0
364,96,116118,1,0,0:0:0
272,104,116254,2,0,B|224:144|224:200|244:236,1,140,2|2,0:0|0:0,0:0:0
184,292,116663,1,0,0:0:0
100,292,116800,2,0,B|32:304,1,70,2|0,0:0|0:0,0:0:0
80,216,117073,2,0,B|148:204,1,70,0|0,0:0|0:0,0:0:0
40,156,117345,1,2,0:0:0
52,84,117482,1,0,0:0:0
108,40,117618,1,0,0:0:0
179,28,117754,1,0,0:0:0
244,60,117891,6,0,B|292:120|372:104,2,140,2|0|8,0:0|0:0|0:0,0:0:0
296,16,118573,1,0,0:0:0
184,100,118709,2,0,B|160:172,1,70,0|2,0:0|0:0,0:0:0
112,216,118982,2,0,B|90:283|147:277|126:349,1,140,8|0,0:0|0:0,0:0:0
56,356,119391,1,0,0:0:0
192,380,119527,2,0,B|228:364|236:324,1,70,2|0,0:0|0:0,0:0:0
232,312,119732,1,0,0:0:0
228,296,119800,1,2,0:0:0
304,344,119936,1,0,0:0:0
372,324,120073,6,0,B|448:312|504:360,1,140,0|2,0:0|0:0,0:0:0
502,359,120482,1,0,0:0:0
512,232,120618,2,0,B|440:248,1,70,2|0,0:0|0:0,0:0:0
400,192,120891,2,0,B|437:132,1,70,8|0,0:0|0:0,0:0:0
400,72,121163,2,0,B|328:92|264:48,1,140,2|0,0:0|0:0,0:0:0
216,100,121573,1,0,0:0:0
152,132,121709,1,2,0:0:0
84,124,121845,1,0,0:0:0
24,88,121982,2,0,B|4:56|16:20,1,70
20,160,122254,6,0,B|32:232|0:296,2,140,2|0|8,0:0|0:0|0:0,0:0:0
84,124,122936,1,0,0:0:0
112,188,123073,2,0,B|136:216|176:216,1,70,0|2,0:0|0:0,0:0:0
224,264,123345,2,0,B|296:244|360:288,1,140,8|0,0:0|0:0,0:0:0
376,352,123754,1,0,0:0:0
412,240,123891,6,0,B|408:200|432:176,1,70,2|0,0:0|0:0,0:0:0
472,120,124163,2,0,B|496:96|492:56,1,70,8|0,0:0|0:0,0:0:0
432,16,124441,5,4,0:0:0
232,76,125261,5,0,0:0:0
196,136,125535,2,0,B|150:164|94:152,2,105,2|0|0,0:0|0:0|0:0,0:0:0
224,200,126630,2,0,B|269:228|325:216,2,105,2|0|0,0:0|0:0|0:0,0:0:0
160,228,127724,2,0,B|120:268|120:268|72:268,1,105,2|0,0:0|0:0,0:0:0
216,360,128545,1,0,0:0:0
216,360,128819,2,0,B|256:320|256:320|304:320,2,105,2|0|0,0:0|0:0|0:0,0:0:0
164,312,129914,1,2,0:0:0
208,256,130187,2,0,B|208:212,1,35
257,171,130598,2,0,B|257:127,1,35
306,86,131008,2,0,B|342:46|398:42,2,105,2|0|0,0:0|0:0|0:0,0:0:0
332,152,132103,5,2,0:0:0
360,216,132377,2,0,B|392:224,2,23.3333333333333
340,224,132650,2,8,B|312:244|296:280,1,70,8|0,0:0|0:0,0:0:0
280,294,133015,2,0,B|248:286,1,23.3333333333333
236,296,133198,6,0,B|196:288|168:312,1,70,2|0,0:0|0:0,0:0:0
145,335,133608,2,0,B|118:357|78:349,1,70,2|0,0:0|0:0,0:0:0
54,324,134019,1,2,0:0:0
54,254,134292,6,0,B|54:202|54:202|14:154,2,105,2|0|0,0:0|0:0|0:0,0:0:0
116,144,135387,2,0,B|156:144|176:116,1,70,2|0,0:0|0:0,0:0:0
201,90,135797,2,0,B|221:62|261:62,1,70,0|0,0:0|0:0,0:0:0
286,86,136208,1,0,0:0:0
432,96,136482,2,0,B|424:156|376:184,2,105,2|0|0,0:0|0:0|0:0,0:0:0
452,224,137576,2,0,B|460:284|508:312,2,105,2|0|0,0:0|0:0|0:0,0:0:0
384,248,138671,5,2,0:0:0
344,304,138944,1,0,0:0:0
344,304,139081,1,0,0:0:0
280,332,139355,1,0,0:0:0
280,332,139492,1,0,0:0:0
212,324,139765,2,0,B|152:308|144:244,2,105,2|0|0,0:0|0:0|0:0,0:0:0
256,192,140860,12,0,141681,0:0:0
104,248,141950,6,0,P|136:232|136:232|176:232,1,70,4|0,0:0|0:0,0:0:0
224,296,142222,2,0,P|192:312|192:312|152:312,1,70,8|0,0:0|0:0,0:0:0
88,328,142495,1,0,0:0:0
36,284,142631,2,0,P|4:308,2,35,8|0|0,0:0|0:0|0:0,0:0:0
36,212,142904,2,0,P|60:188|68:151,1,70,8|0,0:0|0:0,0:0:0
56,32,143177,5,0,0:0:0
68,44,143245,1,0,0:0:0
80,56,143313,2,0,P|112:76|144:80,1,70,2|0,0:0|0:0,0:0:0
172,144,143586,1,0,0:0:0
288,92,143722,1,0,0:0:0
244,148,143859,2,0,P|244:224,1,70,2|0,0:0|0:0,0:0:0
256,288,144131,5,0,0:0:0
320,312,144268,1,0,0:0:0
388,312,144404,1,0,0:0:0
448,276,144540,1,0,0:0:0
484,216,144677,2,0,P|486:149|447:79,1,140,2|0,0:0|0:0,0:0:0
400,40,145086,5,0,0:0:0
384,48,145154,1,0,0:0:0
368,56,145222,2,0,P|296:48,2,70,2|0|8,0:0|0:0|0:0,0:0:0
392,124,145631,1,0,0:0:0
360,188,145768,2,8,P|352:220|324:244,1,70,8|0,0:0|0:0,0:0:0
232,176,146040,2,8,P|240:144|268:120,1,70,8|0,0:0|0:0,0:0:0
228,248,146313,5,0,0:0:0
172,288,146450,1,0,0:0:0
104,292,146586,2,0,P|84:316|48:328,1,70,8|0,0:0|0:0,0:0:0
44,256,146859,1,0,0:0:0
76,196,146995,2,0,P|96:152|92:96,1,105,8|0,0:0|0:0,0:0:0
79,84,147268,2,8,P|135:32,1,70,8|0,0:0|0:0,0:0:0
192,68,147540,6,0,P|232:68,2,35,0|0|2,0:0|0:0|0:0,0:0:0
172,136,147813,1,0,0:0:0
208,196,147950,2,0,P|236:220|236:220|272:220,1,70
336,196,148222,1,2,0:0:0
348,208,148290,1,0,0:0:0
360,220,148359,2,0,P|393:220|393:220|421:244,1,70
404,312,148631,5,0,0:0:0
472,328,148768,2,0,P|500:360|528:364,2,70,0|0|2,0:0|0:0|0:0,0:0:0
488,256,149177,1,0,0:0:0
404,312,149313,2,0,P|332:320,1,70
276,356,149586,1,8,0:0:0
264,344,149654,1,0,0:0:0
248,336,149722,1,0,0:0:0
232,332,149790,1,0,0:0:0
216,332,149859,2,0,P|180:332|148:344,1,70
80,360,150131,6,0,P|60:328,3,35,8|0|0|0,0:0|0:0|0:0|0:0,0:0:0
73,317,150404,2,0,P|53:285,3,35,8|0|0|0,0:0|0:0|0:0|0:0,0:0:0
44,272,150677,2,0,P|28:240|28:204,1,70
68,148,150950,2,0,P|96:84|132:72,1,105,8|0,0:0|0:0,0:0:0
140,84,151222,2,0,P|212:84,1,70,0|8,0:0|0:0,0:0:0
248,144,151495,1,0,0:0:0
300,48,151631,2,8,P|356:56|400:32,1,105,8|0,0:0|0:0,0:0:0
416,32,151904,1,0,0:0:0
432,36,151972,1,0,0:0:0
444,48,152040,6,0,P|444:128,1,70,2|0,0:0|0:0,0:0:0
376,140,152313,2,0,P|368:176|376:208,1,70,2|0,0:0|0:0,0:0:0
460,284,152586,1,2,0:0:0
460,284,152654,1,0,0:0:0
460,284,152722,2,0,P|468:248|460:216,1,70,0|2,0:0|0:0,0:0:0
376,208,152995,5,0,0:0:0
296,228,153131,1,0,0:0:0
240,292,153268,1,0,0:0:0
224,372,153404,2,0,P|144:376|96:340,2,140,2|0|2,0:0|0:0|0:0,0:0:0
240,292,154086,1,0,0:0:0
232,276,154154,1,0,0:0:0
224,260,154222,2,0,P|152:232,1,70,8|0,0:0|0:0,0:0:0
96,200,154495,5,2,0:0:0
80,188,154563,1,0,0:0:0
68,176,154631,1,0,0:0:0
60,160,154700,1,0,0:0:0
56,144,154768,2,0,P|52:124|56:104,3,35
60,92,155040,6,0,P|100:80|124:60,1,70,2|0,0:0|0:0,0:0:0
188,88,155313,1,8,0:0:0
248,52,155450,1,0,0:0:0
316,60,155586,2,0,P|404:60,1,70,0|8,0:0|0:0,0:0:0
452,32,155859,1,0,0:0:0
444,100,155995,6,0,P|444:168|496:220,1,140,8|0,0:0|0:0,0:0:0
484,236,156336,1,0,0:0:0
476,252,156404,2,0,P|472:328,1,70,2|0,0:0|0:0,0:0:0
376,372,156677,2,0,P|380:296,1,70,2|0,0:0|0:0,0:0:0
324,216,156950,1,2,0:0:0
308,224,157018,1,0,0:0:0
292,232,157086,2,0,P|256:248|224:248,1,70
156,200,157359,5,0,0:0:0
124,124,157495,1,0,0:0:0
140,44,157631,1,0,0:0:0
220,16,157768,2,0,P|280:52|352:40,2,140,2|0|2,0:0|0:0|0:0,0:0:0
140,44,158450,1,0,0:0:0
124,40,158518,1,0,0:0:0
108,36,158586,2,0,P|32:48,1,70
8,112,158859,5,0,0:0:0
12,128,158927,1,0,0:0:0
16,144,158995,1,0,0:0:0
20,160,159063,1,0,0:0:0
24,176,159131,1,0,0:0:0
28,192,159200,1,0,0:0:0
32,208,159268,1,0,0:0:0
36,224,159336,1,0,0:0:0
40,240,159404,6,0,P|56:280|76:296,1,70,4|0,0:0|0:0,0:0:0
216,352,159677,2,0,P|200:312|180:296,1,70,8|0,0:0|0:0,0:0:0
132,236,159950,1,0,0:0:0
144,160,160086,1,8,0:0:0
200,108,160222,1,0,0:0:0
276,92,160359,2,0,P|340:128|408:124,1,140,8|0,0:0|0:0,0:0:0
420,116,160700,1,0,0:0:0
436,108,160768,6,0,P|456:40,1,70,2|0,0:0|0:0,0:0:0
484,176,161040,2,0,P|464:244,1,70,2|0,0:0|0:0,0:0:0
456,320,161313,1,2,0:0:0
440,316,161381,1,0,0:0:0
424,312,161450,1,0,0:0:0
360,344,161586,6,0,P|324:356|288:352,1,70,2|0,0:0|0:0,0:0:0
219,353,161859,2,0,P|188:356|152:344,1,70,0|0,0:0|0:0,0:0:0
92,296,162131,2,0,P|52:232|52:164,2,140,2|0|2,0:0|0:0|0:0,0:0:0
108,296,162745,1,0,0:0:0
124,292,162813,1,0,0:0:0
140,284,162881,1,0,0:0:0
152,272,162950,1,0,0:0:0
184,200,163086,1,0,0:0:0
160,128,163222,2,8,P|280:36,1,140,8|8,0:0|0:0,0:0:0
340,80,163631,1,0,0:0:0
412,48,163768,6,0,P|432:80|460:96,1,70,2|0,0:0|0:0,0:0:0
428,192,164040,2,0,P|408:160|380:144,1,70,8|0,0:0|0:0,0:0:0
316,184,164313,1,0,0:0:0
284,256,164450,1,8,0:0:0
296,332,164586,1,0,0:0:0
364,368,164722,1,0,0:0:0
436,344,164859,6,0,P|468:328|488:296,1,70,2|0,0:0|0:0,0:0:0
480,284,165063,1,0,0:0:0
472,268,165131,1,2,0:0:0
417,213,165268,2,0,P|435:185|467:169,2,70,0|0|2,0:0|0:0|0:0,0:0:0
360,264,165677,1,2,0:0:0
284,256,165813,1,0,0:0:0
216,220,165950,6,0,P|140:208,1,70,2|0,0:0|0:0,0:0:0
68,108,166222,2,0,P|144:120,1,70,0|0,0:0|0:0,0:0:0
208,92,166495,2,0,P|284:92|336:56,2,140,2|0|2,0:0|0:0|0:0,0:0:0
136,120,167177,1,0,0:0:0
136,120,167245,1,0,0:0:0
137,118,167313,2,0,P|68:108,1,70,0|0,0:0|0:0,0:0:0
32,176,167586,6,0,P|20:212,3,35,8|0|0|0,0:0|0:0|0:0|0:0,0:0:0
36,244,167859,2,0,P|24:280,3,35,8|0|0|0,0:0|0:0|0:0|0:0,0:0:0
36,316,168131,2,0,P|56:344|88:356,1,70
156,320,168404,2,8,P|192:252|256:244,1,140,8|0,0:0|0:0,0:0:0
236,320,168813,1,8,0:0:0
308,288,168950,2,0,P|384:288,1,70,0|8,0:0|0:0,0:0:0
432,232,169222,1,0,0:0:0
408,160,169359,1,0,0:0:0
400,144,169427,1,0,0:0:0
392,128,169495,6,0,P|360:120|324:128,1,70,2|0,0:0|0:0,0:0:0
269,73,169768,2,0,P|237:81|201:73,1,70,2|0,0:0|0:0,0:0:0
144,24,170040,1,2,0:0:0
128,28,170109,1,0,0:0:0
112,32,170177,1,0,0:0:0
68,96,170313,6,0,P|32:120|0:120,2,70
140,124,170722,1,0,0:0:0
180,192,170859,2,0,P|152:256,1,70,2|0,0:0|0:0,0:0:0
32,316,171131,2,0,P|60:252,1,70,0|0,0:0|0:0,0:0:0
104,356,171404,5,2,0:0:0
117,346,171472,1,0,0:0:0
135,336,171540,1,0,0:0:0
152,332,171609,1,0,0:0:0
168,332,171677,2,0,P|232:358,1,70
308,336,171950,2,8,P|360:272|416:248,1,140
456,188,172359,1,0,0:0:0
488,116,172495,6,0,P|424:72,1,70
372,24,172768,1,2,0:0:0
352,100,172904,1,0,0:0:0
288,140,173040,1,0,0:0:0
212,148,173177,2,0,P|152:104|80:104,1,140,2|0,0:0|0:0,0:0:0
40,160,173586,2,2,P|24:236,1,70,2|0,0:0|0:0,0:0:0
32,244,173790,1,0,0:0:0
40,260,173859,1,2,0:0:0
76,328,173995,6,0,P|12:360,2,70,0|2|0,0:0|0:0|0:0,0:0:0
148,356,174404,2,0,P|212:324,1,70,2|0,0:0|0:0,0:0:0
280,292,174677,5,2,0:0:0
296,296,174745,1,0,0:0:0
312,292,174813,1,2,0:0:0
328,296,174881,1,0,0:0:0
344,292,174950,2,0,P|380:296,3,35,2|0|2|0,0:0|0:0|0:0|0:0,0:0:0
396,292,175222,2,0,P|432:280|460:248,1,70,8|0,0:0|0:0,0:0:0
444,172,175495,2,0,P|408:184|380:216,1,70,8|0,0:0|0:0,0:0:0
304,180,175768,5,2,0:0:0
288,184,175836,1,0,0:0:0
272,180,175904,1,2,0:0:0
256,184,175972,1,0,0:0:0
240,180,176041,2,0,P|204:184,3,35,2|0|2|0,0:0|0:0|0:0|0:0,0:0:0
188,180,176313,2,0,P|152:168|124:136,2,70,8|0|8,0:0|0:0|0:0,0:0:0
256,24,176859,5,4,0:0:0
400,52,194313,6,0,P|440:52,2,35,2|0|0,0:0|0:0|0:0,0:0:0
336,80,194859,1,0,0:0:0
308,144,195131,1,0,0:0:0
324,212,195404,1,4,0:0:0
324,212,196495,2,0,P|376:216|412:256,2,105,2|0|2,0:0|0:0|0:0,0:0:0
92,340,197859,5,2,0:0:0
92,340,198131,1,2,0:0:0
104,308,198268,1,0,0:0:0
116,276,198404,1,0,0:0:0
176,168,198677,6,0,P|112:132,1,70,2|0,0:0|0:0,0:0:0
160,76,199086,2,0,P|96:40,1,70,2|0,0:0|0:0,0:0:0
32,64,199495,1,2,0:0:0
336,168,200586,5,0,0:0:0
336,168,200859,2,0,P|400:132,1,70,2|0,0:0|0:0,0:0:0
352,76,201268,2,0,P|416:40,1,70,2|0,0:0|0:0,0:0:0
480,64,201677,1,2,0:0:0
256,332,202768,5,0,0:0:0
304,280,203040,2,0,P|256:259|208:280,2,105,2|0|2,0:0|0:0|0:0,0:0:0
256,332,204677,5,2,0:0:0
208,104,205222,2,0,P|256:124|304:104,2,105,2|0|2,0:0|0:0|0:0,0:0:0
256,52,206586,5,2,0:0:0
208,136,206859,1,2,0:0:0
208,136,206995,1,0,0:0:0
208,136,207131,1,0,0:0:0
207,138,207404,22,0,B|125:103|42:199|116:337|206:289|293:331|293:331|346:251|448:248|443:92|322:50|269:121,1,770,2|2,0:0|0:0,0:0:0
256,192,210472,12,0,211495,0:0:0
32,80,211781,6,4,P|80:36|152:40,1,140,4|0,0:0|0:0,0:0:0
184,100,212190,1,0,0:0:0
248,132,212326,1,8,0:0:0
316,140,212462,1,0,0:0:0
384,120,212599,2,0,P|432:60,1,70
368,192,212871,6,0,P|364:244|424:316,1,140,2|0,0:0|0:0,0:0:0
484,316,213281,2,0,P|416:312|364:360,1,140,2|0,0:0|0:0,0:0:0
296,376,213690,1,0,0:0:0
232,348,213826,1,0,0:0:0
204,284,213962,6,0,P|136:296,1,70,2|0,0:0|0:0,0:0:0
0,364,214235,2,0,P|68:352,1,70,2|0,0:0|0:0,0:0:0
52,284,214508,1,2,0:0:0
68,216,214644,1,0,0:0:0
52,148,214781,2,0,P|44:108|48:80,1,70
104,36,215053,6,0,P|164:92|224:108,1,140,8|0,0:0|0:0,0:0:0
288,116,215462,1,0,0:0:0
360,112,215599,2,8,P|436:88,1,70,8|0,0:0|0:0,0:0:0
444,96,215803,1,0,0:0:0
460,100,215871,1,0,0:0:0
512,152,216008,1,0,0:0:0
468,212,216144,6,4,P|444:252|452:344,1,140,4|0,0:0|0:0,0:0:0
388,376,216553,1,0,0:0:0
328,336,216690,2,0,P|256:360,1,70,2|0,0:0|0:0,0:0:0
140,328,216962,2,0,P|212:304,1,70
212,232,217235,6,2,P|208:168|164:108,1,140,2|0,0:0|0:0,0:0:0
348,108,217644,2,2,P|304:168|300:232,1,140,2|0,0:0|0:0,0:0:0
360,272,218053,1,0,0:0:0
432,280,218190,1,0,0:0:0
492,240,218326,6,0,P|508:172,1,70,2|0,0:0|0:0,0:0:0
480,40,218599,2,0,P|464:108,1,70,2|0,0:0|0:0,0:0:0
404,152,218871,2,0,P|340:176|268:172,1,140,2|0,0:0|0:0,0:0:0
232,112,219281,1,0,0:0:0
232,112,219349,1,0,0:0:0
232,112,219417,6,2,P|160:92,1,70,2|0,0:0|0:0,0:0:0
164,290,219690,2,2,P|232:272,1,70,8|0,0:0|0:0,0:0:0
248,272,219894,1,0,0:0:0
264,276,219962,1,2,0:0:0
324,316,220099,2,0,P|356:344|384:352,2,70
332,244,220508,6,4,P|464:184,1,140,4|0,0:0|0:0,0:0:0
492,120,220917,1,0,0:0:0
464,52,221053,1,2,0:0:0
400,20,221190,1,0,0:0:0
328,36,221326,1,0,0:0:0
288,96,221462,1,0,0:0:0
320,160,221599,6,2,P|260:196|248:264,1,140,2|0,0:0|0:0,0:0:0
332,244,222008,2,2,P|319:308|259:344,1,140,2|0,0:0|0:0,0:0:0
188,328,222417,1,0,0:0:0
128,288,222553,2,0,P|56:304,2,70,0|2|0,0:0|0:0|0:0,0:0:0
164,224,222962,2,0,P|160:144|116:96,1,140,0|2,0:0|0:0,0:0:0
68,52,223371,1,0,0:0:0
140,32,223508,6,0,P|208:20,1,70,8|0,0:0|0:0,0:0:0
328,80,223781,2,0,P|260:92,1,70,2|0,0:0|0:0,0:0:0
212,148,224053,2,8,P|212:184|228:216,1,70,8|0,0:0|0:0,0:0:0
240,228,224258,1,0,0:0:0
256,236,224326,1,2,0:0:0
324,252,224462,1,0,0:0:0
392,244,224599,2,0,P|468:272|496:324,1,140,8|4,0:0|0:0,0:0:0
440,364,225008,5,0,0:0:0
372,344,225144,2,0,P|296:352,1,70,2|0,0:0|0:0,0:0:0
240,316,225417,2,0,P|208:356|120:368,2,140,0|0|2,0:0|0:0|0:0,0:0:0
244,244,226099,1,0,0:0:0
208,184,226235,1,0,0:0:0
148,152,226371,2,0,P|76:144,2,70,2|0|0,0:0|0:0|0:0,0:0:0
204,108,226781,2,0,P|272:108|348:76,1,140,0|2,0:0|0:0,0:0:0
408,68,227190,6,0,P|492:88,2,70
384,136,227599,2,0,P|379:214|414:196|410:275,1,140,2|0,0:0|0:0,0:0:0
280,364,228144,6,0,P|208:360,1,70,2|0,0:0|0:0,0:0:0
44,252,228690,5,0,0:0:0
52,236,228758,1,0,0:0:0
60,220,228826,1,0,0:0:0
68,204,228894,1,0,0:0:0
76,188,228962,2,0,P|84:168,3,17.5
92,160,229235,6,0,P|128:152|156:136,1,70,4|0,0:0|0:0,0:0:0
256,32,229508,2,0,P|220:40|192:56,1,70,2|0,0:0|0:0,0:0:0
224,120,229781,1,2,0:0:0
284,156,229917,1,0,0:0:0
352,172,230053,1,0,0:0:0
420,160,230190,1,0,0:0:0
456,100,230326,6,0,P|472:20,1,70,0|2,0:0|0:0,0:0:0
492,168,230599,2,0,P|476:248,1,70,0|2,0:0|0:0,0:0:0
440,296,230871,1,2,0:0:0
376,324,231008,1,0,0:0:0
308,316,231144,2,0,P|220:292|204:244,1,140,0|2,0:0|0:0,0:0:0
240,108,231553,1,0,0:0:0
108,180,231690,6,0,P|40:192,1,70,2|0,0:0|0:0,0:0:0
0,80,231962,2,0,P|68:92,1,70,2|0,0:0|0:0,0:0:0
132,60,232235,1,0,0:0:0
200,80,232371,1,0,0:0:0
268,60,232508,2,2,P|308:56|340:40,1,70
444,108,232781,2,2,P|404:112|372:128,1,70
328,176,233053,1,0,0:0:0
368,236,233190,1,0,0:0:0
368,236,233258,1,0,0:0:0
368,236,233326,1,8,0:0:0
328,296,233462,1,0,0:0:0
256,296,233599,6,0,P|212:288|144:348,1,140,0|2,0:0|0:0,0:0:0
84,380,234008,1,0,0:0:0
28,336,234144,2,0,P|60:268,1,70,2|0,0:0|0:0,0:0:0
64,136,234417,2,0,P|32:204,1,70,2|0,0:0|0:0,0:0:0
104,216,234690,1,0,0:0:0
176,204,234826,1,2,0:0:0
224,148,234962,2,0,P|204:112|208:76,1,70,0|2,0:0|0:0,0:0:0
336,28,235235,2,0,P|356:64|352:100,2,70,2|0|0,0:0|0:0|0:0,0:0:0
264,44,235644,1,0,0:0:0
288,112,235781,6,4,P|312:152|400:144,1,140,4|2,0:0|0:0,0:0:0
432,84,236190,1,0,0:0:0
416,12,236326,1,2,0:0:0
500,256,236599,1,0,0:0:0
244,240,236871,6,0,P|212:252|184:276,1,70,2|0,0:0|0:0,0:0:0
80,384,237144,2,0,P|112:372|140:348,1,70,2|0,0:0|0:0,0:0:0
108,284,237417,1,2,0:0:0
96,268,237485,1,0,0:0:0
88,252,237553,1,0,0:0:0
84,236,237621,1,0,0:0:0
80,220,237690,2,0,P|80:176,3,35
80,167,237962,6,0,P|104:111|180:83,1,140,4|2,0:0|0:0,0:0:0
220,140,238371,1,0,0:0:0
288,168,238508,2,0,P|324:180|352:168,1,70,2|0,0:0|0:0,0:0:0
400,76,238781,2,0,P|364:64|336:76,1,70,2|0,0:0|0:0,0:0:0
456,128,239053,5,0,0:0:0
484,196,239190,1,2,0:0:0
476,268,239326,1,0,0:0:0
436,328,239462,1,0,0:0:0
368,348,239599,2,0,P|336:352|296:340,1,70,2|0,0:0|0:0,0:0:0
340,280,239871,2,2,P|272:272|228:324,1,140,2|0,0:0|0:0,0:0:0
168,364,240281,5,0,0:0:0
108,328,240417,2,0,P|40:340,1,70,2|0,0:0|0:0,0:0:0
100,248,240690,2,0,P|168:236,1,70,2|0,0:0|0:0,0:0:0
216,180,240962,1,0,0:0:0
228,108,241099,1,0,0:0:0
196,44,241235,6,0,P|228:28|264:28,1,70,2|0,0:0|0:0,0:0:0
276,36,241440,1,0,0:0:0
292,44,241508,1,2,0:0:0
356,80,241644,1,0,0:0:0
428,80,241781,2,0,P|464:68|488:48,1,70,2|0,0:0|0:0,0:0:0
392,144,242053,1,0,0:0:0
388,160,242121,1,0,0:0:0
388,176,242190,1,0,0:0:0
392,192,242258,1,0,0:0:0
400,208,242326,6,0,P|456:264,1,70,2|0,0:0|0:0,0:0:0
328,328,242599,2,0,P|316:260,1,70,2|0,0:0|0:0,0:0:0
196,260,242871,2,0,P|182:337,1,70,2|0,0:0|0:0,0:0:0
62,257,243144,2,0,P|112:208,1,70,2|0,0:0|0:0,0:0:0
112,136,243417,5,2,0:0:0
156,80,243553,1,0,0:0:0
220,44,243690,1,0,0:0:0
292,44,243826,1,0,0:0:0
356,80,243963,1,2,0:0:0
400,136,244099,1,0,0:0:0
408,208,244235,2,0,P|408:248|400:276,1,70
348,328,244508,6,4,P|296:276|232:264,1,140,4|0,0:0|0:0,0:0:0
160,260,244917,1,0,0:0:0
96,288,245053,2,0,P|92:328|104:356,1,70,2|0,0:0|0:0,0:0:0
100,216,245326,2,0,P|104:176|92:148,1,70,2|0,0:0|0:0,0:0:0
60,84,245599,1,0,0:0:0
76,80,245667,1,0,0:0:0
92,76,245735,1,0,0:0:0
108,72,245803,1,0,0:0:0
124,68,245871,1,0,0:0:0
140,64,245940,1,0,0:0:0
156,60,246008,1,0,0:0:0
172,56,246076,1,0,0:0:0
188,52,246144,5,2,0:0:0
204,52,246212,1,0,0:0:0
220,56,246281,1,0,0:0:0
236,64,246349,1,0,0:0:0
248,76,246417,2,0,P|264:92,8,17.5,2|0|2|0|2|0|2|0|4,0:0|0:0|0:0|0:0|0:0|0:0|0:0|0:0|0:0,0:0:0
