osu file format v11

[General]
AudioFilename: Lapfoxed Forever.mp3
AudioLeadIn: 3000
PreviewTime: 106982
Countdown: 1
SampleSet: Soft
StackLeniency: 0.7
Mode: 0
LetterboxInBreaks: 1

[Editor]
Bookmarks: 1027,26254,54618,89527,106982,124441,141975,159404,176868,194313,211781,228144
DistanceSpacing: 1.2
BeatDivisor: 4
GridSize: 4

[Metadata]
Title:Lapfoxed Forever
TitleUnicode:Lapfoxed Forever
Artist:Lapfox Trax feat. guilhox
ArtistUnicode:Lapfox Trax feat. guilhox
Creator:Blue Dragon
Version:Hard
Source:
Tags:renard queenston foenix furries in a blender fiab jackal queenston adraen the queenstons mayhem kitsune^2 klippa kitcaliber banned forever hardcore disco the daeva suite objection set me free contact what you do outsider eggs the steel monster above the city arcadepunk vultures it's murder amber starlight sinisterrrrrrrr banana mashup [luanny]
BeatmapID:202004
BeatmapSetID:59521

[Difficulty]
HPDrainRate:5
CircleSize:4
OverallDifficulty:6
ApproachRate:8
SliderMultiplier:1.2
SliderTickRate:2

[Events]
//Background and Video events
0,0,"lapfox.png"
//Break Periods
2,17727,25504
2,89726,96959
2,177059,193563
//Storyboard Layer 0 (Background)
//Storyboard Layer 1 (Fail)
//Storyboard Layer 2 (Pass)
//Storyboard Layer 3 (Foreground)
//Storyboard Sound Samples
//Background Colour Transformations
3,100,163,162,255

[TimingPoints]
73,272.727272727273,4,2,0,80,1,0
1436,-100,4,1,0,40,0,0
1845,-100,4,2,0,80,0,0
3345,-100,4,1,0,40,0,0
3891,-100,4,2,0,80,0,0
4436,-100,4,1,0,40,0,0
4709,-100,4,2,0,80,0,0
5800,-100,4,1,0,40,0,0
6209,-100,4,2,0,80,0,0
7709,-100,4,1,0,40,0,0
8254,-100,4,2,0,80,0,0
8800,-100,4,1,0,40,0,0
9073,-100,4,2,0,80,0,0
10163,-100,4,1,0,40,0,0
10573,-100,4,2,0,80,0,0
16436,-100,4,1,0,40,0,0
17527,-100,4,1,0,80,0,0
26254,-100,4,2,0,80,0,0
34709,-200,4,2,0,80,0,0
42618,-100,4,2,0,80,0,0
43709,-200,4,2,0,80,0,0
51345,-100,4,2,0,80,0,0
54618,-100,4,2,0,80,0,1
72073,-100,4,2,0,80,0,0
88436,-200,4,2,0,80,0,0
89527,-100,4,1,0,80,0,0
97709,-100,4,2,0,80,0,0
98254,-100,4,2,0,80,0,0
101527,-100,4,1,0,40,0,0
102073,-100,4,2,0,80,0,0
106709,-200,4,2,0,80,0,0
106982,-100,4,1,0,40,0,0
107118,-100,4,2,0,80,0,0
124441,273.660205245154,4,2,0,80,1,0
124441,-200,4,2,0,50,0,0
141950,272.727272727273,4,2,0,80,1,0
141950,-100,4,2,0,80,0,1
159336,-100,4,2,0,80,0,0
159404,-100,4,2,0,80,0,1
176859,-100,4,1,0,80,0,0
194313,-200,4,2,0,80,0,0
207472,-200,4,2,0,5,0,0
207609,-200,4,2,0,80,0,0
207745,-200,4,2,0,5,0,0
207881,-200,4,2,0,80,0,0
208018,-200,4,2,0,5,0,0
208154,-200,4,2,0,80,0,0
208290,-200,4,2,0,5,0,0
208427,-200,4,2,0,80,0,0
208563,-200,4,2,0,5,0,0
208700,-200,4,2,0,80,0,0
208836,-200,4,2,0,5,0,0
208972,-200,4,2,0,80,0,0
209109,-200,4,2,0,5,0,0
209245,-200,4,2,0,80,0,0
209381,-200,4,2,0,5,0,0
209518,-200,4,2,0,80,0,0
209654,-200,4,2,0,5,0,0
209790,-200,4,2,0,80,0,0
209927,-200,4,2,0,5,0,0
210063,-200,4,2,0,80,0,0
210200,-200,4,2,0,5,0,0
210336,-200,4,2,0,40,0,0
211781,272.727272727273,4,2,0,80,1,0
211781,-100,4,2,0,80,0,1
228144,-200,4,2,0,80,0,0
229235,-100,4,2,0,80,0,1
246690,-100,4,1,0,80,0,0

[Colours]
Combo1 : 255,167,47
Combo2 : 126,250,52
Combo3 : 225,57,103
Combo4 : 70,133,238

[HitObjects]
76,48,73,1,0,0:0:0
76,48,209,1,0,0:0:0
76,48,345,2,2,P|116:88|180:88,1,120
227,38,754,1,0,0:0:0
216,180,1027,2,2,P|264:176|320:228,1,120,2|0,0:0|0:0,0:0:0
344,288,1436,1,0,0:0:0
336,360,1573,1,0,0:0:0
404,332,1709,1,0,0:0:0
496,136,2118,5,0,0:0:0
496,136,2254,2,0,P|440:136|384:104,1,120,2|0,0:0|0:0,0:0:0
368,36,2663,1,0,0:0:0
304,68,2800,2,0,P|249:37|193:37,1,120,2|0,0:0|0:0,0:0:0
142,88,3209,1,2,0:0:0
164,156,3345,6,0,P|184:216,3,60
196,284,3891,2,0,P|256:276|304:312,1,120,2|0,0:0|0:0,0:0:0
360,352,4300,1,2,0:0:0
432,324,4436,5,0,0:0:0
432,324,4573,1,0,0:0:0
432,324,4709,2,0,P|444:272|496:228,2,120,2|2|0,0:0|0:0|0:0,0:0:0
360,352,5391,2,2,P|184:312,1,180,2|0,0:0|0:0,0:0:0
116,332,5936,1,0,0:0:0
116,332,6073,2,0,P|88:296|84:280,1,60
120,220,6345,2,0,P|116:206|88:170,1,60
36,120,6618,6,0,P|136:36,2,120,2|0|2,0:0|0:0|0:0,0:0:0
180,136,7436,2,0,P|216:152|236:152,1,60
300,120,7709,1,0,0:0:0
300,120,7845,1,0,0:0:0
300,120,7982,1,0,0:0:0
300,120,8118,1,0,0:0:0
300,120,8254,2,2,P|400:144|440:268,1,240,2|0,0:0|0:0,0:0:0
404,324,8936,1,0,0:0:0
332,324,9073,6,0,P|268:328|220:364,2,120
368,260,9754,1,2,0:0:0
176,200,10027,1,0,0:0:0
136,260,10163,2,0,P|112:288|104:312,1,60
112,380,10436,2,0,P|88:328|32:300,1,120
12,232,10845,1,0,0:0:0
32,164,10982,2,2,P|52:92|204:60,1,240
296,160,11800,5,0,0:0:0
296,160,11936,1,0,0:0:0
296,160,12073,2,0,P|320:180|352:184,1,60
404,136,12345,2,0,P|380:116|348:112,1,60
288,80,12618,2,8,P|248:92|216:164,1,120,8|0,0:0|0:0,0:0:0
212,304,13163,6,0,P|264:288|368:368,2,180,2|2|0,0:0|0:0|0:0,0:0:0
160,352,14118,1,0,0:0:0
100,312,14254,2,0,P|64:252,1,60,2|0,0:0|0:0,0:0:0
12,128,14663,2,0,P|48:164|176:168,1,180,8|0,0:0|0:0,0:0:0
228,124,15209,1,0,0:0:0
256,60,15345,6,0,P|380:60,1,120,2|0,0:0|0:0,0:0:0
476,164,15891,2,0,P|352:164,1,120,2|0,0:0|0:0,0:0:0
292,200,16300,1,0,0:0:0
288,284,16436,5,0,0:0:0
288,284,16573,1,0,0:0:0
288,284,16709,1,0,0:0:0
288,284,16845,1,0,0:0:0
288,284,16982,2,0,P|408:284,1,120
505,381,17527,1,4,0:0:0
324,344,26254,6,0,P|368:296|424:288,1,120,4|0,0:0|0:0,0:0:0
464,232,26663,1,0,0:0:0
504,172,26800,2,2,P|472:56,2,120,2|0|2,0:0|0:0|0:0,0:0:0
464,232,27482,2,0,P|480:264|500:276,2,60
404,196,27891,2,0,P|344:208|304:248,1,120,2|0,0:0|0:0,0:0:0
196,348,28436,6,4,P|72:316,1,120,4|0,0:0|0:0,0:0:0
64,176,28982,2,4,P|188:208,1,120,8|0,0:0|0:0,0:0:0
248,180,29391,1,0,0:0:0
280,116,29527,1,2,0:0:0
464,36,29800,1,0,0:0:0
464,180,30073,2,0,P|508:228,2,60,2|0|0,0:0|0:0|0:0,0:0:0
396,152,30482,1,0,0:0:0
408,224,30618,6,0,P|396:312|264:344,1,240,2|0,0:0|0:0,0:0:0
124,316,31436,1,0,0:0:0
108,172,31709,2,0,P|224:172|310:252,1,240,2|0,0:0|0:0,0:0:0
444,200,32527,1,0,0:0:0
444,56,32800,2,2,P|328:20,1,120,2|0,0:0|0:0,0:0:0
182,20,33345,2,2,P|68:56,1,120,2|0,0:0|0:0,0:0:0
12,188,33891,2,2,P|24:296|124:376,1,240
184,336,34709,1,0,0:0:0
240,292,34982,6,4,P|296:304|356:292,1,120,4|0,0:0|0:0,0:0:0
436,172,36073,2,4,P|380:160|320:172,1,120,2|0,0:0|0:0,0:0:0
176,172,37163,2,0,P|160:100|296:28,1,240,2|0,0:0|0:0,0:0:0
356,36,38527,1,0,0:0:0
428,48,38800,1,0,0:0:0
444,192,39345,6,0,P|448:240|480:276,2,90,2|0|0,0:0|0:0|0:0,0:0:0
416,124,40436,2,0,P|296:164,1,120,2|0,0:0|0:0,0:0:0
316,352,41527,5,2,0:0:0
236,276,41936,1,0,0:0:0
136,312,42345,1,0,0:0:0
136,312,42618,6,4,P|88:228|0:204,2,180,4|4|0,0:0|0:0|0:0,0:0:0
200,344,43709,5,2,0:0:0
252,212,44254,1,0,0:0:0
156,108,44800,2,0,P|212:64|260:56,1,120,2|0,0:0|0:0,0:0:0
400,36,45891,2,0,P|422:41|430:104|393:114|356:124|364:186|386:192,1,180,2|0,0:0|0:0,0:0:0
452,164,46982,2,0,P|460:196|448:224,1,60,2|0,0:0|0:0,0:0:0
386,249,47527,2,0,P|378:217|390:189,1,60,2|0,0:0|0:0,0:0:0
400,120,48073,6,4,P|280:140,1,120,2|8,0:0|0:0,0:0:0
232,192,48891,1,0,0:0:0
284,244,49163,2,0,P|280:292|224:336,1,120,2|0,0:0|0:0,0:0:0
108,252,50254,2,0,P|112:204|168:160,1,120,2|0,0:0|0:0,0:0:0
232,192,51073,1,0,0:0:0
232,192,51345,6,4,P|296:192|296:192|344:160,1,120,4|0,0:0|0:0,0:0:0
260,40,51891,2,0,P|196:40|196:40|148:72,2,120,8|0|2,0:0|0:0|0:0,0:0:0
256,192,52573,12,4,54073,0:0:0
432,332,54618,6,4,P|420:272|432:216,1,120,4|0,0:0|0:0,0:0:0
344,100,55163,2,4,P|356:160|344:216,1,120,2|0,0:0|0:0,0:0:0
296,272,55573,1,0,0:0:0
224,284,55709,1,2,0:0:0
96,352,55982,1,0,0:0:0
96,352,56118,1,2,0:0:0
24,228,56391,1,0,0:0:0
24,228,56527,1,2,0:0:0
72,92,56800,6,2,P|128:108|188:92,1,120,2|0,0:0|0:0,0:0:0
256,76,57209,1,0,0:0:0
330,92,57345,2,2,P|388:76|444:92,1,120,2|0,0:0|0:0,0:0:0
508,224,57891,1,0,0:0:0
372,180,58163,6,2,P|416:300,1,120
452,356,58573,1,0,0:0:0
380,356,58709,2,0,P|328:324|264:324,1,120,0|2,0:0|0:0,0:0:0
204,352,59118,1,0,0:0:0
140,320,59254,1,0,0:0:0
180,180,59527,1,0,0:0:0
48,124,59800,1,0,0:0:0
160,36,60073,6,0,P|224:64|336:48,2,180,2|2|0,0:0|0:0|0:0,0:0:0
96,68,61027,1,0,0:0:0
48,124,61163,2,0,P|24:156|36:236,1,120,2|0,0:0|0:0,0:0:0
52,300,61573,1,0,0:0:0
124,296,61709,2,0,P|252:264,1,120,2|0,0:0|0:0,0:0:0
364,344,62254,6,0,P|236:376,2,120,0|2|0,0:0|0:0|0:0,0:0:0
412,292,62936,1,0,0:0:0
444,228,63073,2,0,P|448:192|444:168,1,60
392,120,63345,6,2,P|416:64|468:44,1,120,2|0,0:0|0:0,0:0:0
324,68,63891,2,2,P|300:124|248:144,1,120,2|0,0:0|0:0,0:0:0
176,132,64300,1,0,0:0:0
132,76,64436,2,0,P|72:76|72:76|12:116,1,120,2|0,0:0|0:0,0:0:0
22,181,64845,2,0,P|82:181|82:181|142:221,1,120,2|0,0:0|0:0,0:0:0
131,286,65254,2,0,P|71:286|71:286|11:326,1,120,0|2,0:0|0:0,0:0:0
160,364,65800,1,0,0:0:0
212,228,66073,2,0,P|256:264|320:264,1,120,2|0,0:0|0:0,0:0:0
456,308,66618,6,0,P|516:292,1,60,2|0,0:0|0:0,0:0:0
464,232,66891,2,0,P|448:172,1,60,8|0,0:0|0:0,0:0:0
388,224,67163,2,0,P|328:240,1,60,2|0,0:0|0:0,0:0:0
380,300,67436,2,0,P|396:360,1,60,8|0,0:0|0:0,0:0:0
320,352,67709,6,0,P|256:352|168:280,1,180,2|0,0:0|0:0,0:0:0
148,212,68254,1,8,0:0:0
168,140,68391,1,0,0:0:0
212,84,68527,2,0,P|272:76|328:112,1,120,0|2,0:0|0:0,0:0:0
456,48,69073,1,0,0:0:0
456,48,69209,1,2,0:0:0
444,192,69482,1,0,0:0:0
444,192,69618,1,2,0:0:0
316,260,69891,6,0,P|320:308|280:368,1,120,2|0,0:0|0:0,0:0:0
212,356,70300,1,0,0:0:0
152,320,70436,2,0,P|148:272|188:212,1,120,2|0,0:0|0:0,0:0:0
256,220,70845,1,0,0:0:0
316,260,70982,2,0,P|372:276|432:260,1,120,0|2,0:0|0:0,0:0:0
452,120,71527,2,0,P|484:96,6,30
384,92,72073,6,0,P|340:60|276:56,1,120,4|0,0:0|0:0,0:0:0
212,84,72482,1,0,0:0:0
180,148,72618,1,2,0:0:0
248,276,72891,1,0,0:0:0
104,276,73163,2,0,P|64:280|-4:328,1,120,2|0,0:0|0:0,0:0:0
50,375,73573,1,2,0:0:0
60,208,73845,5,0,0:0:0
60,208,73982,1,2,0:0:0
60,208,74118,1,2,0:0:0
60,208,74254,2,2,P|120:200|172:232,1,120,8|0,0:0|0:0,0:0:0
200,296,74663,1,0,0:0:0
272,292,74800,2,0,P|344:292,2,60,2|0|0,0:0|0:0|0:0,0:0:0
404,348,75345,6,0,P|440:324|464:244,1,120,2|0,0:0|0:0,0:0:0
412,204,75754,1,0,0:0:0
452,144,75891,2,0,P|488:120,2,30
384,116,76163,1,0,0:0:0
384,116,76300,1,2,0:0:0
364,48,76436,6,4,P|304:56|244:48,1,120,4|0,0:0|0:0,0:0:0
188,92,76845,1,0,0:0:0
120,68,76982,1,2,0:0:0
240,144,77254,1,0,0:0:0
240,144,77527,6,2,P|242:191|194:239,1,120,2|0,0:0|0:0,0:0:0
124,264,77936,2,2,P|121:216|169:168,1,120,2|0,0:0|0:0,0:0:0
194,240,78345,1,0,0:0:0
280,356,78618,6,2,P|336:316|448:312,1,180,2|0,0:0|0:0,0:0:0
488,368,79163,2,2,P|480:244,1,120,2|0,0:0|0:0,0:0:0
432,196,79573,1,0,0:0:0
440,124,79709,2,2,P|436:80|496:24,2,120
372,148,80391,1,0,0:0:0
372,148,80527,1,0,0:0:0
256,232,80800,6,0,P|208:232|148:268,1,120,4|0,0:0|0:0,0:0:0
112,332,81209,1,0,0:0:0
72,272,81345,2,0,P|60:208|64:152,1,120,2|0,0:0|0:0,0:0:0
152,40,81891,2,0,P|164:104|160:160,1,120,2|0,0:0|0:0,0:0:0
232,168,82300,1,0,0:0:0
300,144,82436,2,0,P|312:172|316:212,1,60,2|0,0:0|0:0,0:0:0
332,272,82709,1,0,0:0:0
292,332,82845,1,0,0:0:0
220,336,82982,6,0,P|172:308|108:304,1,120,2|0,0:0|0:0,0:0:0
36,180,83527,2,0,P|84:208|148:212,1,120,2|0,0:0|0:0,0:0:0
208,172,83936,1,0,0:0:0
232,104,84073,2,0,P|296:84,1,60,2|0,0:0|0:0,0:0:0
368,148,84345,2,0,P|304:168,1,60,2|0,0:0|0:0,0:0:0
268,224,84618,1,2,0:0:0
268,224,84754,1,0,0:0:0
268,224,84891,1,0,0:0:0
268,224,85027,1,0,0:0:0
268,224,85163,6,4,P|280:300|308:332,1,120,4|0,0:0|0:0,0:0:0
372,364,85573,1,0,0:0:0
436,336,85709,2,0,P|464:208,2,120,2|0|2,0:0|0:0|0:0,0:0:0
364,212,86527,1,0,0:0:0
364,212,86663,1,2,0:0:0
436,88,86936,1,0,0:0:0
436,88,87073,1,8,0:0:0
304,32,87345,6,0,P|248:60|192:68,1,120,2|0,0:0|0:0,0:0:0
68,144,87891,2,0,P|124:172|180:180,1,120,2|0,0:0|0:0,0:0:0
248,204,88300,1,0,0:0:0
312,240,88436,6,0,P|340:256|336:336,1,120,2|2,0:0|0:0,0:0:0
308,356,89118,1,0,0:0:0
276,368,89254,2,0,P|216:368,1,60,0|4,0:0|0:0,0:0:0
448,56,97709,5,2,0:0:0
448,56,97845,1,0,0:0:0
448,56,97982,1,2,0:0:0
448,56,98118,1,2,0:0:0
448,56,98254,6,2,P|484:120|480:168,1,120,2|0,0:0|0:0,0:0:0
424,208,98663,1,0,0:0:0
436,280,98800,2,0,P|464:336,2,60,0|2|0,0:0|0:0|0:0,0:0:0
368,256,99209,2,0,P|305:236|305:275|243:256,1,120,2|0,0:0|0:0,0:0:0
272,188,99618,2,0,P|209:168|209:207|147:188,1,120,2|0,0:0|0:0,0:0:0
88,164,100027,1,0,0:0:0
88,164,100163,1,0,0:0:0
88,164,100300,1,0,0:0:0
88,164,100436,6,0,P|48:220|48:272,1,120,2|0,0:0|0:0,0:0:0
84,332,100845,1,0,0:0:0
156,320,100982,1,2,0:0:0
288,376,101254,1,0,0:0:0
416,312,101527,6,0,P|480:296,1,60
368,252,101800,2,0,P|304:268,1,60,0|0,0:0|0:0,0:0:0
420,200,102073,2,2,P|432:140|420:80,1,120
368,32,102482,1,0,0:0:0
296,40,102618,5,0,0:0:0
292,184,102891,1,2,0:0:0
184,92,103163,1,0,0:0:0
116,120,103300,1,0,0:0:0
72,176,103436,1,0,0:0:0
48,244,103573,2,0,P|64:316|92:360,1,120,2|0,0:0|0:0,0:0:0
212,304,103982,2,0,P|196:232|168:188,1,120,2|0,0:0|0:0,0:0:0
164,120,104391,2,0,P|116:72,2,60
232,140,104800,6,2,P|316:124|340:100,1,120,2|0,0:0|0:0,0:0:0
376,40,105209,1,0,0:0:0
428,92,105345,2,0,P|500:120,1,60,8|0,0:0|0:0,0:0:0
504,184,105618,1,8,0:0:0
476,252,105754,1,8,0:0:0
404,264,105891,2,0,P|344:272|300:312,1,120
252,364,106300,1,0,0:0:0
180,352,106436,2,0,P|144:340,4,30,2|0|2|0|0,0:0|0:0|0:0|0:0|0:0,0:0:0
48,292,106982,6,4,P|24:236|32:176,1,120,4|0,0:0|0:0,0:0:0
76,120,107391,1,0,0:0:0
140,84,107527,2,2,P|204:88,1,60,2|0,0:0|0:0,0:0:0
240,172,107800,2,2,P|176:168,1,60,8|0,0:0|0:0,0:0:0
128,220,108073,2,0,P|152:276|148:336,2,120,0|0|2,0:0|0:0|0:0,0:0:0
92,156,108754,1,0,0:0:0
92,84,108891,1,0,0:0:0
152,44,109027,1,0,0:0:0
224,44,109163,6,0,P|276:60|316:112,1,120,2|0,0:0|0:0,0:0:0
232,228,109709,2,0,P|180:212|140:160,1,120,2|0,0:0|0:0,0:0:0
164,92,110118,1,2,0:0:0
222,134,110254,2,0,P|326:206,1,120
392,200,110663,1,0,0:0:0
456,168,110800,2,0,P|484:164|516:168,1,60,8|0,0:0|0:0,0:0:0
512,240,111073,2,0,P|484:244|452:240,1,60,8|0,0:0|0:0,0:0:0
392,276,111345,6,2,P|344:280|292:328,1,120
236,372,111754,1,0,0:0:0
168,344,111891,1,2,0:0:0
224,140,112163,1,0,0:0:0
224,140,112300,1,0,0:0:0
224,140,112436,2,2,P|172:168|112:172,1,120,2|0,0:0|0:0,0:0:0
48,140,112845,1,0,0:0:0
64,68,112982,6,0,P|104:24,1,60,2|0,0:0|0:0,0:0:0
164,68,113254,2,0,P|204:24,1,60,2|0,0:0|0:0,0:0:0
264,68,113527,2,0,P|288:112|352:148,1,120,2|0,0:0|0:0,0:0:0
420,148,113936,1,0,0:0:0
420,220,114073,2,0,P|449:237|461:259,1,60,2|0,0:0|0:0,0:0:0
424,340,114345,2,0,P|394:322|382:300,1,60,0|2,0:0|0:0,0:0:0
344,240,114618,2,8,P|220:272,1,120,8|0,0:0|0:0,0:0:0
96,324,115163,5,0,0:0:0
96,324,115300,1,0,0:0:0
96,324,115436,1,0,0:0:0
96,324,115573,1,0,0:0:0
96,324,115709,2,2,P|140:288|140:224,1,120
92,176,116118,1,0,0:0:0
40,124,116254,2,2,P|41:64|85:28,1,120
110,99,116663,1,0,0:0:0
164,148,116800,2,0,P|196:152|308:64,1,180
364,28,117345,5,2,0:0:0
432,52,117482,1,0,0:0:0
480,108,117618,1,0,0:0:0
484,180,117754,1,0,0:0:0
464,248,117891,2,0,P|452:292|472:364,2,120,2|0|8,0:0|0:0|0:0,0:0:0
324,276,118709,1,0,0:0:0
324,276,118845,1,2,0:0:0
324,276,118982,2,0,P|336:232|316:160,1,120
256,124,119391,1,0,0:0:0
184,136,119527,6,0,P|124:136,1,60,0|2,0:0|0:0,0:0:0
108,208,119800,2,0,P|168:208,1,60,2|0,0:0|0:0,0:0:0
178,281,120073,2,0,P|163:331|104:355,1,120,2|0,0:0|0:0,0:0:0
108,282,120482,1,0,0:0:0
34,283,120618,2,0,P|48:232|107:208,1,120,2|0,0:0|0:0,0:0:0
180,208,121027,1,0,0:0:0
244,244,121163,6,0,P|272:304|376:324,1,180,2|0,0:0|0:0,0:0:0
440,292,121709,1,2,0:0:0
472,228,121845,1,0,0:0:0
464,156,121982,1,0,0:0:0
420,100,122118,1,0,0:0:0
352,84,122254,6,0,P|232:84,1,120,2|0,0:0|0:0,0:0:0
116,168,122800,2,0,P|236:168,1,120,8|0,0:0|0:0,0:0:0
292,212,123209,1,2,0:0:0
320,280,123345,2,0,P|288:344|244:360,1,120
188,316,123754,1,0,0:0:0
116,300,123891,1,0,0:0:0
44,308,124027,2,0,P|4:360,2,60,8|0|8,0:0|0:0|0:0,0:0:0
44,308,124441,6,4,P|56:256|40:192,1,120,4|0,0:0|0:0,0:0:0
12,128,125261,1,0,0:0:0
64,80,125535,2,0,P|0:16,2,90,2|0|0,0:0|0:0|0:0,0:0:0
120,128,126630,1,2,0:0:0
228,140,127040,1,0,0:0:0
316,76,127451,1,0,0:0:0
384,56,127724,6,0,P|420:44|472:48,2,90,2|0|0,0:0|0:0|0:0,0:0:0
368,128,128819,2,0,P|328:208,1,90,2|0,0:0|0:0,0:0:0
392,296,129640,1,0,0:0:0
392,296,129914,2,0,P|432:216,2,90,2|0|0,0:0|0:0|0:0,0:0:0
328,328,131008,2,0,P|276:328|244:352,1,90,2|0,0:0|0:0,0:0:0
140,352,131829,1,0,0:0:0
88,304,132103,6,0,P|100:280|100:280|100:244,1,60,2|0,0:0|0:0,0:0:0
28,256,132650,2,0,P|28:222|28:222|40:198,1,60,8|0,0:0|0:0,0:0:0
100,156,133198,2,0,P|112:112|100:68,2,90,2|0|0,0:0|0:0|0:0,0:0:0
150,206,134292,2,0,P|138:250|150:294,2,90,2|0|0,0:0|0:0|0:0,0:0:0
188,144,135387,6,0,P|304:96,1,120,2|0,0:0|0:0,0:0:0
436,144,136482,2,0,P|320:192,1,120,2|0,0:0|0:0,0:0:0
264,224,137303,1,0,0:0:0
240,292,137576,2,0,P|240:324|228:348,1,60,2|0,0:0|0:0,0:0:0
156,364,138124,2,0,P|156:332|168:308,1,60,2|0,0:0|0:0,0:0:0
188,240,138671,1,2,0:0:0
72,48,139218,5,0,0:0:0
72,48,139492,1,0,0:0:0
72,48,139765,2,0,P|108:104|156:108,1,120,2|0,0:0|0:0,0:0:0
224,80,140586,1,0,0:0:0
256,192,140723,12,2,141681,0:0:0
360,68,141950,6,8,P|376:84|400:120,1,60,8|0,0:0|0:0,0:0:0
372,180,142222,2,2,P|368:236|404:288,1,120,2|0,0:0|0:0,0:0:0
464,324,142631,1,2,0:0:0
300,156,142904,1,2,0:0:0
272,296,143177,6,0,P|288:328,2,30,0|0|2,0:0|0:0|0:0,0:0:0
208,260,143450,1,0,0:0:0
136,244,143586,2,0,P|76:256,1,60,2|0,0:0|0:0,0:0:0
24,184,143859,2,0,P|84:172,1,60,2|0,0:0|0:0,0:0:0
152,152,144131,1,0,0:0:0
196,96,144268,1,0,0:0:0
176,28,144404,2,0,P|240:16|288:48,2,120,0|2|0,0:0|0:0|0:0,0:0:0
224,164,145222,6,0,P|224:204,2,30,2|0|0,0:0|0:0|0:0,0:0:0
292,144,145495,2,0,P|292:104,2,30,8|0|0,0:0|0:0|0:0,0:0:0
364,160,145768,1,0,0:0:0
424,200,145904,1,0,0:0:0
448,268,146040,2,0,P|448:328,1,60
392,372,146313,6,0,P|348:380|288:336,1,120,2|0,0:0|0:0,0:0:0
304,268,146722,1,0,0:0:0
256,212,146859,2,0,P|256:180|264:152,2,60,0|2|0,0:0|0:0|0:0,0:0:0
216,272,147268,2,2,P|160:276|100:308,1,120,2|0,0:0|0:0,0:0:0
56,360,147677,5,2,0:0:0
56,360,147813,1,0,0:0:0
24,296,147950,2,0,P|0:236,1,60
68,212,148222,2,0,P|44:152,1,60,2|0,0:0|0:0,0:0:0
68,88,148495,1,0,0:0:0
124,44,148631,1,0,0:0:0
196,32,148768,1,0,0:0:0
268,44,148904,1,0,0:0:0
324,88,149040,6,0,P|388:144|420:144,2,120,2|0|2,0:0|0:0|0:0,0:0:0
268,44,149722,1,0,0:0:0
196,32,149859,1,0,0:0:0
124,44,149995,1,0,0:0:0
68,88,150131,2,0,P|44:120,2,30
124,44,150404,1,8,0:0:0
124,44,150540,1,0,0:0:0
172,100,150677,6,0,P|184:164,1,60,2|0,0:0|0:0,0:0:0
112,152,150950,2,8,P|172:180|184:232,1,120,8|0,0:0|0:0,0:0:0
184,300,151359,2,8,P|124:272|112:220,2,120,8|8|0,0:0|0:0|0:0,0:0:0
252,280,152040,1,2,0:0:0
320,300,152177,1,0,0:0:0
364,356,152313,2,0,P|484:356,1,120,0|2,0:0|0:0,0:0:0
500,284,152722,1,0,0:0:0
476,216,152859,6,0,P|492:152,1,60,2|0,0:0|0:0,0:0:0
424,128,153131,2,0,P|440:64,1,60,2|0,0:0|0:0,0:0:0
384,24,153404,2,2,P|336:60|276:68,1,120,4|2,0:0|0:0,0:0:0
212,40,153813,1,0,0:0:0
140,56,153950,6,0,P|108:36,2,30,2|0|0,0:0|0:0|0:0,0:0:0
128,128,154222,2,0,P|124:160|136:188,1,60
204,208,154495,2,0,P|208:176|196:148,2,60,8|0|8,0:0|0:0|0:0,0:0:0
52,344,155040,6,2,P|108:332|168:344,1,120,2|0,0:0|0:0,0:0:0
236,368,155450,1,0,0:0:0
304,344,155586,2,0,P|364:368,1,60,2|0,0:0|0:0,0:0:0
248,292,155995,2,2,P|208:248|204:184,1,120,2|0,0:0|0:0,0:0:0
264,152,156404,1,2,0:0:0
332,132,156540,1,0,0:0:0
404,140,156677,2,0,P|476:140,2,60,0|0|2,0:0|0:0|0:0,0:0:0
312,16,157222,6,0,P|256:48,1,60
192,72,157495,1,0,0:0:0
120,72,157631,1,0,0:0:0
52,44,157768,2,0,P|60:76|48:160,1,120,2|0,0:0|0:0,0:0:0
12,228,158177,1,0,0:0:0
44,292,158313,2,0,P|44:324|56:352,1,60
116,308,158586,2,0,P|116:276|104:248,1,60,8|0,0:0|0:0,0:0:0
148,192,158859,2,0,P|148:156,6,30
204,236,159404,6,4,P|232:244|256:268,1,60,4|0,0:0|0:0,0:0:0
292,324,159677,2,8,P|344:344|404:328,1,120,8|0,0:0|0:0,0:0:0
448,272,160086,1,2,0:0:0
456,200,160222,1,0,0:0:0
428,132,160359,2,2,P|312:68,1,120,2|0,0:0|0:0,0:0:0
268,24,160768,6,2,P|240:44|212:48,1,60
96,48,161040,2,2,P|124:28|152:24,1,60,2|0,0:0|0:0,0:0:0
60,108,161313,2,2,P|32:128|4:132,1,60,2|0,0:0|0:0,0:0:0
4,204,161586,6,0,P|40:324,1,120
92,368,161995,1,0,0:0:0
160,340,162131,2,0,P|216:328|272:364,2,120,2|0|2,0:0|0:0|0:0,0:0:0
104,296,162813,1,0,0:0:0
88,224,162950,1,0,0:0:0
112,156,163086,1,0,0:0:0
176,120,163222,2,0,P|236:120|312:96,1,120,2|0,0:0|0:0,0:0:0
344,52,163631,1,0,0:0:0
404,96,163768,6,4,P|464:120,1,60,4|0,0:0|0:0,0:0:0
404,96,164040,2,2,P|396:168|368:208,1,120,2|0,0:0|0:0,0:0:0
312,252,164450,1,2,0:0:0
240,264,164586,1,0,0:0:0
172,240,164722,2,0,P|104:248|60:280,1,120,2|0,0:0|0:0,0:0:0
28,212,165131,6,0,P|12:144,1,60,2|0,0:0|0:0,0:0:0
88,148,165404,2,0,P|101:89,1,60,2|0,0:0|0:0,0:0:0
28,80,165677,2,0,P|12:12,1,60,2|0,0:0|0:0,0:0:0
102,89,165950,5,0,0:0:0
172,68,166086,1,0,0:0:0
244,72,166222,1,0,0:0:0
308,104,166359,1,0,0:0:0
348,164,166495,2,0,P|352:228|324:280,1,120,2|0,0:0|0:0,0:0:0
260,308,166904,1,0,0:0:0
192,288,167040,6,0,P|172:324,2,30,8|0|0,0:0|0:0|0:0,0:0:0
220,220,167313,2,0,P|196:200|168:188,1,60,2|0,0:0|0:0,0:0:0
292,164,167586,2,0,P|316:184|344:196,2,60,8|0|8,0:0|0:0|0:0,0:0:0
268,96,167995,1,0,0:0:0
300,32,168131,6,4,P|340:48|416:52,1,120,4|8,0:0|0:0,0:0:0
480,20,168540,1,0,0:0:0
476,92,168677,2,0,P|504:144,1,60,0|2,0:0|0:0,0:0:0
468,240,168950,2,0,P|440:188,1,60,0|2,0:0|0:0,0:0:0
388,136,169222,1,0,0:0:0
316,124,169359,1,0,0:0:0
252,152,169495,1,2,0:0:0
232,220,169631,1,0,0:0:0
248,292,169768,2,0,P|268:324|292:336,2,60,0|0|2,0:0|0:0|0:0,0:0:0
180,272,170177,1,0,0:0:0
108,268,170313,6,0,P|76:268|76:268|52:248,1,60,8|0,0:0|0:0,0:0:0
52,176,170586,2,0,P|84:176|84:176|108:196,2,60,0|0|2,0:0|0:0|0:0,0:0:0
156,76,171131,1,0,0:0:0
256,180,171404,6,0,P|268:212,2,30,8|0|0,0:0|0:0|0:0,0:0:0
307,128,171677,2,0,P|295:96,2,30,8|0|8,0:0|0:0|0:0,0:0:0
376,144,171950,2,0,P|424:160|464:216,1,120,8|0,0:0|0:0,0:0:0
452,288,172359,1,0,0:0:0
404,340,172495,6,4,P|344:340,1,60,4|0,0:0|0:0,0:0:0
352,268,172768,2,8,P|322:260|293:268,1,60,8|0,0:0|0:0,0:0:0
256,328,173040,1,0,0:0:0
218,268,173177,2,8,P|189:260|160:268,1,60,8|0,0:0|0:0,0:0:0
168,340,173450,2,4,P|108:340,1,60,8|0,0:0|0:0,0:0:0
48,300,173722,5,0,0:0:0
16,236,173859,1,2,0:0:0
24,164,173995,1,0,0:0:0
72,112,174131,1,0,0:0:0
144,104,174268,1,0,0:0:0
208,136,174404,1,2,0:0:0
344,88,174677,6,2,P|344:52,8,30,2|0|2|0|2|0|2|0|2,0:0|0:0|0:0|0:0|0:0|0:0|0:0|0:0|0:0,0:0:0
444,192,175495,1,8,0:0:0
344,296,175768,2,2,P|344:332,8,30,2|0|2|0|2|0|2|0|2,0:0|0:0|0:0|0:0|0:0|0:0|0:0|0:0|0:0,0:0:0
244,192,176586,1,8,0:0:0
100,192,176859,5,4,0:0:0
436,20,194313,5,4,0:0:0
428,56,194450,1,0,0:0:0
420,92,194586,1,0,0:0:0
448,160,194859,1,2,0:0:0
444,232,195131,1,0,0:0:0
388,280,195404,1,0,0:0:0
100,276,196495,6,0,P|56:280|20:312,2,90,2|0|2,0:0|0:0|0:0,0:0:0
212,184,197859,1,2,0:0:0
148,216,198131,1,2,0:0:0
124,188,198268,1,0,0:0:0
100,164,198404,1,0,0:0:0
80,96,198677,6,2,P|136:64,1,60,2|0,0:0|0:0,0:0:0
168,66,199086,2,2,P|224:34,1,60,2|0,0:0|0:0,0:0:0
256,36,199495,1,2,0:0:0
432,288,200586,5,0,0:0:0
432,288,200859,2,0,P|376:320,1,60,2|0,0:0|0:0,0:0:0
344,318,201268,2,0,P|288:350,1,60,2|0,0:0|0:0,0:0:0
256,348,201677,1,2,0:0:0
256,116,202768,5,0,0:0:0
328,124,203040,2,2,P|320:156|276:188,1,90,2|0,0:0|0:0,0:0:0
184,132,203859,2,0,P|193:76|300:56,1,180,2|0,0:0|0:0,0:0:0
236,196,205222,6,2,P|192:228|184:260,1,90,2|0,0:0|0:0,0:0:0
328,252,206040,2,0,P|319:308|212:328,1,180,2|0,0:0|0:0,0:0:0
213,144,207404,38,0,B|141:114|68:198|133:318|212:276|288:313|288:313|334:243|424:241|419:104|313:67|267:129,1,660,2|2,0:0|0:0,0:0:0
256,192,210472,12,0,211495,0:0:0
276,24,211781,6,4,P|292:64|360:96,1,120,4|8,0:0|0:0,0:0:0
428,76,212190,1,0,0:0:0
464,140,212326,2,0,P|464:200|464:200|504:244,2,120,0|0|2,0:0|0:0|0:0,0:0:0
420,276,213144,6,0,P|461:321,2,60,0|2|0,0:0|0:0|0:0,0:0:0
352,252,213553,1,0,0:0:0
280,264,213690,1,0,0:0:0
236,320,213826,1,0,0:0:0
236,320,213962,6,0,P|116:340,1,120,2|0,0:0|0:0,0:0:0
52,308,214371,1,0,0:0:0
16,244,214508,2,2,P|12:176|32:128,1,120,2|0,0:0|0:0,0:0:0
96,164,214917,2,2,P|115:117|111:49,1,120,2|0,0:0|0:0,0:0:0
110,47,215326,1,2,0:0:0
308,44,215599,6,8,P|428:36|440:40,1,120
484,76,216008,1,0,0:0:0
504,144,216144,6,4,P|500:216|464:244,1,120,4|0,0:0|0:0,0:0:0
440,176,216553,2,2,P|384:256|408:332,1,180
344,364,217099,1,0,0:0:0
280,332,217235,2,2,P|301:259|245:179,1,180,2|0,0:0|0:0,0:0:0
180,148,217781,2,4,P|184:220|218:247,1,120,2|0,0:0|0:0,0:0:0
244,180,218190,1,0,0:0:0
308,144,218326,6,2,P|424:104,1,120,2|0,0:0|0:0,0:0:0
204,144,218871,2,2,P|88:104,1,120,2|0,0:0|0:0,0:0:0
56,168,219281,1,0,0:0:0
52,240,219417,5,2,0:0:0
80,308,219553,1,0,0:0:0
140,348,219690,2,0,P|200:348,1,60,8|0,0:0|0:0,0:0:0
256,300,219962,1,0,0:0:0
256,300,220099,1,0,0:0:0
312,348,220235,2,0,P|372:348,1,60,8|0,0:0|0:0,0:0:0
432,308,220508,6,4,P|472:244|468:192,1,120,2|0,0:0|0:0,0:0:0
398,201,220917,2,4,P|358:137|362:85,1,120,2|0,0:0|0:0,0:0:0
432,92,221326,2,0,P|488:56,1,60
360,96,221599,1,2,0:0:0
216,88,221871,1,0,0:0:0
92,160,222144,1,2,0:0:0
52,300,222417,1,0,0:0:0
88,364,222553,1,0,0:0:0
160,368,222690,6,0,P|220:364,1,60,2|0,0:0|0:0,0:0:0
270,313,222962,2,0,P|330:317,1,60,2|0,0:0|0:0,0:0:0
381,368,223235,2,0,P|429:348|460:288,1,120,2|0,0:0|0:0,0:0:0
448,220,223644,1,0,0:0:0
376,212,223781,2,0,P|328:232|297:292,1,120,2|0,0:0|0:0,0:0:0
308,360,224190,1,0,0:0:0
236,352,224326,6,0,P|204:344|176:344,1,60,2|0,0:0|0:0,0:0:0
112,372,224599,1,8,0:0:0
112,372,224735,1,0,0:0:0
68,316,224871,2,0,P|68:224|8:160,2,180,4|2|0,0:0|0:0|0:0,0:0:0
184,228,225962,2,0,P|184:320|244:384,2,180,2|2|0,0:0|0:0|0:0,0:0:0
228,172,226917,1,0,0:0:0
280,224,227053,6,0,P|340:224,1,60,2|0,0:0|0:0,0:0:0
391,172,227326,2,0,P|391:112,1,60,2|0,0:0|0:0,0:0:0
339,60,227599,2,0,P|279:60,1,60,2|0,0:0|0:0,0:0:0
228,112,227872,2,0,P|228:172,1,60,2|0,0:0|0:0,0:0:0
208,244,228144,6,0,P|208:308,1,60
60,360,228690,2,0,P|52:336,8,15,0|0|0|0|0|0|0|0|4,0:0|0:0|0:0|0:0|0:0|0:0|0:0|0:0|0:0,0:0:0
28,220,229508,6,0,P|4:168|12:108,2,120,2|0|0,0:0|0:0|0:0,0:0:0
96,240,230190,1,0,0:0:0
152,196,230326,2,0,P|176:136,1,60,0|2,0:0|0:0,0:0:0
246,140,230599,2,0,P|270:80,1,60,0|2,0:0|0:0,0:0:0
340,84,230871,2,0,P|364:24,2,60,2|0|2,0:0|0:0|0:0,0:0:0
372,148,231281,1,0,0:0:0
404,212,231417,6,0,P|460:280|492:292,2,120,2|0|2,0:0|0:0|0:0,0:0:0
332,212,232099,1,0,0:0:0
300,276,232235,2,0,P|300:336,1,60
232,364,232508,5,2,0:0:0
164,336,232644,1,0,0:0:0
96,364,232781,1,2,0:0:0
28,336,232917,1,0,0:0:0
28,336,233053,2,0,P|44:276|28:216,1,120,2|0,0:0|0:0,0:0:0
16,152,233462,1,0,0:0:0
40,84,233599,6,4,P|96:56,1,60,4|0,0:0|0:0,0:0:0
148,104,233871,1,0,0:0:0
216,132,234008,1,0,0:0:0
288,140,234144,2,0,P|328:104|328:104|352:104|388:76,2,120,2|0|2,0:0|0:0|0:0,0:0:0
284,212,234826,1,0,0:0:0
324,272,234962,2,0,P|396:292,2,60,0|0|2,0:0|0:0|0:0,0:0:0
252,276,235371,1,0,0:0:0
188,312,235508,2,0,P|144:344|80:348,1,120
20,124,236053,5,2,0:0:0
152,180,236326,1,2,0:0:0
144,36,236599,1,0,0:0:0
144,36,236735,1,0,0:0:0
212,64,236871,6,0,P|228:92|256:108,1,60,2|0,0:0|0:0,0:0:0
323,106,237144,2,0,P|346:120|362:148,1,60,2|0,0:0|0:0,0:0:0
336,216,237417,2,0,P|324:244,2,30,8|0|0,0:0|0:0|0:0,0:0:0
408,228,237690,2,0,P|420:200,2,30,8|0|0,0:0|0:0|0:0,0:0:0
384,296,237962,6,4,P|352:332|284:340,1,120,4|2,0:0|0:0,0:0:0
224,300,238371,1,0,0:0:0
152,304,238508,1,0,0:0:0
92,344,238644,1,0,0:0:0
92,344,238781,2,0,P|40:308,1,60,2|0,0:0|0:0,0:0:0
16,240,239053,5,0,0:0:0
76,200,239190,1,2,0:0:0
16,160,239326,1,0,0:0:0
76,120,239462,1,2,0:0:0
16,80,239599,2,0,P|16:16,2,60,2|0|2,0:0|0:0|0:0,0:0:0
76,120,240008,1,0,0:0:0
136,80,240144,6,0,P|192:60|248:80,1,120,4|2,0:0|0:0,0:0:0
296,136,240553,1,0,0:0:0
356,100,240690,2,2,P|412:128,1,60,2|0,0:0|0:0,0:0:0
440,192,240962,1,2,0:0:0
356,284,241235,6,2,P|412:256,2,60,2|0|2,0:0|0:0|0:0,0:0:0
304,336,241644,1,0,0:0:0
232,340,241781,2,2,P|176:368,2,60,2|0|2,0:0|0:0|0:0,0:0:0
248,268,242190,1,0,0:0:0
180,248,242326,6,0,P|120:248,1,60
162,177,242599,2,0,P|120:135,1,60
200,116,242871,2,0,P|200:56,1,60
270,98,243144,2,0,P|312:56,1,60
332,136,243417,2,0,P|392:136,1,60
349,206,243690,2,0,P|391:248,1,60
312,268,243962,2,0,P|312:328,1,60
241,285,244235,2,0,P|199:327,1,60
128,332,244508,5,2,0:0:0
72,288,244644,1,0,0:0:0
44,220,244781,1,0,0:0:0
40,148,244917,1,0,0:0:0
68,80,245053,1,0,0:0:0
128,40,245190,1,0,0:0:0
200,24,245326,1,0,0:0:0
268,52,245462,1,0,0:0:0
332,84,245599,6,0,P|364:84,2,30
281,134,245871,2,0,P|249:134,2,30,0|0|0,0:0|0:0|0:0,0:0:0
332,184,246144,2,0,P|368:184,8,30,2|0|2|0|2|2|2|2|4,0:0|0:0|0:0|0:0|0:0|0:0|0:0|0:0|0:0,0:0:0
