osu file format v12

[General]
AudioFilename: 07. (TV).mp3
AudioLeadIn: 0
PreviewTime: 70681
Countdown: 0
SampleSet: Normal
StackLeniency: 0.7
Mode: 3
LetterboxInBreaks: 0
SpecialStyle: 0
WidescreenStoryboard: 1

[Editor]
Bookmarks: 209538
DistanceSpacing: 1
BeatDivisor: 8
GridSize: 32

[Metadata]
Title:Snow, silence, at the window.
TitleUnicode:雪,無音,窓辺にて
Artist:Lantis feat. Hatsune Miku
ArtistUnicode:Lantis feat. 初音ミク
Creator:Xhinryuu
Version:Hard
Source:
Tags:
BeatmapID:355369
BeatmapSetID:142763

[Difficulty]
HPDrainRate:7
CircleSize:7
OverallDifficulty:7
ApproachRate:5
SliderMultiplier:1.39999990463257
SliderTickRate:2

[Events]
//Background and Video events
0,0,"mikumix.jpg",0,0
//Break Periods
//Storyboard Layer 0 (Background)
//Storyboard Layer 1 (Fail)
//Storyboard Layer 2 (Pass)
//Storyboard Layer 3 (Foreground)
//Storyboard Sound Samples
//Background Colour Transformations
3,100,163,162,255

[TimingPoints]
22681.2559614115,428.571428571429,4,1,0,50,1,0

[HitObjects]
36,192,395,128,2,823:0:0:0:66:
182,192,823,128,2,1252:0:0:0:66:
109,192,1252,128,2,1680:0:0:0:0:
256,192,1680,128,2,2109:0:0:0:0:
329,192,2109,128,2,2538:0:0:0:0:
475,192,2538,128,2,2966:0:0:0:0:
402,192,2966,128,2,3395:0:0:0:0:
36,192,3395,128,2,3823:0:0:0:0:
109,192,3823,128,2,4252:0:0:0:0:
256,192,4252,128,2,4680:0:0:0:0:
182,192,4680,128,2,5109:0:0:0:0:
329,192,5109,128,2,5538:0:0:0:0:
402,192,5538,128,2,5966:0:0:0:0:
109,192,5966,128,2,6395:0:0:0:0:
36,192,6395,128,2,6823:0:0:0:0:
182,192,6823,128,2,7252:0:0:0:0:
475,192,7252,5,0,0:0:0:33:
402,192,7252,128,2,7842:0:0:0:33:
329,192,7842,128,2,8110:0:0:0:66:
256,192,8109,128,2,8430:0:0:0:66:
182,192,8430,128,2,8752:0:0:0:66:
36,192,8752,1,0,0:0:0:33:
109,192,8752,128,2,8966:0:0:0:33:
475,192,8966,1,0,0:0:0:66:
402,192,8967,128,2,9235:0:0:0:66:
329,192,9234,128,2,9555:0:0:0:66:
256,192,9556,128,2,9824:0:0:0:66:
182,192,9824,128,2,10466:0:0:0:66:
36,192,10466,1,0,0:0:0:66:
475,192,10681,1,0,0:0:0:33:
402,192,10681,128,2,11324:0:0:0:33:
329,192,11324,128,2,11538:0:0:0:66:
475,192,11538,1,0,0:0:0:33:
256,192,11538,128,2,11806:0:0:0:33:
182,192,11806,128,2,12181:0:0:0:66:
36,192,12181,1,0,0:0:0:33:
402,192,12181,1,2,0:0:0:33:
475,192,12395,1,0,0:0:0:33:
402,192,12395,128,2,12716:0:0:0:33:
475,192,12716,1,0,0:0:0:33:
329,192,12716,1,2,0:0:0:33:
475,192,13038,1,0,0:0:0:33:
329,192,13038,128,2,14109:0:0:0:33:
475,192,13252,1,0,0:0:0:66:
475,192,13466,1,0,0:0:0:66:
475,192,13681,1,0,0:0:0:66:
36,192,13788,1,0,0:0:0:66:
475,192,13895,1,0,0:0:0:66:
36,192,14002,1,0,0:0:0:66:
475,192,14109,1,0,0:0:0:66:
36,192,14109,1,2,2:0:0:0:
109,192,14181,1,2,2:0:0:0:
182,192,14252,1,2,2:0:0:0:
109,192,14538,1,2,2:0:0:0:
182,192,14609,1,2,2:0:0:0:
256,192,14681,1,2,2:0:0:0:
182,192,14966,1,2,2:0:0:0:
256,192,15038,1,2,2:0:0:0:
329,192,15109,1,2,2:0:0:0:
256,192,15395,1,2,2:0:0:0:
329,192,15466,1,2,2:0:0:0:
402,192,15538,1,2,2:0:0:0:
36,192,15823,1,2,2:0:0:0:
109,192,15895,1,2,2:0:0:0:
182,192,15966,1,2,2:0:0:0:
109,192,16252,1,2,2:0:0:0:
182,192,16323,1,2,2:0:0:0:
256,192,16395,1,2,2:0:0:0:
182,192,16680,1,2,2:0:0:0:
256,192,16752,1,2,2:0:0:0:
329,192,16823,1,2,2:0:0:0:
256,192,17109,1,2,2:0:0:0:
329,192,17180,1,2,2:0:0:0:
402,192,17252,1,2,2:0:0:0:
475,192,17538,1,0,0:0:0:33:
36,192,17538,1,2,0:0:0:33:
109,192,17645,1,2,0:0:0:66:
182,192,17753,1,2,0:0:0:66:
256,192,17860,1,2,0:0:0:66:
475,192,17966,1,0,0:0:0:33:
329,192,17966,128,2,18823:0:0:0:33:
36,192,17967,1,0,0:0:0:22:
475,192,18395,1,0,0:0:0:66:
36,192,18395,1,0,0:0:0:33:
475,192,18824,1,0,0:0:0:33:
109,192,18824,1,2,0:0:0:33:
36,192,18824,1,0,0:0:0:22:
182,192,18931,1,2,0:0:0:66:
256,192,19038,1,2,0:0:0:66:
329,192,19145,1,2,0:0:0:66:
475,192,19252,1,0,0:0:0:66:
402,192,19253,128,2,20110:0:0:0:66:
36,192,19253,1,0,0:0:0:22:
475,192,19681,1,0,0:0:0:66:
36,192,19681,1,0,0:0:0:33:
475,192,20109,1,0,0:0:0:66:
329,192,20110,128,2,20539:0:0:0:66:
36,192,20110,1,0,0:0:0:22:
475,192,20538,1,0,0:0:0:33:
256,192,20538,128,2,20966:0:0:0:33:
36,192,20538,1,0,0:0:0:22:
475,192,20966,1,0,0:0:0:66:
36,192,20967,1,2,0:0:0:66:
329,192,20967,1,0,0:0:0:22:
182,192,21181,1,2,0:0:0:66:
475,192,21395,1,0,0:0:0:33:
36,192,21395,1,2,0:0:0:33:
329,192,21395,1,0,0:0:0:22:
182,192,21610,1,2,0:0:0:66:
475,192,21824,1,0,0:0:0:33:
36,192,21824,1,2,0:0:0:33:
329,192,21824,1,0,0:0:0:22:
182,192,22038,1,2,0:0:0:66:
475,192,22252,1,0,0:0:0:66:
36,192,22253,1,2,0:0:0:66:
329,192,22253,1,0,0:0:0:22:
182,192,22467,1,2,0:0:0:66:
475,192,22681,1,0,0:0:0:33:
36,192,22681,1,2,0:0:0:33:
329,192,22681,1,0,0:0:0:22:
182,192,22895,1,2,0:0:0:66:
475,192,23109,1,0,0:0:0:66:
36,192,23110,1,2,0:0:0:66:
329,192,23110,1,0,0:0:0:22:
182,192,23324,1,2,0:0:0:66:
475,192,23538,1,0,0:0:0:33:
36,192,23538,1,2,0:0:0:33:
329,192,23538,1,0,0:0:0:22:
182,192,23753,1,2,0:0:0:66:
475,192,23966,1,0,0:0:0:66:
36,192,23967,1,2,0:0:0:66:
329,192,23967,1,0,0:0:0:22:
182,192,24181,1,2,0:0:0:66:
475,192,24395,1,0,0:0:0:33:
36,192,24395,1,2,0:0:0:33:
109,192,24503,1,2,0:0:0:66:
182,192,24610,1,2,0:0:0:66:
256,192,24717,1,2,0:0:0:66:
475,192,24824,1,0,0:0:0:33:
329,192,24824,128,2,25681:0:0:0:33:
36,192,24824,1,0,0:0:0:22:
475,192,25252,1,0,0:0:0:66:
36,192,25253,1,0,0:0:0:33:
475,192,25681,1,0,0:0:0:33:
109,192,25681,1,2,0:0:0:33:
36,192,25681,1,0,0:0:0:22:
182,192,25788,1,2,0:0:0:66:
256,192,25895,1,2,0:0:0:66:
329,192,26003,1,2,0:0:0:66:
475,192,26109,1,0,0:0:0:66:
402,192,26110,128,2,26967:0:0:0:66:
36,192,26110,1,0,0:0:0:22:
475,192,26538,1,0,0:0:0:66:
36,192,26538,1,0,0:0:0:33:
475,192,26966,1,0,0:0:0:66:
329,192,26967,128,2,27396:0:0:0:66:
36,192,26967,1,0,0:0:0:22:
475,192,27395,1,0,0:0:0:33:
256,192,27395,128,2,27824:0:0:0:33:
36,192,27395,1,0,0:0:0:22:
475,192,27824,1,0,0:0:0:33:
36,192,27824,1,2,0:0:0:33:
329,192,27824,1,0,0:0:0:22:
182,192,28038,1,2,0:0:0:66:
36,192,28253,1,2,0:0:0:66:
475,192,28466,1,0,0:0:0:66:
182,192,28467,1,2,0:0:0:66:
329,192,28467,1,0,0:0:0:22:
36,192,28681,1,2,0:0:0:66:
475,192,28895,1,0,0:0:0:33:
182,192,28895,1,2,0:0:0:33:
329,192,28895,1,0,0:0:0:22:
36,192,29110,1,2,0:0:0:66:
475,192,29324,1,0,0:0:0:33:
182,192,29324,1,2,0:0:0:33:
402,192,29324,1,0,0:0:0:22:
36,192,29538,1,2,0:0:0:66:
182,192,29753,1,2,0:0:0:66:
475,192,29966,1,0,0:0:0:66:
36,192,29967,1,2,0:0:0:66:
402,192,29967,1,0,0:0:0:22:
182,192,30181,1,2,0:0:0:66:
475,192,30395,1,0,0:0:0:33:
36,192,30395,1,2,0:0:0:33:
402,192,30395,1,0,0:0:0:22:
475,192,30609,1,0,0:0:0:66:
182,192,30610,1,2,0:0:0:66:
402,192,30610,1,0,0:0:0:22:
475,192,30824,1,0,0:0:0:33:
36,192,30824,1,2,0:0:0:33:
402,192,30824,1,0,0:0:0:22:
36,192,30931,1,0,0:0:0:66:
109,192,30931,1,2,0:0:0:33:
475,192,31038,1,0,0:0:0:66:
402,192,31038,1,0,0:0:0:22:
36,192,31145,1,0,0:0:0:66:
109,192,31145,1,2,0:0:0:33:
475,192,31252,1,0,0:0:0:22:
182,192,31252,1,0,0:0:0:22:
329,192,31252,1,0,0:0:0:22:
36,192,31253,1,2,0:0:0:66:
402,192,31253,1,0,0:0:0:22:
182,192,31466,1,0,0:0:0:33:
329,192,31466,1,0,0:0:0:33:
182,192,31681,1,0,0:0:0:33:
329,192,31681,1,0,0:0:0:33:
36,192,31895,1,0,0:0:0:0:
36,192,32109,1,0,0:0:0:66:
109,192,32323,1,0,0:0:0:0:
109,192,32538,1,0,0:0:0:66:
182,192,32752,1,0,0:0:0:0:
182,192,32966,1,0,0:0:0:66:
256,192,33181,5,0,0:0:0:0:
256,192,33395,1,0,0:0:0:66:
329,192,33609,1,0,0:0:0:0:
329,192,33823,1,0,0:0:0:66:
402,192,34038,1,0,0:0:0:0:
402,192,34252,1,0,0:0:0:66:
475,192,34466,1,0,0:0:0:0:
475,192,34681,1,0,0:0:0:22:
329,192,34681,1,0,0:0:0:22:
182,192,34681,1,0,0:0:0:22:
182,192,34895,1,0,0:0:0:33:
329,192,34895,1,0,0:0:0:33:
182,192,35109,1,0,0:0:0:33:
329,192,35109,1,0,0:0:0:33:
36,192,35323,1,0,0:0:0:0:
36,192,35538,1,0,0:0:0:66:
109,192,35752,1,0,0:0:0:0:
109,192,35966,1,0,0:0:0:66:
182,192,36181,1,0,0:0:0:0:
182,192,36395,1,0,0:0:0:66:
256,192,36609,1,0,0:0:0:0:
256,192,36823,1,0,0:0:0:66:
329,192,37038,5,0,0:0:0:0:
329,192,37252,1,0,0:0:0:66:
402,192,37466,1,0,0:0:0:0:
402,192,37681,1,0,0:0:0:66:
475,192,37895,1,0,0:0:0:0:
475,192,38109,5,0,0:0:0:66:
402,192,38109,1,4,3:0:0:0:
256,192,38110,1,2,0:0:0:66:
182,192,38217,1,2,0:0:0:66:
256,192,38324,1,2,0:0:0:66:
182,192,38431,1,2,0:0:0:66:
475,192,38538,1,0,0:0:0:33:
109,192,38538,1,2,0:0:0:33:
402,192,38538,1,4,3:0:0:0:
182,192,38753,1,2,0:0:0:66:
109,192,38860,1,2,0:0:0:66:
475,192,38966,1,0,0:0:0:66:
402,192,38966,1,4,3:0:0:0:
36,192,39181,128,2,39609:0:0:0:66:
475,192,39395,1,0,0:0:0:66:
402,192,39395,1,4,3:0:0:0:
402,192,39823,1,4,3:0:0:0:
475,192,39824,1,0,0:0:0:33:
109,192,39824,1,2,0:0:0:33:
36,192,39931,1,2,0:0:0:66:
109,192,40038,1,2,0:0:0:66:
36,192,40145,1,2,0:0:0:66:
475,192,40252,1,0,0:0:0:66:
402,192,40252,1,4,3:0:0:0:
109,192,40253,1,2,0:0:0:66:
182,192,40467,1,2,0:0:0:66:
256,192,40574,1,2,0:0:0:66:
475,192,40681,1,0,0:0:0:66:
402,192,40681,1,4,3:0:0:0:
36,192,40842,128,2,41110:0:0:0:66:
475,192,41109,1,0,0:0:0:66:
402,192,41109,1,4,3:0:0:0:
109,192,41324,1,2,0:0:0:66:
182,192,41431,1,2,0:0:0:66:
475,192,41538,1,0,0:0:0:33:
256,192,41538,128,2,41966:0:0:0:33:
36,192,41538,1,4,3:0:0:0:
475,192,41966,1,0,0:0:0:66:
36,192,41966,1,4,3:0:0:0:
182,192,41967,1,2,0:0:0:66:
256,192,42181,1,2,0:0:0:66:
475,192,42395,1,0,0:0:0:66:
36,192,42395,1,4,3:0:0:0:
329,192,42610,1,2,0:0:0:66:
36,192,42823,1,4,3:0:0:0:
475,192,42824,1,0,0:0:0:33:
402,192,42824,1,2,0:0:0:33:
475,192,43038,1,2,0:0:0:66:
475,192,43252,1,0,0:0:0:66:
182,192,43252,1,4,3:0:0:0:
402,192,43253,128,2,43682:0:0:0:66:
475,192,43681,1,2,0:0:0:66:
182,192,43681,1,4,3:0:0:0:
402,192,43895,1,2,0:0:0:66:
475,192,44109,1,0,0:0:0:66:
182,192,44109,1,4,3:0:0:0:
329,192,44324,128,2,44752:0:0:0:66:
475,192,44538,1,0,0:0:0:66:
182,192,44538,1,4,3:0:0:0:
475,192,44966,1,0,0:0:0:66:
402,192,44966,1,4,3:0:0:0:
256,192,44967,1,2,0:0:0:66:
182,192,45074,1,2,0:0:0:66:
256,192,45181,1,2,0:0:0:66:
182,192,45288,1,2,0:0:0:66:
475,192,45395,1,0,0:0:0:33:
109,192,45395,1,2,0:0:0:33:
402,192,45395,1,4,3:0:0:0:
182,192,45610,1,2,0:0:0:66:
109,192,45717,1,2,0:0:0:66:
402,192,45823,1,4,3:0:0:0:
475,192,45824,1,0,0:0:0:66:
36,192,46038,128,2,46466:0:0:0:66:
475,192,46252,1,0,0:0:0:66:
402,192,46252,1,4,3:0:0:0:
475,192,46681,1,0,0:0:0:33:
109,192,46681,1,2,0:0:0:33:
402,192,46681,1,4,3:0:0:0:
36,192,46788,1,2,0:0:0:66:
109,192,46895,1,2,0:0:0:66:
36,192,47003,1,2,0:0:0:66:
475,192,47109,1,0,0:0:0:66:
402,192,47109,1,4,3:0:0:0:
109,192,47110,1,2,0:0:0:66:
182,192,47324,1,2,0:0:0:66:
109,192,47431,1,2,0:0:0:66:
475,192,47538,1,0,0:0:0:66:
402,192,47538,1,4,3:0:0:0:
36,192,47753,128,2,48182:0:0:0:66:
475,192,47966,1,0,0:0:0:66:
402,192,47966,1,4,3:0:0:0:
109,192,48181,1,2,0:0:0:66:
182,192,48288,1,2,0:0:0:66:
475,192,48395,1,0,0:0:0:33:
256,192,48395,1,2,0:0:0:33:
36,192,48395,1,4,3:0:0:0:
256,192,48610,1,2,0:0:0:66:
36,192,48823,1,4,3:0:0:0:
475,192,48824,1,0,0:0:0:33:
329,192,48824,1,2,0:0:0:33:
402,192,49038,1,2,0:0:0:66:
475,192,49252,1,0,0:0:0:66:
36,192,49252,1,4,3:0:0:0:
329,192,49253,1,2,0:0:0:66:
256,192,49467,1,2,0:0:0:66:
475,192,49681,1,0,0:0:0:33:
182,192,49681,1,2,0:0:0:33:
36,192,49681,1,4,3:0:0:0:
256,192,49895,1,2,0:0:0:66:
475,192,50109,1,0,0:0:0:66:
402,192,50109,1,4,3:0:0:0:
182,192,50110,1,2,0:0:0:66:
182,192,50324,1,2,0:0:0:66:
109,192,50431,128,2,50966:0:0:0:66:
475,192,50538,1,0,0:0:0:66:
402,192,50538,1,4,3:0:0:0:
475,192,50966,1,0,0:0:0:66:
402,192,50966,1,4,3:0:0:0:
475,192,51395,1,0,0:0:0:66:
402,192,51395,1,4,3:0:0:0:
36,192,51823,1,2,2:0:0:0:
402,192,51823,1,4,3:0:0:0:
475,192,51824,1,0,0:0:0:66:
109,192,51895,1,2,2:0:0:0:
182,192,51966,1,2,2:0:0:0:
109,192,52252,1,2,2:0:0:0:
182,192,52323,1,2,2:0:0:0:
256,192,52395,1,2,2:0:0:0:
182,192,52680,1,2,2:0:0:0:
256,192,52752,1,2,2:0:0:0:
329,192,52823,1,2,2:0:0:0:
36,192,53109,1,2,0:0:0:66:
256,192,53109,1,2,2:0:0:0:
329,192,53180,1,2,2:0:0:0:
402,192,53252,1,2,2:0:0:0:
182,192,53324,1,2,0:0:0:66:
475,192,53538,5,0,0:0:0:33:
329,192,53538,128,2,53966:0:0:0:33:
36,192,53538,128,2,55252:1:0:0:0:
475,192,53966,1,0,0:0:0:66:
402,192,54181,1,2,0:0:0:66:
329,192,54288,128,2,54824:0:0:0:66:
475,192,54395,1,0,0:0:0:66:
475,192,54824,1,0,0:0:0:66:
329,192,55038,1,2,0:0:0:66:
475,192,55252,1,0,0:0:0:66:
182,192,55252,128,2,56966:1:0:0:0:
329,192,55253,1,2,0:0:0:66:
402,192,55467,1,2,0:0:0:66:
475,192,55681,1,0,0:0:0:33:
329,192,55681,1,2,0:0:0:33:
402,192,55895,1,2,0:0:0:66:
329,192,56003,128,2,56539:0:0:0:66:
475,192,56109,1,0,0:0:0:66:
475,192,56538,1,0,0:0:0:66:
475,192,56966,1,0,0:0:0:66:
109,192,56966,128,2,58681:1:0:0:0:
329,192,56967,128,2,57396:0:0:0:66:
475,192,57395,1,0,0:0:0:33:
256,192,57395,128,2,57824:0:0:0:33:
475,192,57824,1,0,0:0:0:33:
402,192,57824,128,2,58252:0:0:0:33:
475,192,58252,1,0,0:0:0:66:
329,192,58253,128,2,58467:0:0:0:66:
475,192,58681,1,0,0:0:0:33:
329,192,58681,128,2,59002:0:0:0:33:
256,192,58681,128,2,60395:1:0:0:0:
402,192,59002,128,2,59323:0:0:0:66:
475,192,59109,1,0,0:0:0:66:
329,192,59324,128,2,59966:0:0:0:66:
475,192,59538,1,0,0:0:0:66:
475,192,59966,1,0,0:0:0:66:
109,192,60181,1,2,0:0:0:66:
475,192,60395,1,0,0:0:0:33:
182,192,60395,1,2,0:0:0:0:
36,192,60609,1,0,0:0:0:66:
109,192,60610,1,2,0:0:0:66:
475,192,60716,1,0,0:0:0:33:
182,192,60716,1,2,0:0:0:33:
475,192,61895,1,0,0:0:0:33:
109,192,61895,1,2,0:0:0:33:
182,192,62003,1,2,0:0:0:66:
475,192,62109,1,0,0:0:0:66:
256,192,62110,1,2,0:0:0:66:
36,192,62324,1,0,0:0:0:33:
182,192,62324,1,2,0:0:0:33:
475,192,62431,1,0,0:0:0:33:
256,192,62431,1,2,0:0:0:33:
36,192,63609,1,0,0:0:0:66:
256,192,63610,1,2,0:0:0:66:
109,192,63823,128,2,64466:1:0:0:0:
475,192,63824,1,0,0:0:0:33:
329,192,63824,1,2,0:0:0:33:
256,192,64038,1,2,0:0:0:66:
329,192,64145,1,2,0:0:0:66:
36,192,64466,1,0,0:0:0:33:
182,192,64466,1,2,0:0:0:33:
256,192,64574,1,2,0:0:0:66:
475,192,64681,1,0,0:0:0:33:
329,192,64681,1,2,0:0:0:33:
109,192,64681,128,2,65323:1:0:0:0:
256,192,64895,1,2,0:0:0:66:
329,192,65003,1,2,0:0:0:66:
36,192,65324,1,0,0:0:0:33:
256,192,65324,1,2,0:0:0:33:
475,192,65538,1,0,0:0:0:33:
329,192,65538,1,2,0:0:0:33:
182,192,65538,128,2,67252:1:0:0:0:
256,192,65753,1,2,0:0:0:66:
475,192,65966,1,0,0:0:0:66:
329,192,65967,1,2,0:0:0:66:
402,192,66181,1,2,0:0:0:66:
475,192,66395,1,0,0:0:0:33:
329,192,66395,128,2,67252:0:0:0:33:
475,192,66609,1,0,0:0:0:66:
475,192,66824,1,0,0:0:0:66:
36,192,66931,1,0,0:0:0:66:
475,192,67038,1,0,0:0:0:66:
36,192,67145,1,0,0:0:0:66:
475,192,67252,1,0,0:0:0:66:
36,192,67252,1,2,2:0:0:0:
109,192,67324,1,2,2:0:0:0:
182,192,67395,1,2,2:0:0:0:
109,192,67681,1,2,2:0:0:0:
182,192,67752,1,2,2:0:0:0:
256,192,67824,1,2,2:0:0:0:
182,192,68109,1,2,2:0:0:0:
256,192,68181,1,2,2:0:0:0:
329,192,68252,1,2,2:0:0:0:
256,192,68538,1,2,2:0:0:0:
329,192,68609,1,2,2:0:0:0:
402,192,68681,1,2,2:0:0:0:
36,192,68966,1,2,2:0:0:0:
109,192,69038,1,2,2:0:0:0:
182,192,69109,1,2,2:0:0:0:
109,192,69395,1,2,2:0:0:0:
182,192,69466,1,2,2:0:0:0:
256,192,69538,1,2,2:0:0:0:
182,192,69823,1,2,2:0:0:0:
256,192,69895,1,2,2:0:0:0:
329,192,69966,1,2,2:0:0:0:
256,192,70252,1,2,2:0:0:0:
329,192,70323,1,2,2:0:0:0:
402,192,70395,1,2,2:0:0:0:
475,192,70681,1,0,0:0:0:33:
109,192,70681,1,2,0:0:0:33:
109,192,70895,1,2,0:0:0:66:
475,192,71109,1,0,0:0:0:66:
109,192,71110,1,2,0:0:0:66:
182,192,71324,1,2,0:0:0:66:
256,192,71431,128,2,71966:0:0:0:66:
475,192,71538,1,0,0:0:0:66:
475,192,71966,1,0,0:0:0:66:
36,192,72181,1,2,0:0:0:66:
475,192,72395,1,0,0:0:0:33:
109,192,72395,1,2,0:0:0:33:
109,192,72610,1,2,0:0:0:66:
475,192,72824,1,0,0:0:0:33:
109,192,72824,1,2,0:0:0:33:
182,192,73038,1,2,0:0:0:66:
256,192,73145,128,2,73681:0:0:0:66:
475,192,73252,1,0,0:0:0:66:
475,192,73681,1,0,0:0:0:66:
36,192,73895,1,2,0:0:0:66:
475,192,74109,1,0,0:0:0:66:
109,192,74110,128,2,74539:0:0:0:66:
475,192,74538,1,0,0:0:0:33:
182,192,74538,1,6,0:0:0:33:
256,192,74753,128,2,75182:0:0:0:66:
475,192,74966,1,0,0:0:0:66:
182,192,75181,128,2,75609:0:0:0:66:
475,192,75395,1,0,0:0:0:66:
256,192,75610,1,2,0:0:0:66:
475,192,75824,1,0,0:0:0:33:
329,192,75824,1,2,0:0:0:33:
256,192,76038,1,2,0:0:0:66:
475,192,76252,1,0,0:0:0:66:
182,192,76253,1,2,0:0:0:66:
109,192,76467,128,2,77110:0:0:0:66:
475,192,76681,1,0,0:0:0:66:
475,192,77109,1,0,0:0:0:66:
36,192,77324,1,2,0:0:0:66:
475,192,77538,1,0,0:0:0:33:
109,192,77538,1,2,0:0:0:33:
109,192,77753,1,2,0:0:0:66:
475,192,77966,1,0,0:0:0:33:
109,192,77966,1,2,0:0:0:33:
182,192,78181,1,2,0:0:0:66:
109,192,78288,128,2,78824:0:0:0:66:
475,192,78395,1,0,0:0:0:66:
475,192,78824,1,0,0:0:0:66:
36,192,79038,1,2,0:0:0:66:
475,192,79252,1,0,0:0:0:66:
109,192,79253,1,2,0:0:0:66:
109,192,79467,1,2,0:0:0:66:
475,192,79681,1,0,0:0:0:33:
109,192,79681,1,2,0:0:0:33:
182,192,79895,1,2,0:0:0:66:
109,192,80003,128,2,80539:0:0:0:66:
475,192,80109,1,0,0:0:0:66:
475,192,80538,1,0,0:0:0:66:
109,192,80753,128,2,81182:0:0:0:66:
475,192,80966,1,0,0:0:0:66:
36,192,81181,1,2,0:0:0:66:
475,192,81395,1,0,0:0:0:33:
109,192,81395,1,2,0:0:0:33:
182,192,81610,128,2,82039:0:0:0:66:
475,192,81824,1,0,0:0:0:66:
109,192,82038,1,2,0:0:0:66:
475,192,82252,1,0,0:0:0:66:
182,192,82253,1,2,0:0:0:66:
256,192,82467,1,2,0:0:0:66:
475,192,82681,1,0,0:0:0:33:
329,192,82681,128,2,83109:0:0:0:33:
475,192,83109,1,0,0:0:0:66:
402,192,83110,128,2,83539:0:0:0:66:
475,192,83538,1,0,0:0:0:33:
329,192,83538,128,2,83966:0:0:0:33:
475,192,83966,1,0,0:0:0:66:
475,192,84395,1,0,0:0:0:33:
109,192,84395,1,2,0:0:0:33:
109,192,84609,1,2,0:0:0:66:
475,192,84824,1,0,0:0:0:33:
109,192,84824,1,2,0:0:0:33:
109,192,85038,1,2,0:0:0:66:
182,192,85145,128,2,85681:0:0:0:66:
475,192,85252,1,0,0:0:0:66:
475,192,85681,1,0,0:0:0:66:
36,192,85895,1,2,0:0:0:66:
475,192,86109,1,0,0:0:0:66:
109,192,86110,1,2,0:0:0:66:
109,192,86324,1,2,0:0:0:66:
475,192,86538,1,0,0:0:0:33:
109,192,86538,1,2,0:0:0:33:
109,192,86753,1,2,0:0:0:66:
182,192,86860,128,2,87396:0:0:0:66:
475,192,86966,1,0,0:0:0:66:
475,192,87395,1,0,0:0:0:66:
36,192,87610,1,2,0:0:0:66:
475,192,87824,1,0,0:0:0:33:
109,192,87824,128,2,88252:0:0:0:33:
475,192,88252,1,0,0:0:0:33:
182,192,88252,1,2,0:0:0:33:
256,192,88467,128,2,88896:0:0:0:66:
475,192,88681,1,0,0:0:0:66:
182,192,88895,128,2,89324:0:0:0:66:
475,192,89109,1,0,0:0:0:66:
256,192,89324,1,2,0:0:0:66:
475,192,89538,1,0,0:0:0:33:
329,192,89538,1,2,0:0:0:33:
256,192,89753,1,2,0:0:0:66:
475,192,89966,1,0,0:0:0:66:
182,192,89967,1,2,0:0:0:66:
109,192,90181,128,2,90824:0:0:0:66:
475,192,90395,1,0,0:0:0:66:
475,192,90824,1,0,0:0:0:33:
36,192,90824,1,2,0:0:0:33:
182,192,91038,1,2,0:0:0:66:
475,192,91252,1,0,0:0:0:66:
256,192,91253,128,2,91682:0:0:0:66:
475,192,91681,1,0,0:0:0:33:
182,192,91681,1,2,0:0:0:33:
109,192,91895,128,2,92324:0:0:0:66:
475,192,92109,1,0,0:0:0:66:
36,192,92324,128,2,92752:0:0:0:66:
475,192,92538,1,0,0:0:0:66:
182,192,92753,1,2,0:0:0:66:
475,192,92966,1,0,0:0:0:33:
109,192,92966,128,2,93823:0:0:0:33:
475,192,93395,1,0,0:0:0:66:
475,192,93824,1,0,0:0:0:66:
182,192,94038,1,2,0:0:0:66:
475,192,94252,1,0,0:0:0:66:
182,192,94253,1,2,0:0:0:66:
182,192,94467,1,2,0:0:0:66:
475,192,94681,1,0,0:0:0:33:
256,192,94681,1,2,0:0:0:33:
36,192,94895,1,0,0:0:0:33:
109,192,94895,1,2,0:0:0:33:
475,192,95002,1,0,0:0:0:66:
256,192,95003,1,2,0:0:0:66:
475,192,95538,1,0,0:0:0:33:
256,192,95538,1,2,0:0:0:33:
36,192,95752,1,0,0:0:0:33:
109,192,95752,1,2,0:0:0:33:
475,192,95859,1,0,0:0:0:66:
256,192,95860,1,2,0:0:0:66:
475,192,96181,1,0,0:0:0:33:
109,192,96181,1,2,0:0:0:33:
475,192,96395,1,0,0:0:0:33:
256,192,96395,1,2,0:0:0:33:
182,192,96610,1,2,0:0:0:66:
475,192,96824,1,0,0:0:0:33:
256,192,96824,1,2,0:0:0:33:
329,192,97038,1,2,0:0:0:66:
475,192,97252,1,0,0:0:0:66:
256,192,97253,128,2,98110:0:0:0:66:
475,192,97466,1,0,0:0:0:66:
475,192,97681,1,0,0:0:0:66:
36,192,97788,1,0,0:0:0:66:
475,192,97895,1,0,0:0:0:66:
36,192,98002,1,0,0:0:0:66:
475,192,98109,1,0,0:0:0:33:
402,192,98109,128,2,98698:0:0:0:33:
329,192,98699,128,2,98966:0:0:0:66:
256,192,98967,128,2,99289:0:0:0:66:
182,192,99288,128,2,99609:0:0:0:66:
36,192,99609,1,0,0:0:0:33:
109,192,99609,128,2,99823:0:0:0:33:
475,192,99824,1,0,0:0:0:33:
402,192,99824,128,2,100091:0:0:0:33:
329,192,100092,128,2,100414:0:0:0:66:
256,192,100413,128,2,100681:0:0:0:66:
182,192,100681,128,2,101324:0:0:0:66:
36,192,101324,1,0,0:0:0:66:
475,192,101538,1,0,0:0:0:33:
402,192,101538,128,2,102181:0:0:0:33:
36,192,102181,1,0,0:0:0:33:
329,192,102181,128,2,102395:0:0:0:33:
475,192,102395,1,0,0:0:0:33:
256,192,102395,128,2,102663:0:0:0:33:
182,192,102663,128,2,103038:0:0:0:66:
36,192,103038,1,0,0:0:0:33:
402,192,103038,1,2,0:0:0:33:
475,192,103252,1,0,0:0:0:33:
402,192,103252,128,2,103573:0:0:0:33:
475,192,103574,1,0,0:0:0:33:
329,192,103574,1,2,0:0:0:33:
475,192,103895,1,0,0:0:0:33:
329,192,103895,128,0,104966:0:0:0:33:
475,192,104109,1,0,0:0:0:66:
475,192,104324,1,0,0:0:0:66:
475,192,104538,1,0,0:0:0:66:
36,192,104645,1,0,0:0:0:66:
475,192,104752,1,0,0:0:0:66:
36,192,104859,1,0,0:0:0:66:
475,192,104966,1,0,0:0:0:33:
182,192,104966,1,0,0:0:0:33:
182,192,105180,1,0,0:0:0:33:
329,192,105180,1,0,0:0:0:33:
182,192,105395,1,0,0:0:0:33:
329,192,105395,1,0,0:0:0:33:
36,192,105609,1,0,0:0:0:0:
36,192,105823,1,0,0:0:0:66:
109,192,106037,1,0,0:0:0:0:
109,192,106252,1,0,0:0:0:66:
182,192,106466,1,0,0:0:0:0:
182,192,106680,1,0,0:0:0:66:
256,192,106895,5,0,0:0:0:0:
256,192,107109,1,0,0:0:0:66:
329,192,107323,1,0,0:0:0:0:
329,192,107537,1,0,0:0:0:66:
402,192,107752,1,0,0:0:0:0:
402,192,107966,1,0,0:0:0:66:
475,192,108180,1,0,0:0:0:0:
329,192,108395,1,0,0:0:0:22:
182,192,108395,1,0,0:0:0:22:
475,192,108395,1,0,0:0:0:22:
182,192,108609,1,0,0:0:0:33:
329,192,108609,1,0,0:0:0:33:
182,192,108824,1,0,0:0:0:33:
329,192,108824,1,0,0:0:0:33:
36,192,109038,1,0,0:0:0:0:
36,192,109252,1,0,0:0:0:66:
109,192,109466,1,0,0:0:0:0:
109,192,109681,1,0,0:0:0:66:
182,192,109895,1,0,0:0:0:0:
182,192,110109,1,0,0:0:0:66:
256,192,110324,5,0,0:0:0:0:
256,192,110538,1,0,0:0:0:66:
329,192,110752,1,0,0:0:0:0:
329,192,110966,1,0,0:0:0:66:
402,192,111181,1,0,0:0:0:0:
402,192,111395,1,0,0:0:0:66:
475,192,111609,1,0,0:0:0:0:
329,192,111823,1,0,0:0:0:33:
182,192,111823,1,0,0:0:0:33:
475,192,111824,1,0,0:0:0:66:
182,192,112037,1,0,0:0:0:33:
329,192,112037,1,0,0:0:0:33:
182,192,112252,1,0,0:0:0:33:
329,192,112252,1,0,0:0:0:33:
329,192,112466,1,0,0:0:0:0:
329,192,112681,1,0,0:0:0:66:
402,192,112895,1,0,0:0:0:0:
402,192,113109,1,0,0:0:0:66:
475,192,113323,1,0,0:0:0:0:
475,192,113538,1,0,0:0:0:66:
256,192,113752,5,0,0:0:0:0:
256,192,113966,1,0,0:0:0:66:
36,192,114181,1,0,0:0:0:0:
36,192,114395,1,0,0:0:0:66:
109,192,114609,1,0,0:0:0:0:
109,192,114823,1,0,0:0:0:66:
182,192,115038,1,0,0:0:0:0:
182,192,115252,1,0,0:0:0:33:
329,192,115252,1,0,0:0:0:33:
182,192,115466,1,0,0:0:0:33:
329,192,115466,1,0,0:0:0:33:
182,192,115681,1,0,0:0:0:33:
329,192,115681,1,0,0:0:0:33:
329,192,115895,1,0,0:0:0:0:
329,192,116109,1,0,0:0:0:66:
402,192,116323,1,0,0:0:0:0:
402,192,116538,1,0,0:0:0:66:
475,192,116752,1,0,0:0:0:0:
475,192,116966,1,0,0:0:0:66:
256,192,117181,5,0,0:0:0:0:
256,192,117395,1,0,0:0:0:66:
36,192,117609,5,0,0:0:0:0:
36,192,117823,1,0,0:0:0:66:
109,192,118038,1,0,0:0:0:0:
109,192,118252,1,0,0:0:0:66:
182,192,118466,1,0,0:0:0:0:
256,192,118681,5,2,0:0:0:33:
182,192,118681,1,0,0:0:0:33:
182,192,118788,1,2,0:0:0:66:
256,192,118895,1,2,0:0:0:66:
182,192,119003,1,2,0:0:0:66:
109,192,119110,1,2,0:0:0:66:
182,192,119324,1,2,0:0:0:66:
109,192,119431,1,2,0:0:0:66:
36,192,119753,128,2,120181:0:0:0:66:
109,192,120395,1,2,0:0:0:66:
36,192,120503,1,2,0:0:0:66:
109,192,120610,1,2,0:0:0:66:
36,192,120717,1,2,0:0:0:66:
109,192,120824,1,2,0:0:0:66:
182,192,121038,5,2,0:0:0:66:
256,192,121145,1,2,0:0:0:66:
36,192,121413,128,2,121681:0:0:0:66:
109,192,121895,1,2,0:0:0:66:
182,192,122003,1,2,0:0:0:66:
475,192,122109,5,0,0:0:0:66:
36,192,122109,1,4,3:0:0:0:
256,192,122110,128,2,122538:0:0:0:66:
475,192,122538,1,0,0:0:0:33:
182,192,122538,1,2,0:0:0:33:
36,192,122538,1,4,3:0:0:0:
256,192,122753,1,2,0:0:0:66:
475,192,122966,1,0,0:0:0:66:
36,192,122966,1,4,3:0:0:0:
329,192,123181,1,2,0:0:0:66:
475,192,123395,1,0,0:0:0:33:
402,192,123395,1,2,0:0:0:33:
36,192,123395,1,4,3:0:0:0:
475,192,123610,1,2,0:0:0:66:
182,192,123823,1,4,3:0:0:0:
475,192,123824,1,0,0:0:0:33:
402,192,123824,128,2,124253:0:0:0:33:
475,192,124252,1,2,0:0:0:66:
182,192,124252,1,4,3:0:0:0:
402,192,124467,1,2,0:0:0:66:
475,192,124681,1,0,0:0:0:66:
182,192,124681,1,4,3:0:0:0:
329,192,124895,128,2,125323:0:0:0:66:
475,192,125109,1,0,0:0:0:66:
182,192,125109,1,4,3:0:0:0:
475,192,125538,1,0,0:0:0:33:
256,192,125538,1,2,0:0:0:33:
402,192,125538,1,4,3:0:0:0:
182,192,125645,1,2,0:0:0:66:
256,192,125753,1,2,0:0:0:66:
182,192,125860,1,2,0:0:0:66:
475,192,125966,1,0,0:0:0:66:
402,192,125966,1,4,3:0:0:0:
109,192,125967,1,2,0:0:0:66:
182,192,126181,1,2,0:0:0:66:
109,192,126288,1,2,0:0:0:66:
475,192,126395,1,0,0:0:0:66:
402,192,126395,1,4,3:0:0:0:
36,192,126610,128,2,127038:0:0:0:66:
402,192,126823,1,4,3:0:0:0:
475,192,126824,1,0,0:0:0:66:
475,192,127252,1,0,0:0:0:66:
402,192,127252,1,4,3:0:0:0:
109,192,127253,1,2,0:0:0:66:
36,192,127360,1,2,0:0:0:66:
109,192,127467,1,2,0:0:0:66:
36,192,127574,1,2,0:0:0:66:
475,192,127681,1,0,0:0:0:33:
109,192,127681,1,2,0:0:0:33:
402,192,127681,1,4,3:0:0:0:
182,192,127895,1,2,0:0:0:66:
109,192,128003,1,2,0:0:0:66:
475,192,128109,1,0,0:0:0:66:
402,192,128109,1,4,3:0:0:0:
36,192,128324,128,2,128753:0:0:0:66:
475,192,128538,1,0,0:0:0:66:
402,192,128538,1,4,3:0:0:0:
109,192,128753,1,2,0:0:0:66:
182,192,128860,1,2,0:0:0:66:
475,192,128966,1,0,0:0:0:66:
36,192,128966,1,4,3:0:0:0:
256,192,128967,1,2,0:0:0:66:
256,192,129181,1,2,0:0:0:66:
475,192,129395,1,0,0:0:0:33:
329,192,129395,1,2,0:0:0:33:
36,192,129395,1,4,3:0:0:0:
402,192,129610,1,2,0:0:0:66:
36,192,129823,1,4,3:0:0:0:
475,192,129824,1,0,0:0:0:33:
329,192,129824,1,2,0:0:0:33:
256,192,130038,1,2,0:0:0:66:
475,192,130252,1,0,0:0:0:66:
36,192,130252,1,4,3:0:0:0:
182,192,130253,1,2,0:0:0:66:
256,192,130467,1,2,0:0:0:66:
475,192,130681,1,0,0:0:0:33:
182,192,130681,1,2,0:0:0:33:
402,192,130681,1,4,3:0:0:0:
182,192,130895,1,2,0:0:0:66:
109,192,131003,128,2,131538:0:0:0:66:
475,192,131109,1,0,0:0:0:66:
402,192,131109,1,4,3:0:0:0:
475,192,131538,1,0,0:0:0:66:
402,192,131538,1,4,3:0:0:0:
475,192,131966,1,0,0:0:0:66:
402,192,131966,1,4,3:0:0:0:
475,192,132395,1,0,0:0:0:66:
36,192,132395,1,2,2:0:0:0:
109,192,132467,1,2,2:0:0:0:
182,192,132538,1,2,2:0:0:0:
109,192,132824,1,2,2:0:0:0:
182,192,132895,1,2,2:0:0:0:
256,192,132967,1,2,2:0:0:0:
182,192,133252,1,2,2:0:0:0:
256,192,133324,1,2,2:0:0:0:
329,192,133395,1,2,2:0:0:0:
36,192,133681,1,2,0:0:0:66:
256,192,133681,1,2,2:0:0:0:
329,192,133752,1,2,2:0:0:0:
402,192,133824,1,2,2:0:0:0:
182,192,133895,1,2,0:0:0:66:
475,192,134109,1,0,0:0:0:33:
329,192,134109,128,2,134538:0:0:0:33:
36,192,134109,128,2,135823:1:0:0:0:
475,192,134538,1,0,0:0:0:66:
402,192,134753,1,2,0:0:0:66:
329,192,134860,128,2,135396:0:0:0:66:
475,192,134966,1,0,0:0:0:66:
475,192,135395,1,0,0:0:0:66:
329,192,135610,1,2,0:0:0:66:
256,192,135717,1,2,0:0:0:66:
182,192,135823,128,2,137537:1:0:0:0:
475,192,135824,1,0,0:0:0:33:
329,192,135824,1,2,0:0:0:33:
402,192,136038,1,2,0:0:0:66:
475,192,136252,1,0,0:0:0:66:
329,192,136253,1,2,0:0:0:66:
329,192,136467,128,2,137110:0:0:0:66:
475,192,136681,1,0,0:0:0:66:
475,192,137109,1,0,0:0:0:66:
109,192,137537,128,2,139252:1:0:0:0:
475,192,137538,1,0,0:0:0:33:
329,192,137538,128,2,137967:0:0:0:33:
475,192,137966,1,0,0:0:0:66:
256,192,137967,128,2,138396:0:0:0:66:
475,192,138395,1,0,0:0:0:33:
402,192,138395,128,2,138823:0:0:0:33:
475,192,138824,1,0,0:0:0:33:
329,192,138824,128,2,139038:0:0:0:33:
475,192,139252,1,0,0:0:0:33:
329,192,139252,128,2,139573:0:0:0:33:
256,192,139252,128,2,140966:1:0:0:0:
402,192,139574,128,2,139896:0:0:0:66:
475,192,139681,1,0,0:0:0:66:
329,192,139895,128,2,140537:0:0:0:66:
475,192,140109,1,0,0:0:0:66:
475,192,140538,1,0,0:0:0:66:
36,192,140753,1,2,0:0:0:66:
109,192,140860,1,2,0:0:0:66:
475,192,140966,1,0,0:0:0:66:
182,192,140967,1,2,0:0:0:66:
36,192,141181,1,0,0:0:0:33:
109,192,141181,1,2,0:0:0:33:
475,192,141288,1,0,0:0:0:33:
182,192,141288,1,2,0:0:0:33:
402,192,141823,128,2,142466:1:0:0:0:
475,192,142466,1,0,0:0:0:66:
109,192,142467,1,2,0:0:0:66:
182,192,142574,1,2,0:0:0:66:
475,192,142681,1,0,0:0:0:33:
256,192,142681,1,2,0:0:0:33:
36,192,142895,1,0,0:0:0:33:
182,192,142895,1,2,0:0:0:33:
475,192,143002,1,0,0:0:0:66:
256,192,143003,1,2,0:0:0:66:
402,192,143323,128,0,143752:1:0:0:0:
329,192,143752,128,2,144181:1:0:0:0:
36,192,144181,1,0,0:0:0:33:
182,192,144181,1,2,0:0:0:33:
256,192,144288,1,2,0:0:0:66:
475,192,144395,1,0,0:0:0:33:
329,192,144395,1,2,0:0:0:33:
109,192,144395,128,2,145038:1:0:0:0:
256,192,144610,1,2,0:0:0:66:
329,192,144717,1,2,0:0:0:66:
36,192,145038,1,0,0:0:0:33:
182,192,145038,1,2,0:0:0:33:
256,192,145145,1,2,0:0:0:66:
475,192,145252,1,0,0:0:0:66:
329,192,145253,1,2,0:0:0:66:
109,192,145253,128,2,145895:1:0:0:0:
256,192,145467,1,2,0:0:0:66:
329,192,145574,1,2,0:0:0:66:
36,192,145895,1,0,0:0:0:33:
256,192,145895,1,2,0:0:0:33:
475,192,146109,1,0,0:0:0:66:
329,192,146110,1,2,0:0:0:66:
182,192,146110,128,2,147824:1:0:0:0:
256,192,146324,1,2,0:0:0:66:
475,192,146538,1,0,0:0:0:33:
329,192,146538,1,2,0:0:0:33:
402,192,146753,1,2,0:0:0:66:
475,192,146966,1,0,0:0:0:33:
329,192,146966,128,2,147823:0:0:0:33:
475,192,147181,1,0,0:0:0:66:
475,192,147395,1,0,0:0:0:66:
36,192,147502,1,0,0:0:0:66:
475,192,147609,1,0,0:0:0:66:
36,192,147716,1,0,0:0:0:66:
36,192,147823,1,2,2:0:0:0:
475,192,147824,1,0,0:0:0:66:
109,192,147895,1,2,2:0:0:0:
182,192,147966,1,2,2:0:0:0:
109,192,148252,1,2,2:0:0:0:
182,192,148323,1,2,2:0:0:0:
256,192,148395,1,2,2:0:0:0:
182,192,148680,1,2,2:0:0:0:
256,192,148752,1,2,2:0:0:0:
329,192,148823,1,2,2:0:0:0:
256,192,149109,1,2,2:0:0:0:
329,192,149180,1,2,2:0:0:0:
402,192,149252,1,2,2:0:0:0:
36,192,149538,1,2,2:0:0:0:
109,192,149610,1,2,2:0:0:0:
182,192,149681,1,2,2:0:0:0:
109,192,149967,1,2,2:0:0:0:
182,192,150038,1,2,2:0:0:0:
256,192,150110,1,2,2:0:0:0:
182,192,150395,1,2,2:0:0:0:
256,192,150467,1,2,2:0:0:0:
329,192,150538,1,2,2:0:0:0:
256,192,150824,1,2,2:0:0:0:
329,192,150895,1,2,2:0:0:0:
402,192,150967,1,2,2:0:0:0:
475,192,151252,1,0,0:0:0:33:
109,192,151252,1,2,0:0:0:33:
36,192,151466,1,2,0:0:0:66:
475,192,151681,1,0,0:0:0:33:
109,192,151681,1,2,0:0:0:33:
182,192,151895,1,2,0:0:0:66:
256,192,152003,128,2,152538:0:0:0:66:
475,192,152109,1,0,0:0:0:66:
475,192,152538,1,0,0:0:0:66:
36,192,152752,1,2,0:0:0:66:
475,192,152966,1,0,0:0:0:66:
109,192,152967,1,2,0:0:0:66:
109,192,153181,1,2,0:0:0:66:
475,192,153395,1,0,0:0:0:33:
109,192,153395,1,2,0:0:0:33:
182,192,153609,1,2,0:0:0:66:
256,192,153717,128,2,154253:0:0:0:66:
475,192,153824,1,0,0:0:0:66:
475,192,154252,1,0,0:0:0:66:
36,192,154467,1,2,0:0:0:66:
475,192,154681,1,0,0:0:0:33:
109,192,154681,128,2,155109:0:0:0:33:
475,192,155109,1,0,0:0:0:33:
182,192,155109,1,2,0:0:0:33:
256,192,155324,128,2,155753:0:0:0:66:
475,192,155538,1,0,0:0:0:66:
182,192,155753,128,2,156181:0:0:0:66:
475,192,155966,1,0,0:0:0:66:
256,192,156181,1,2,0:0:0:66:
475,192,156395,1,0,0:0:0:33:
329,192,156395,1,2,0:0:0:33:
256,192,156610,1,2,0:0:0:66:
475,192,156824,1,0,0:0:0:33:
182,192,156824,1,2,0:0:0:33:
109,192,157038,128,2,157681:0:0:0:66:
475,192,157252,1,0,0:0:0:66:
475,192,157681,1,0,0:0:0:66:
36,192,157895,1,2,0:0:0:66:
475,192,158109,1,0,0:0:0:66:
109,192,158110,1,2,0:0:0:66:
109,192,158324,1,2,0:0:0:66:
475,192,158538,1,0,0:0:0:33:
109,192,158538,1,2,0:0:0:33:
182,192,158753,1,2,0:0:0:66:
109,192,158860,128,2,159396:0:0:0:66:
475,192,158966,1,0,0:0:0:66:
475,192,159395,1,0,0:0:0:66:
36,192,159610,1,2,0:0:0:66:
475,192,159824,1,0,0:0:0:33:
109,192,159824,1,2,0:0:0:33:
109,192,160038,1,2,0:0:0:66:
475,192,160252,1,0,0:0:0:66:
109,192,160253,1,2,0:0:0:66:
182,192,160467,1,2,0:0:0:66:
109,192,160574,128,2,161110:0:0:0:66:
475,192,160681,1,0,0:0:0:66:
475,192,161109,1,0,0:0:0:66:
109,192,161324,1,2,0:0:0:66:
475,192,161538,1,0,0:0:0:33:
36,192,161538,1,2,0:0:0:33:
36,192,161753,1,2,0:0:0:66:
475,192,161966,1,0,0:0:0:66:
109,192,161967,1,2,0:0:0:66:
182,192,162181,128,2,162610:0:0:0:66:
475,192,162395,1,0,0:0:0:66:
109,192,162610,1,2,0:0:0:66:
475,192,162824,1,0,0:0:0:33:
182,192,162824,1,2,0:0:0:33:
256,192,163038,1,2,0:0:0:66:
475,192,163252,1,0,0:0:0:66:
329,192,163253,128,2,163681:0:0:0:66:
475,192,163681,1,0,0:0:0:33:
402,192,163681,128,2,164110:0:0:0:33:
475,192,164109,1,0,0:0:0:66:
329,192,164110,128,2,164538:0:0:0:66:
475,192,164538,1,0,0:0:0:66:
475,192,164966,1,0,0:0:0:66:
109,192,164967,1,2,0:0:0:66:
109,192,165181,1,2,0:0:0:66:
475,192,165395,1,0,0:0:0:33:
109,192,165395,1,2,0:0:0:33:
109,192,165610,1,2,0:0:0:66:
182,192,165717,128,2,166253:0:0:0:66:
475,192,165824,1,0,0:0:0:66:
475,192,166252,1,0,0:0:0:66:
36,192,166467,1,2,0:0:0:66:
475,192,166681,1,0,0:0:0:33:
109,192,166681,1,2,0:0:0:33:
109,192,166895,1,2,0:0:0:66:
475,192,167109,1,0,0:0:0:66:
109,192,167110,1,2,0:0:0:66:
109,192,167324,1,2,0:0:0:66:
182,192,167431,128,2,167967:0:0:0:66:
475,192,167538,1,0,0:0:0:66:
475,192,167966,1,0,0:0:0:66:
36,192,168181,1,2,0:0:0:66:
475,192,168395,1,0,0:0:0:33:
109,192,168395,128,2,168823:0:0:0:33:
475,192,168824,1,0,0:0:0:33:
182,192,168824,1,2,0:0:0:33:
256,192,169038,128,2,169467:0:0:0:66:
475,192,169252,1,0,0:0:0:66:
182,192,169467,128,2,169896:0:0:0:66:
475,192,169681,1,0,0:0:0:66:
256,192,169895,1,2,0:0:0:66:
475,192,170109,1,0,0:0:0:33:
329,192,170109,1,2,0:0:0:33:
256,192,170324,1,2,0:0:0:66:
475,192,170538,1,0,0:0:0:33:
182,192,170538,1,2,0:0:0:33:
109,192,170753,128,2,171396:0:0:0:66:
475,192,170966,1,0,0:0:0:66:
475,192,171395,1,0,0:0:0:33:
36,192,171395,1,2,0:0:0:33:
182,192,171610,1,2,0:0:0:66:
475,192,171824,1,0,0:0:0:33:
256,192,171824,128,2,172253:0:0:0:33:
475,192,172252,1,0,0:0:0:66:
182,192,172253,1,2,0:0:0:66:
109,192,172467,128,2,172896:0:0:0:66:
475,192,172681,1,0,0:0:0:66:
36,192,172895,128,2,173323:0:0:0:66:
475,192,173109,1,0,0:0:0:66:
182,192,173324,1,2,0:0:0:66:
475,192,173538,1,0,0:0:0:33:
109,192,173538,128,2,174396:0:0:0:33:
475,192,173966,1,0,0:0:0:66:
475,192,174395,1,0,0:0:0:66:
182,192,174610,1,2,0:0:0:66:
475,192,174824,1,0,0:0:0:33:
182,192,174824,1,2,0:0:0:33:
182,192,175038,1,2,0:0:0:66:
475,192,175252,1,0,0:0:0:33:
256,192,175252,1,2,0:0:0:33:
36,192,175466,1,0,0:0:0:33:
109,192,175466,1,2,0:0:0:33:
256,192,175573,1,2,0:0:0:66:
475,192,175574,1,0,0:0:0:66:
475,192,176109,1,0,0:0:0:33:
256,192,176109,1,2,0:0:0:33:
109,192,176324,1,2,0:0:0:33:
36,192,176324,1,0,0:0:0:33:
475,192,176431,1,0,0:0:0:33:
256,192,176431,1,2,0:0:0:33:
475,192,176752,1,0,0:0:0:66:
182,192,176753,1,2,0:0:0:66:
475,192,176966,1,0,0:0:0:66:
256,192,176967,1,2,0:0:0:66:
182,192,177181,1,2,0:0:0:66:
475,192,177395,1,0,0:0:0:33:
256,192,177395,1,2,0:0:0:33:
329,192,177610,1,2,0:0:0:66:
256,192,177823,128,2,178681:0:0:0:66:
475,192,177824,1,0,0:0:0:66:
475,192,178038,1,0,0:0:0:66:
475,192,178252,1,0,0:0:0:66:
36,192,178359,1,0,0:0:0:66:
475,192,178466,1,0,0:0:0:66:
36,192,178574,1,0,0:0:0:66:
475,192,178681,1,0,0:0:0:33:
402,192,178681,128,2,179270:0:0:0:33:
329,192,179270,128,2,179537:0:0:0:66:
256,192,179538,128,2,179860:0:0:0:66:
182,192,179860,128,2,180181:0:0:0:66:
36,192,180181,1,0,0:0:0:33:
109,192,180181,128,2,180396:0:0:0:33:
475,192,180395,1,0,0:0:0:33:
402,192,180395,128,2,180662:0:0:0:33:
329,192,180663,128,2,180985:0:0:0:66:
256,192,180985,128,2,181253:0:0:0:66:
182,192,181253,128,2,181896:0:0:0:66:
36,192,181895,1,0,0:0:0:66:
475,192,182109,1,0,0:0:0:66:
402,192,182110,128,2,182753:0:0:0:66:
329,192,182753,128,2,182967:0:0:0:66:
475,192,182966,1,0,0:0:0:66:
256,192,182967,128,2,183235:0:0:0:66:
182,192,183235,128,2,183610:0:0:0:66:
36,192,183609,1,0,0:0:0:66:
402,192,183610,1,2,0:0:0:66:
475,192,183824,1,0,0:0:0:33:
402,192,183824,128,0,184146:0:0:0:33:
475,192,184145,1,0,0:0:0:33:
329,192,184145,1,2,0:0:0:33:
475,192,184466,1,0,0:0:0:33:
329,192,184466,128,2,185538:0:0:0:33:
475,192,184681,1,0,0:0:0:66:
475,192,184895,1,0,0:0:0:66:
475,192,185109,1,0,0:0:0:66:
36,192,185216,1,0,0:0:0:66:
475,192,185324,1,0,0:0:0:66:
36,192,185431,1,0,0:0:0:66:
475,192,185538,1,0,0:0:0:66:
36,192,185538,1,2,0:0:0:0:
109,192,185645,1,2,0:0:0:0:
182,192,185752,1,2,0:0:0:0:
109,192,185859,1,2,0:0:0:0:
182,192,185966,1,2,0:0:0:0:
256,192,186073,1,2,0:0:0:0:
182,192,186181,1,2,0:0:0:0:
256,192,186288,1,2,0:0:0:0:
329,192,186395,128,2,188966:0:0:0:0:
256,192,187252,1,2,2:0:0:66:
109,192,187895,5,2,2:0:0:66:
182,192,188538,1,2,2:0:0:66:
36,192,188966,1,2,2:0:0:66:
475,192,188966,1,2,0:0:0:0:
329,192,189181,1,2,0:0:0:0:
475,192,189395,1,2,0:0:0:0:
329,192,189609,1,2,0:0:0:0:
475,192,189823,1,2,0:0:0:0:
329,192,190038,1,2,0:0:0:0:
475,192,190252,1,2,0:0:0:0:
329,192,190466,1,2,0:0:0:0:
329,192,190681,1,2,0:0:0:0:
182,192,190895,1,2,0:0:0:0:
329,192,191109,1,2,0:0:0:0:
182,192,191323,5,2,0:0:0:0:
329,192,191538,1,2,0:0:0:0:
182,192,191752,1,2,0:0:0:0:
329,192,191966,1,2,0:0:0:0:
182,192,192181,1,2,0:0:0:0:
475,192,192395,128,2,195395:0:0:0:66:
36,192,192395,1,2,0:0:0:0:
109,192,192502,1,2,0:0:0:0:
182,192,192609,1,2,0:0:0:0:
109,192,192716,1,2,0:0:0:0:
182,192,192823,1,2,0:0:0:0:
256,192,192931,1,2,0:0:0:0:
182,192,193038,1,2,0:0:0:0:
256,192,193145,1,2,0:0:0:0:
329,192,193252,128,2,195824:0:0:0:0:
256,192,194109,5,2,2:0:0:66:
109,192,194752,1,2,2:0:0:66:
182,192,195395,1,2,2:0:0:33:
402,192,195395,1,2,0:0:0:33:
256,192,195610,1,2,0:0:0:66:
36,192,195823,1,2,2:0:0:66:
475,192,195823,1,2,0:0:0:0:
182,192,195824,128,2,197538:0:0:0:66:
329,192,196038,1,2,0:0:0:0:
475,192,196252,1,2,0:0:0:0:
329,192,196466,1,2,0:0:0:0:
402,192,196681,1,2,0:0:0:0:
256,192,196895,1,2,0:0:0:0:
402,192,197109,1,2,0:0:0:0:
256,192,197323,1,2,0:0:0:0:
36,192,197538,1,2,0:0:0:66:
109,192,197645,1,2,0:0:0:66:
182,192,197752,1,2,0:0:0:66:
256,192,197860,1,2,0:0:0:66:
109,192,197966,1,2,0:0:0:66:
182,192,198074,5,2,0:0:0:66:
256,192,198181,1,2,0:0:0:66:
329,192,198288,1,2,0:0:0:66:
182,192,198395,1,2,0:0:0:66:
256,192,198503,1,2,0:0:0:66:
329,192,198609,1,2,0:0:0:66:
402,192,198717,1,2,0:0:0:66:
256,192,198824,1,2,0:0:0:66:
329,192,198931,1,2,0:0:0:66:
402,192,199038,1,2,0:0:0:66:
475,192,199145,1,2,0:0:0:66:
475,192,199252,5,0,0:0:0:33:
109,192,199252,1,2,0:0:0:33:
182,192,199467,1,2,0:0:0:66:
475,192,199681,1,0,0:0:0:33:
256,192,199681,1,2,0:0:0:33:
329,192,199895,1,2,0:0:0:66:
475,192,200109,1,0,0:0:0:66:
402,192,200110,1,2,0:0:0:66:
329,192,200324,1,2,0:0:0:66:
475,192,200538,1,0,0:0:0:33:
256,192,200538,1,2,0:0:0:33:
182,192,200753,1,2,0:0:0:66:
475,192,200966,1,0,0:0:0:66:
36,192,200967,1,2,0:0:0:66:
109,192,201181,1,2,0:0:0:66:
475,192,201395,1,0,0:0:0:33:
182,192,201395,1,2,0:0:0:33:
256,192,201610,1,2,0:0:0:66:
475,192,201824,1,0,0:0:0:33:
109,192,201824,1,2,0:0:0:33:
182,192,202038,1,2,0:0:0:66:
475,192,202252,1,0,0:0:0:66:
256,192,202253,1,2,0:0:0:66:
329,192,202467,1,2,0:0:0:66:
475,192,202681,1,0,0:0:0:33:
402,192,202681,128,2,203752:0:0:0:33:
475,192,203109,1,0,0:0:0:66:
475,192,203538,1,0,0:0:0:66:
329,192,203752,1,2,0:0:0:66:
256,192,203860,1,2,0:0:0:66:
475,192,203966,1,0,0:0:0:33:
182,192,203966,1,2,0:0:0:33:
256,192,204074,1,2,0:0:0:66:
182,192,204181,1,2,0:0:0:66:
109,192,204288,1,2,0:0:0:66:
475,192,204395,1,0,0:0:0:33:
36,192,204395,1,2,0:0:0:33:
109,192,204609,1,2,0:0:0:66:
475,192,204824,1,0,0:0:0:33:
36,192,204824,1,2,0:0:0:33:
109,192,205038,1,2,0:0:0:66:
475,192,205252,1,0,0:0:0:33:
36,192,205252,1,2,0:0:0:33:
109,192,205466,1,2,0:0:0:66:
475,192,205681,1,0,0:0:0:33:
36,192,205681,1,2,0:0:0:33:
109,192,205895,1,2,0:0:0:66:
475,192,206109,1,0,0:0:0:33:
109,192,206109,1,2,0:0:0:33:
182,192,206324,1,2,0:0:0:66:
475,192,206538,1,0,0:0:0:33:
256,192,206538,1,2,0:0:0:33:
329,192,206753,1,2,0:0:0:66:
475,192,206966,1,0,0:0:0:66:
402,192,206967,1,2,0:0:0:66:
329,192,207181,1,2,0:0:0:66:
475,192,207395,1,0,0:0:0:33:
256,192,207395,1,2,0:0:0:33:
182,192,207610,1,2,0:0:0:66:
475,192,207824,1,0,0:0:0:33:
109,192,207824,1,2,0:0:0:33:
329,192,208038,1,2,0:0:0:66:
475,192,208252,1,0,0:0:0:66:
256,192,208253,1,2,0:0:0:66:
182,192,208467,1,2,0:0:0:66:
475,192,208681,1,0,0:0:0:33:
256,192,208681,1,2,0:0:0:33:
109,192,208895,1,2,0:0:0:66:
475,192,209109,1,0,0:0:0:66:
182,192,209110,1,2,0:0:0:66:
36,192,209324,1,2,0:0:0:66:
475,192,209538,1,0,0:0:0:33:
402,192,209538,128,2,210181:0:0:0:33:
475,192,210181,1,0,0:0:0:33:
329,192,210181,1,2,0:0:0:33:
256,192,210288,1,2,0:0:0:66:
182,192,210395,128,2,211038:0:0:0:66:
475,192,210609,1,0,0:0:0:66:
475,192,211038,1,0,0:0:0:66:
329,192,211038,128,2,211466:0:0:0:66:
36,192,211467,1,2,0:0:0:66:
475,192,211681,1,0,0:0:0:33:
109,192,211681,1,2,0:0:0:33:
182,192,211895,1,2,0:0:0:66:
475,192,212109,1,0,0:0:0:66:
109,192,212110,1,2,0:0:0:66:
182,192,212217,1,2,0:0:0:66:
475,192,212324,1,0,0:0:0:33:
256,192,212324,1,2,0:0:0:33:
329,192,212431,1,2,0:0:0:66:
475,192,212538,1,0,0:0:0:33:
182,192,212538,1,2,0:0:0:33:
36,192,212645,1,0,0:0:0:66:
256,192,212645,1,2,0:0:0:33:
475,192,212752,1,0,0:0:0:66:
329,192,212753,1,2,0:0:0:66:
36,192,212859,1,0,0:0:0:66:
402,192,212860,1,2,0:0:0:33:
475,192,212966,1,0,0:0:0:66:
109,192,212967,1,2,0:0:0:66:
109,192,213181,1,2,0:0:0:66:
109,192,213395,1,2,0:0:0:66:
182,192,213610,1,2,0:0:0:66:
256,192,213717,128,2,214252:0:0:0:66:
36,192,214466,1,2,0:0:0:66:
475,192,214681,1,0,0:0:0:33:
109,192,214681,1,2,0:0:0:33:
109,192,214895,1,2,0:0:0:66:
109,192,215110,1,2,0:0:0:66:
182,192,215324,1,2,0:0:0:66:
256,192,215431,128,2,215967:0:0:0:66:
36,192,216181,1,2,0:0:0:66:
475,192,216395,1,0,0:0:0:33:
109,192,216395,128,2,216824:0:0:0:33:
182,192,216824,1,2,0:0:0:66:
256,192,217038,128,2,217467:0:0:0:66:
182,192,217467,128,2,217895:0:0:0:66:
36,192,217895,1,2,0:0:0:66:
475,192,218109,1,0,0:0:0:33:
329,192,218109,1,2,0:0:0:33:
256,192,218324,1,2,0:0:0:66:
475,192,218538,1,0,0:0:0:33:
182,192,218538,1,2,0:0:0:33:
109,192,218753,128,2,219396:0:0:0:66:
475,192,218966,1,0,0:0:0:66:
475,192,219181,1,0,0:0:0:66:
475,192,219395,1,0,0:0:0:66:
36,192,219502,1,0,0:0:0:66:
475,192,219609,1,0,0:0:0:66:
36,192,219610,1,2,0:0:0:66:
36,192,219716,1,0,0:0:0:66:
475,192,219824,1,0,0:0:0:33:
109,192,219824,1,2,0:0:0:33:
109,192,220038,1,2,0:0:0:66:
475,192,220252,1,0,0:0:0:66:
109,192,220253,1,2,0:0:0:66:
182,192,220467,1,2,0:0:0:66:
109,192,220574,128,2,221110:0:0:0:66:
475,192,220681,1,0,0:0:0:66:
475,192,221109,1,0,0:0:0:66:
36,192,221324,1,2,0:0:0:66:
475,192,221538,1,0,0:0:0:33:
109,192,221538,1,2,0:0:0:33:
109,192,221753,1,2,0:0:0:66:
475,192,221966,1,0,0:0:0:66:
109,192,221967,1,2,0:0:0:66:
182,192,222181,1,2,0:0:0:66:
109,192,222288,128,2,222824:0:0:0:66:
475,192,222395,1,0,0:0:0:66:
475,192,222824,1,0,0:0:0:66:
109,192,223038,1,2,0:0:0:66:
475,192,223252,1,0,0:0:0:66:
36,192,223253,1,2,0:0:0:66:
36,192,223467,1,2,0:0:0:66:
475,192,223681,1,0,0:0:0:33:
109,192,223681,1,2,0:0:0:33:
182,192,223895,128,2,224324:0:0:0:66:
475,192,224109,1,0,0:0:0:66:
109,192,224324,1,2,0:0:0:66:
475,192,224538,1,0,0:0:0:33:
182,192,224538,1,2,0:0:0:33:
256,192,224753,1,2,0:0:0:66:
475,192,224966,1,0,0:0:0:66:
329,192,224967,128,2,225395:0:0:0:66:
475,192,225395,1,0,0:0:0:33:
402,192,225395,128,2,225824:0:0:0:33:
475,192,225824,1,0,0:0:0:33:
329,192,225824,128,2,226252:0:0:0:33:
475,192,226252,1,0,0:0:0:66:
475,192,226681,1,0,0:0:0:33:
109,192,226681,1,2,0:0:0:33:
475,192,226895,1,0,0:0:0:33:
109,192,226895,1,2,0:0:0:33:
475,192,227109,1,0,0:0:0:66:
109,192,227110,1,2,0:0:0:66:
36,192,227324,1,0,0:0:0:33:
109,192,227324,1,2,0:0:0:33:
475,192,227431,1,0,0:0:0:33:
182,192,227431,128,2,227966:0:0:0:33:
475,192,227752,1,0,0:0:0:66:
36,192,228181,1,2,0:0:0:66:
475,192,228395,1,0,0:0:0:33:
109,192,228395,1,2,0:0:0:33:
475,192,228609,1,0,0:0:0:66:
109,192,228610,1,2,0:0:0:66:
475,192,228824,1,0,0:0:0:33:
109,192,228824,1,2,0:0:0:33:
109,192,229038,1,2,0:0:0:33:
36,192,229038,1,0,0:0:0:33:
182,192,229145,128,2,229681:0:0:0:33:
475,192,229145,1,0,0:0:0:33:
475,192,229466,1,0,0:0:0:66:
36,192,229895,1,2,0:0:0:66:
475,192,230109,1,0,0:0:0:33:
109,192,230109,128,2,230538:0:0:0:33:
475,192,230538,1,0,0:0:0:33:
182,192,230538,1,2,0:0:0:33:
256,192,230753,128,2,231182:0:0:0:66:
475,192,230966,1,0,0:0:0:66:
182,192,231181,128,2,231610:0:0:0:66:
475,192,231395,1,0,0:0:0:66:
256,192,231610,1,2,0:0:0:66:
475,192,231824,1,0,0:0:0:33:
329,192,231824,1,2,0:0:0:33:
256,192,232038,1,2,0:0:0:66:
475,192,232252,1,0,0:0:0:66:
182,192,232253,1,2,0:0:0:66:
109,192,232467,128,2,233110:0:0:0:66:
475,192,232681,1,0,0:0:0:66:
475,192,233109,1,0,0:0:0:66:
36,192,233110,1,2,0:0:0:66:
182,192,233324,1,2,0:0:0:66:
475,192,233538,1,0,0:0:0:33:
256,192,233538,128,2,233967:0:0:0:33:
475,192,233966,1,0,0:0:0:66:
182,192,233967,1,2,0:0:0:66:
109,192,234181,128,2,234610:0:0:0:66:
475,192,234395,1,0,0:0:0:66:
36,192,234610,128,2,235038:0:0:0:66:
475,192,234824,1,0,0:0:0:66:
182,192,235038,1,2,0:0:0:66:
475,192,235252,1,0,0:0:0:33:
109,192,235252,128,2,236109:0:0:0:33:
475,192,235681,1,0,0:0:0:66:
475,192,236109,1,0,0:0:0:66:
182,192,236324,1,2,0:0:0:66:
475,192,236538,1,0,0:0:0:33:
182,192,236538,1,2,0:0:0:33:
182,192,236753,1,2,0:0:0:66:
475,192,236966,1,0,0:0:0:33:
256,192,236966,1,2,0:0:0:33:
36,192,237181,1,0,0:0:0:33:
109,192,237181,1,2,0:0:0:33:
475,192,237288,1,0,0:0:0:33:
256,192,237288,1,2,0:0:0:33:
475,192,237824,1,0,0:0:0:33:
256,192,237824,1,2,0:0:0:33:
36,192,238038,1,0,0:0:0:33:
109,192,238038,1,2,0:0:0:33:
475,192,238145,1,0,0:0:0:33:
256,192,238145,1,2,0:0:0:33:
475,192,238466,1,0,0:0:0:66:
182,192,238467,1,2,0:0:0:66:
475,192,238681,1,0,0:0:0:33:
256,192,238681,1,2,0:0:0:33:
182,192,238895,1,2,0:0:0:66:
475,192,239109,1,0,0:0:0:66:
256,192,239110,1,2,0:0:0:66:
329,192,239324,1,2,0:0:0:66:
475,192,239538,1,0,0:0:0:33:
256,192,239538,128,2,240395:0:0:0:33:
475,192,239752,1,0,0:0:0:66:
475,192,239966,1,0,0:0:0:66:
36,192,240074,1,0,0:0:0:66:
475,192,240181,1,0,0:0:0:66:
36,192,240288,1,0,0:0:0:66:
475,192,240395,1,0,0:0:0:33:
402,192,240395,128,2,240985:0:0:0:33:
329,192,240985,128,2,241252:0:0:0:66:
256,192,241252,128,2,241573:0:0:0:66:
182,192,241574,128,2,241895:0:0:0:66:
36,192,241895,1,0,0:0:0:33:
109,192,241895,128,2,242110:0:0:0:33:
475,192,242109,1,0,0:0:0:66:
402,192,242110,128,2,242377:0:0:0:66:
329,192,242377,128,2,242698:0:0:0:66:
256,192,242699,128,2,242967:0:0:0:66:
182,192,242967,128,2,243610:0:0:0:66:
36,192,243609,1,0,0:0:0:66:
475,192,243824,1,0,0:0:0:33:
402,192,243824,128,2,244467:0:0:0:33:
36,192,244466,1,0,0:0:0:66:
329,192,244467,128,2,244681:0:0:0:66:
475,192,244681,1,0,0:0:0:33:
256,192,244681,128,2,244949:0:0:0:33:
182,192,244949,128,2,245324:0:0:0:66:
36,192,245324,1,0,0:0:0:33:
402,192,245324,1,2,0:0:0:33:
475,192,245538,1,0,0:0:0:33:
402,192,245538,128,2,245859:0:0:0:33:
475,192,245859,1,0,0:0:0:33:
329,192,245859,1,2,0:0:0:33:
475,192,246181,1,0,0:0:0:33:
329,192,246181,128,2,247252:0:0:0:33:
475,192,246395,1,0,0:0:0:66:
475,192,246609,1,0,0:0:0:66:
475,192,246824,1,0,0:0:0:66:
36,192,246931,1,0,0:0:0:66:
475,192,247038,1,0,0:0:0:66:
36,192,247145,1,0,0:0:0:66:
475,192,247252,1,0,0:0:0:0:
