osu file format v6

[General]
AudioFilename: DRIFTING AWAY (LANGE feat. SKYE).mp3
AudioLeadIn: 0
PreviewTime: 60666
Countdown: 1
SampleSet: Soft
StackLeniency: 0.7
Mode: 0
LetterboxInBreaks: 1

[Editor]
DistanceSpacing: 1
BeatDivisor: 2
GridSize: 8

[Metadata]
Title:Drifting Away
Artist:Lange feat. Skye
Creator:nazenaze
Version:Normal
Source:
Tags:DDR

[Difficulty]
HPDrainRate:5
CircleSize:4
OverallDifficulty:5
SliderMultiplier:1.4
SliderTickRate:2

[Events]
//Background and Video events
0,0,"99201.jpg"
//Break Periods
2,19602,21291
//Storyboard Layer 0 (Background)
//Storyboard Layer 1 (Fail)
//Storyboard Layer 2 (Pass)
//Storyboard Layer 3 (Foreground)
//Storyboard Sound Samples
//Background Colour Transformations
3,100,163,162,255

[TimingPoints]
7050,441.176470588235,4,2,0,100,1,0
37050,-200,4,2,0,100,0,0
51167,-100,4,2,0,100,0,0
63520,-100,4,2,0,0,0,0
63741,-100,4,2,0,30,0,0
63961,-100,4,2,0,45,0,0
64182,-100,4,2,0,60,0,0
64402,-100,4,2,0,80,0,0
64623,-100,4,2,0,100,0,0
64844,-100,4,2,0,100,0,0
65285,-100,4,2,0,100,0,1
86461,-100,4,2,0,100,0,0
86792,-100,4,2,0,60,0,0
87013,-100,4,2,0,100,0,0
87674,-100,4,2,0,80,0,0
87895,-100,4,2,0,100,0,0

[Colours]
Combo1 : 255,189,51
Combo2 : 55,150,255
Combo3 : 137,242,102
Combo4 : 216,91,225

[HitObjects]
72,80,8814,1,0
208,80,9255,2,0,B|269:10|344:97,1,140,0|8
392,208,10138,2,0,B|430:298|320:322,1,140,0|2
200,288,11020,1,0
198,147,11461,1,8
64,184,11902,2,0,B|56:288|167:323,1,140,0|2
239,226,12785,6,0,B|321:278|394:198,2,140,0|8|0
291,96,14108,2,0,B|344:29|426:87,1,140,0|2
415,220,14991,2,0,B|432:325|330:341,1,140,0|8
221,308,15873,1,0
203,172,16314,6,0,B|264:104|187:42,2,140,8|0|8
62,172,17638,2,0,B|7:241|85:319,1,140,0|8
186,225,18520,2,0,B|262:158|162:84,2,140,2|8|2
124,52,22491,5,0
263,52,22932,1,2
404,52,23373,2,0,B|451:126|394:201,1,140,8|0
306,283,24255,1,0
165,283,24697,1,2
240,160,25138,1,8
152,48,25579,2,8,B|40:48|56:192,1,140,0|8
112,256,26461,1,0
230,292,26902,5,8
230,292,27123,2,0,B|304:334|368:285,1,140,0|0
411,239,27785,1,8
411,239,28005,2,0,B|411:74,1,140
340,99,28667,2,0,B|244:99|253:102,1,70,8|0
270,170,29108,2,0,B|198:222,1,70
163,161,29549,2,0,B|84:214|158:314,1,140,8|0
279,283,30432,5,8
328,233,30652,2,0,B|401:166|314:89,1,140
265,110,31314,1,8
194,110,31535,2,0,B|107:119|123:235,1,140
71,259,32197,1,8
130,298,32417,2,0,B|229:265|198:169,2,140,2|0|2
85,165,33741,5,0
184,66,34182,1,2
283,165,34623,1,0
184,264,35064,1,2
283,363,35505,1,0
383,264,35947,1,2
432,214,36167,1,0
382,165,36388,2,0,B|301:166,3,70,8|0|8|0
185,67,37932,6,0,B|84:97|105:199,1,140,2|0
200,264,39255,1,0
340,264,39697,2,0,B|456:268|439:162,1,140,2|0
342,94,41020,2,0,B|278:155,3,70,0|2|0|2
142,291,43226,5,0
68,216,43667,1,2
142,142,44108,1,8
352,142,44991,1,0
426,216,45432,1,2
352,291,45873,1,8
256,104,46755,2,0,B|256:199,3,70,0|2|0|2
256,274,48520,1,4
256,192,48961,12,0,51167
111,241,51608,5,0
113,102,52049,2,0,B|185:41|262:133,2,140,2|8|2
113,243,53373,1,8
212,342,53814,1,2
310,243,54255,2,0,B|378:159|446:273,1,140,8|2
326,144,55138,5,8
227,45,55579,1,2
128,144,56020,2,0,B|49:215|147:276,1,140,8|2
259,219,56902,2,0,B|260:74,2,140,8|2|8
393,261,58226,2,0,B|466:195|380:116,1,140,2|2
261,138,59108,5,8
162,237,59549,1,8
63,138,59991,2,0,B|172:28,1,140
260,137,60873,1,8
359,38,61314,2,0,B|453:151,1,140,8|2
336,232,62197,1,2
232,328,62638,1,8
128,232,63079,1,8
200,112,63520,6,2,B|200:65,12,35,2|2|2|2|2|2|2|2|2|2|2|2|4
335,90,65285,5,2
236,189,65726,1,8
335,288,66167,2,0,B|421:289|421:189,2,140,2|0|2
195,288,67491,1,8
294,189,67932,2,0,B|222:117|149:212,2,140,2|0|2
294,329,69255,5,8
393,230,69697,2,0,B|496:231,2,70,2|0|0
294,131,70579,1,2
195,230,71020,1,8
160,94,71461,2,0,B|223:156,3,70,0|0|0|0
403,60,72785,5,8
403,340,73667,1,2
123,340,74549,1,8
123,59,75432,1,2
222,158,75873,2,0,B|341:273,2,140,8|2|0
321,59,77197,1,8
222,158,77638,2,0,B|104:272,2,140,8|2|0
222,298,78961,5,2
222,298,79182,1,2
222,298,79402,1,2
362,298,79844,2,0,B|429:224|336:159,1,140,0|8
258,77,80726,1,2
159,176,81167,2,0,B|77:239|182:316,1,140,0|8
253,194,82049,5,2
253,194,82270,1,0
253,194,82491,1,2
183,315,82932,2,0,B|255:374|336:297,1,140,8|8
253,194,83814,1,2
253,194,84035,1,2
253,194,84255,1,2
187,70,84697,6,8,B|260:18|329:84,1,140
414,171,85579,1,2
316,270,86020,1,2
176,270,86461,2,0,B|94:219|114:144,1,140,0|4
208,56,87344,2,0,B|304:19|371:82,1,140,0|4
408,184,88226,2,0,B|378:293|281:274,1,140,0|4
256,156,89108,5,2
256,156,89329,1,0
256,156,89549,1,2
116,156,89991,1,0
184,278,90432,2,0,B|258:324|330:264,1,140,2|0
414,175,91314,1,2
315,76,91755,2,0,B|250:27|169:81,1,140,0|2
255,192,92638,5,2
255,192,92858,1,0
255,192,93079,2,4,B|256:352,1,140,8|4
