osu file format v6

[General]
AudioFilename: DRIFTING AWAY (LANGE feat. SKYE).mp3
AudioLeadIn: 0
PreviewTime: 60666
Countdown: 1
SampleSet: Soft
StackLeniency: 0.7
Mode: 0
LetterboxInBreaks: 1

[Editor]
DistanceSpacing: 1
BeatDivisor: 4
GridSize: 8

[Metadata]
Title:Drifting Away
Artist:Lange feat. Skye
Creator:nazenaze
Version:Hard
Source:
Tags:DDR

[Difficulty]
HPDrainRate:6
CircleSize:5
OverallDifficulty:7
SliderMultiplier:1.4
SliderTickRate:2

[Events]
//Background and Video events
0,0,"99201.jpg"
//Break Periods
2,19602,22032
//Storyboard Layer 0 (Background)
//Storyboard Layer 1 (Fail)
//Storyboard Layer 2 (Pass)
//Storyboard Layer 3 (Foreground)
//Storyboard Sound Samples
//Background Colour Transformations
3,100,163,162,255

[TimingPoints]
7050,441.176470588235,4,2,0,100,1,0
37050,-200,4,2,0,100,0,0
51167,-100,4,2,0,100,0,0
65285,-100,4,2,0,100,0,1
86461,-100,4,2,0,100,0,0
86792,-100,4,2,0,60,0,0
87013,-100,4,2,0,100,0,0
87674,-100,4,2,0,80,0,0
87895,-100,4,2,0,100,0,0
95174,-100,4,2,0,60,0,0

[Colours]
Combo1 : 255,189,51
Combo2 : 55,150,255
Combo3 : 137,242,102
Combo4 : 216,91,225

[HitObjects]
64,72,8814,1,2
64,72,9035,1,0
64,72,9255,2,0,B|160:72|192:168,1,140,2|0
228,187,9917,1,0
277,236,10138,2,0,B|323:328|438:274,1,140,8|0
423,227,10800,5,0
423,227,11020,2,0,B|479:144|373:72,1,140,2|0
359,51,11682,1,0
309,100,11902,2,0,B|246:31|182:102,1,140,8|0
312,168,12785,5,2
344,232,13005,1,0
272,240,13226,2,0,B|273:241|205:324|135:217,1,140,0|8
213,203,13888,1,0
164,154,14108,2,0,B|63:165|90:274,1,140,2|8
135,297,14770,1,0
205,297,14991,2,0,B|286:259|229:178,1,140,2|8
170,215,15652,1,0
120,168,15873,1,2
216,64,16314,5,8
269,116,16535,2,0,B|349:90|390:203,1,140,0|2
310,184,17197,1,8
310,184,17417,2,0,B|218:225|193:123,1,140,0|2
149,191,18079,1,8
200,240,18300,1,0
248,290,18520,2,0,B|310:224|371:297,2,140,2|8|4
256,40,22932,5,2
256,137,23152,1,0
325,207,23373,2,0,B|401:141|299:64,2,140,8|0|8
255,276,24476,1,2
255,178,24697,1,0
255,276,24917,1,2
186,207,25138,2,0,B|110:142|212:65,2,140,8|0|8
255,138,26241,2,0,B|255:297,1,140,2|2
255,347,26902,5,8
304,280,27123,1,2
304,280,27344,1,0
208,248,27564,1,2
208,248,27785,1,8
304,192,28005,1,2
304,192,28226,1,0
200,120,28447,1,2
200,120,28667,1,8
200,120,28888,5,0
336,80,29108,1,0
262,203,29329,1,2
402,203,29550,1,8
336,80,29770,2,0,B|336:178,1,70,2|0
336,287,30211,1,0
336,287,30432,6,0,B|279:348|199:283,1,140,8|2
160,242,31094,1,0
111,291,31314,1,8
61,241,31535,2,0,B|131:169|44:109,1,140,0|0
109,71,32197,1,8
158,121,32417,2,0,B|238:191|293:105,1,140,2|0
250,200,33079,5,8
319,269,33300,2,0,B|366:185,1,70,0|0
250,200,33741,5,0
181,269,33961,2,0,B|129:186,1,70,8|0
250,200,34402,5,0
319,131,34623,2,0,B|362:207,1,70,0|8
250,200,35064,5,8
180,131,35285,2,0,B|135:204,1,70,2|8
248,296,35726,5,8
352,200,35947,1,2
248,104,36167,1,2
144,200,36388,1,8
250,200,36608,1,2
250,200,36719,1,0
250,200,36829,1,8
250,200,37050,1,4
256,192,38373,5,2
464,336,40138,5,2
48,48,41902,5,2
425,48,43667,6,0,B|425:144|321:136,1,140,2|0
64,328,45432,2,0,B|64:232|168:240,1,140,2|0
240,192,46755,5,0
144,144,47197,2,0,B|48:144|56:40,1,140,2|0
160,56,48520,1,0
264,56,48961,2,0,B|360:56|352:176,1,140,2|0
408,232,50285,1,2
448,328,50726,1,4
64,48,51167,5,0
64,48,51277,1,0
64,48,51388,1,0
64,48,51608,1,2
96,144,51829,2,0,B|192:168,1,70,8|0
256,112,52270,1,0
256,224,52491,2,0,B|256:304,2,70,2|0|2
360,192,53152,5,0
360,192,53263,1,0
360,192,53373,1,0
411,100,53594,2,0,B|344:22,1,70,2|8
291,121,54035,1,0
243,210,54255,2,0,B|177:287,2,70,2|2|0
186,121,54917,5,2
291,121,55138,1,0
243,210,55358,1,0
243,210,55469,1,0
243,210,55579,1,2
168,284,55799,2,0,B|234:360,2,70,8|0|0
94,210,56461,1,2
328,56,56902,1,2
414,323,57344,1,0
216,125,57785,6,0,B|288:201,2,70,8|0|0
322,125,58447,1,2
396,199,58667,1,0
321,273,58888,1,2
217,273,59108,1,0
142,199,59329,1,0
216,124,59549,1,2
271,199,59770,6,0,B|348:243,1,70,8|0
271,199,60211,2,0,B|271:110,1,70,0|2
271,198,60652,2,0,B|193:243,1,70,0|2
135,159,61094,1,0
209,85,61314,1,0
209,85,61424,1,0
209,85,61535,1,2
314,85,61755,1,8
388,159,61976,1,0
388,159,62086,1,0
388,159,62197,1,0
314,233,62417,6,0,B|315:334,1,70,2|0
240,228,62858,1,2
166,303,63079,2,0,B|167:212,1,70
241,158,63520,2,0,B|242:64,2,70,2|8|0
346,158,64182,5,0
327,196,64292,1,0
311,234,64402,1,2
281,264,64513,1,0
238,285,64623,1,0
202,264,64733,1,0
172,235,64844,1,2
155,196,64954,1,0
137,159,65064,1,0
196,99,65285,5,8
255,40,65505,1,2
315,99,65726,1,8
255,159,65947,1,0
255,159,66057,1,0
255,159,66167,1,0
315,218,66388,2,0,B|375:283,1,70,8|8
255,159,66829,1,2
196,218,67049,2,0,B|139:291,1,70,8|2
256,317,67491,1,8
256,317,67711,5,0
256,317,67822,1,0
256,317,67932,1,0
132,192,68152,1,8
256,68,68373,1,8
381,192,68594,1,2
257,192,68814,5,8
257,192,69035,1,2
316,251,69255,2,0,B|386:316,2,70,8|0|0
257,192,69917,1,8
198,252,70138,2,0,B|135:324,2,70,8|2|8
138,192,70799,1,2
138,108,71020,2,0,B|77:48,1,70,8|0
202,55,71461,1,0
286,55,71682,1,8
346,114,71902,2,0,B|407:54,1,70,8|2
346,192,72344,5,8
346,192,72564,2,0,B|442:193,2,70,2|8|0
248,192,73226,1,0
248,192,73336,1,0
248,192,73447,1,8
248,290,73667,1,8
248,192,73888,2,0,B|175:124,3,70,2|2|8|8
395,343,74991,5,2
395,63,75432,1,2
115,63,75873,1,8
115,343,76314,1,2
264,194,76755,5,0
264,194,76866,1,0
264,194,76976,1,2
296,94,77197,2,0,B|209:95,1,70,8|2
264,194,77638,1,8
228,293,77858,2,0,B|322:293,1,70,0|2
264,194,78299,5,0
159,194,78520,2,0,B|69:195,2,70,0|2|8
233,269,79182,1,2
307,195,79402,1,8
233,120,79623,2,0,B|234:32,2,70,0|2|0
128,120,80285,5,0
232,120,80505,1,2
337,120,80726,1,0
315,233,80947,1,2
241,307,81167,1,8
241,307,81277,1,0
241,307,81388,1,0
315,233,81608,2,0,B|407:234,1,70,8|0
311,159,82049,1,0
237,233,82270,1,2
162,159,82491,2,0,B|104:101,1,70,0|2
187,35,82932,5,8
261,109,83152,1,0
336,35,83373,2,0,B|402:97,1,70,8|0
387,188,83814,1,2
387,188,83924,1,0
387,188,84035,1,0
313,262,84255,2,0,B|246:336,1,70,2|0
160,313,84697,1,8
107,222,84917,1,2
212,222,85138,5,8
311,321,85358,1,2
351,187,85579,1,8
212,222,85800,5,2
118,61,86020,1,8
305,60,86241,1,2
379,134,86461,6,0,B|458:215|364:272,1,140,8|4
287,224,87123,1,2
314,328,87344,2,0,B|255:390|177:317,1,140,8|4
112,256,88005,1,2
190,179,88226,2,0,B|251:114|326:193,1,140,8|4
252,266,88888,5,2
190,179,89108,1,8
255,97,89329,1,4
315,182,89550,1,2
315,182,89660,1,0
315,182,89770,1,4
420,182,89991,6,0,B|420:100,1,70,8|2
315,182,90432,2,0,B|315:259,1,70,8|2
208,181,90873,2,0,B|208:104,1,70,4|2
91,183,91314,2,0,B|91:260,1,70,4|2
165,328,91755,5,0
165,328,91866,1,0
165,328,91976,1,2
270,328,92197,5,2
270,328,92307,1,0
270,328,92417,1,2
375,328,92638,5,2
375,328,92748,1,2
375,328,92858,1,2
320,240,93079,1,0
240,168,93300,1,4
256,192,93520,12,2,95285
