osu file format v12

[General]
AudioFilename: Lamaze-P - WAVEFILE.mp3
AudioLeadIn: 0
PreviewTime: 36726
Countdown: 0
SampleSet: Normal
StackLeniency: 0.7
Mode: 1
LetterboxInBreaks: 0
WidescreenStoryboard: 1

[Editor]
DistanceSpacing: 1.1
BeatDivisor: 4
GridSize: 4

[Metadata]
Title:WAVEFILE
TitleUnicode:WAVEFILE
Artist:Lamaze-P
ArtistUnicode:ラマーズ-P
Creator:mancuso_JM_
Version:Muzukashii
Source:Nico Nico Douga
Tags:Vocaloid Hatsune Miku ゴジマジP GojimajiP mancusojuanmattos
BeatmapID:288096
BeatmapSetID:110609

[Difficulty]
HPDrainRate:5
CircleSize:5
OverallDifficulty:5
ApproachRate:5
SliderMultiplier:1.4
SliderTickRate:1

[Events]
//Background and Video events
0,0,"anime-hatsune-miku-203623.jpg",0,0
//Break Periods
//Storyboard Layer 0 (Background)
//Storyboard Layer 1 (Fail)
//Storyboard Layer 2 (Pass)
//Storyboard Layer 3 (Foreground)
//Storyboard Sound Samples
//Background Colour Transformations
3,100,163,162,255

[TimingPoints]
1838,444.444444444444,4,1,0,70,1,0
53393,-100,4,1,0,70,0,1
81837,-100,4,1,0,70,0,0
82060,-133.333333333333,4,1,0,50,0,0
85615,-133.333333333333,4,1,0,35,0,0

[HitObjects]
256,192,1838,1,8,0:0:0:0:
256,192,2171,1,8,0:0:0:0:
256,192,2504,1,0,0:0:0:0:
256,192,2949,1,0,0:0:0:0:
256,192,3171,1,8,0:0:0:0:
256,192,3393,1,0,0:0:0:0:
256,192,3615,1,8,0:0:0:0:
256,192,3949,1,8,0:0:0:0:
256,192,4282,1,8,0:0:0:0:
256,192,4726,1,0,0:0:0:0:
256,192,4949,1,8,0:0:0:0:
256,192,5171,1,0,0:0:0:0:
256,192,5393,1,0,0:0:0:0:
256,192,5615,1,8,0:0:0:0:
256,192,5837,1,0,0:0:0:0:
256,192,6171,1,8,0:0:0:0:
256,192,6504,1,0,0:0:0:0:
256,192,6726,1,0,0:0:0:0:
256,192,7171,1,0,0:0:0:0:
256,192,7504,1,0,0:0:0:0:
256,192,7837,1,0,0:0:0:0:
256,192,8060,1,4,0:0:0:0:
256,192,8504,1,6,0:0:0:0:
256,192,8949,1,4,0:0:0:0:
256,192,9393,1,8,0:0:0:0:
256,192,9615,1,0,0:0:0:0:
256,192,9726,1,0,0:0:0:0:
256,192,9837,1,0,0:0:0:0:
256,192,10060,1,0,0:0:0:0:
256,192,10282,1,8,0:0:0:0:
256,192,10504,1,0,0:0:0:0:
256,192,10949,1,0,0:0:0:0:
256,192,11171,1,8,0:0:0:0:
256,192,11393,1,0,0:0:0:0:
256,192,11504,1,0,0:0:0:0:
256,192,11615,1,0,0:0:0:0:
256,192,11837,1,0,0:0:0:0:
256,192,12060,1,8,0:0:0:0:
256,192,12282,1,8,0:0:0:0:
256,192,12726,1,0,0:0:0:0:
256,192,12949,1,8,0:0:0:0:
256,192,13171,1,8,0:0:0:0:
256,192,13282,1,8,0:0:0:0:
256,192,13393,1,8,0:0:0:0:
256,192,13615,1,0,0:0:0:0:
256,192,13837,1,8,0:0:0:0:
256,192,14060,1,8,0:0:0:0:
256,192,14282,1,0,0:0:0:0:
256,192,14726,1,8,0:0:0:0:
256,192,14949,1,8,0:0:0:0:
256,192,15393,1,8,0:0:0:0:
256,192,15615,1,8,0:0:0:0:
256,192,15837,1,0,0:0:0:0:
256,192,16060,1,0,0:0:0:0:
256,192,16504,1,8,0:0:0:0:
256,192,16726,1,8,0:0:0:0:
256,192,16949,1,0,0:0:0:0:
256,192,17171,1,0,0:0:0:0:
256,192,17393,1,8,0:0:0:0:
256,192,17837,1,0,0:0:0:0:
256,192,18282,1,8,0:0:0:0:
256,192,18504,1,0,0:0:0:0:
256,192,18726,1,0,0:0:0:0:
256,192,19171,1,8,0:0:0:0:
256,192,19393,1,8,0:0:0:0:
256,192,19615,1,0,0:0:0:0:
256,192,20060,1,8,0:0:0:0:
256,192,20504,1,0,0:0:0:0:
256,192,20726,1,0,0:0:0:0:
256,192,20949,1,8,0:0:0:0:
256,192,21171,1,8,0:0:0:0:
256,192,21393,1,0,0:0:0:0:
256,192,21837,1,8,0:0:0:0:
256,192,22282,1,6,0:0:0:0:
256,192,22615,1,6,0:0:0:0:
256,192,22949,1,6,0:0:0:0:
256,192,23171,1,4,0:0:0:0:
256,192,23615,1,8,0:0:0:0:
256,192,24060,1,0,0:0:0:0:
256,192,24282,1,0,0:0:0:0:
256,192,24504,1,8,0:0:0:0:
256,192,24726,1,8,0:0:0:0:
256,192,24949,1,0,0:0:0:0:
256,192,25393,1,8,0:0:0:0:
256,192,25837,1,0,0:0:0:0:
256,192,26060,1,0,0:0:0:0:
256,192,26282,1,8,0:0:0:0:
256,192,26726,1,0,0:0:0:0:
256,192,27171,1,8,0:0:0:0:
256,192,27393,1,0,0:0:0:0:
256,192,27615,1,0,0:0:0:0:
256,192,27837,1,8,0:0:0:0:
256,192,28060,1,0,0:0:0:0:
256,192,28504,1,0,0:0:0:0:
256,192,28726,1,0,0:0:0:0:
256,192,28949,1,8,0:0:0:0:
256,192,29282,1,0,0:0:0:0:
256,192,29615,1,0,0:0:0:0:
256,192,29837,1,8,0:0:0:0:
256,192,30060,1,0,0:0:0:0:
256,192,30282,1,0,0:0:0:0:
256,192,30726,1,8,0:0:0:0:
256,192,30949,1,0,0:0:0:0:
256,192,31171,1,0,0:0:0:0:
256,192,31393,1,0,0:0:0:0:
256,192,31615,1,8,0:0:0:0:
256,192,32060,1,0,0:0:0:0:
256,192,32282,1,0,0:0:0:0:
256,192,32504,1,8,0:0:0:0:
256,192,32837,1,0,0:0:0:0:
256,192,33171,1,0,0:0:0:0:
256,192,33393,1,8,0:0:0:0:
256,192,33837,1,0,0:0:0:0:
256,192,34060,1,0,0:0:0:0:
256,192,34282,1,8,0:0:0:0:
256,192,34615,1,0,0:0:0:0:
256,192,34949,1,8,0:0:0:0:
256,192,35171,1,8,0:0:0:0:
256,192,35615,1,8,0:0:0:0:
256,192,35837,1,0,0:0:0:0:
256,192,36060,1,8,0:0:0:0:
256,192,36393,1,0,0:0:0:0:
256,192,36726,1,0,0:0:0:0:
256,192,36949,1,0,0:0:0:0:
256,192,37171,1,8,0:0:0:0:
256,192,37393,1,8,0:0:0:0:
256,192,37837,1,0,0:0:0:0:
256,192,38060,1,8,0:0:0:0:
256,192,38282,1,0,0:0:0:0:
256,192,38726,1,8,0:0:0:0:
256,192,39171,1,0,0:0:0:0:
256,192,39393,1,0,0:0:0:0:
256,192,39615,1,8,0:0:0:0:
256,192,39837,1,0,0:0:0:0:
256,192,40282,1,0,0:0:0:0:
256,192,40504,1,8,0:0:0:0:
256,192,40726,1,8,0:0:0:0:
256,192,40837,1,8,0:0:0:0:
256,192,40949,1,8,0:0:0:0:
256,192,41171,1,0,0:0:0:0:
256,192,41393,1,8,0:0:0:0:
256,192,41837,1,0,0:0:0:0:
256,192,42060,1,0,0:0:0:0:
256,192,42282,1,8,0:0:0:0:
256,192,42504,1,0,0:0:0:0:
256,192,42949,1,0,0:0:0:0:
256,192,43171,1,8,0:0:0:0:
256,192,43393,1,0,0:0:0:0:
256,192,43837,1,0,0:0:0:0:
256,192,44060,1,8,0:0:0:0:
256,192,44282,1,8,0:0:0:0:
256,192,44504,1,0,0:0:0:0:
256,192,44949,1,8,0:0:0:0:
256,192,45171,1,0,0:0:0:0:
256,192,45282,1,0,0:0:0:0:
256,192,45393,1,0,0:0:0:0:
256,192,45615,1,0,0:0:0:0:
256,192,45837,1,8,0:0:0:0:
256,192,46060,1,8,0:0:0:0:
256,192,46282,1,0,0:0:0:0:
256,192,46726,1,8,0:0:0:0:
256,192,46949,1,0,0:0:0:0:
256,192,47393,1,0,0:0:0:0:
256,192,47615,1,8,0:0:0:0:
256,192,48060,1,0,0:0:0:0:
256,192,48504,1,8,0:0:0:0:
256,192,48726,1,0,0:0:0:0:
256,192,48837,1,0,0:0:0:0:
256,192,48949,1,0,0:0:0:0:
256,192,49171,1,0,0:0:0:0:
256,192,49393,1,8,0:0:0:0:
256,192,49837,1,0,0:0:0:0:
256,192,50060,1,0,0:0:0:0:
256,192,50282,1,8,0:0:0:0:
256,192,50615,1,0,0:0:0:0:
256,192,50837,1,0,0:0:0:0:
256,192,50949,1,0,0:0:0:0:
256,192,51171,1,8,0:0:0:0:
256,192,51615,1,8,0:0:0:0:
256,192,51726,1,8,0:0:0:0:
256,192,51949,1,8,0:0:0:0:
256,192,52060,1,8,0:0:0:0:
256,192,52282,1,0,0:0:0:0:
256,192,52393,1,0,0:0:0:0:
256,192,52504,1,0,0:0:0:0:
256,192,53393,1,4,0:0:0:0:
256,192,53615,1,0,0:0:0:0:
256,192,53726,1,0,0:0:0:0:
256,192,53837,1,0,0:0:0:0:
256,192,54060,1,0,0:0:0:0:
256,192,54504,1,8,0:0:0:0:
256,192,54726,1,0,0:0:0:0:
256,192,54949,1,8,0:0:0:0:
256,192,55171,1,0,0:0:0:0:
256,192,55504,1,8,0:0:0:0:
256,192,55837,1,0,0:0:0:0:
256,192,56282,1,0,0:0:0:0:
256,192,56504,1,8,0:0:0:0:
256,192,56726,1,0,0:0:0:0:
256,192,57171,1,0,0:0:0:0:
256,192,57393,1,8,0:0:0:0:
256,192,57615,1,0,0:0:0:0:
256,192,57726,1,0,0:0:0:0:
256,192,57837,1,0,0:0:0:0:
256,192,58060,1,0,0:0:0:0:
256,192,58282,1,8,0:0:0:0:
256,192,58504,1,8,0:0:0:0:
256,192,58726,1,0,0:0:0:0:
256,192,59171,1,0,0:0:0:0:
256,192,59393,1,8,0:0:0:0:
256,192,59615,1,4,0:0:0:0:
256,192,60060,1,6,0:0:0:0:
256,192,60504,1,4,0:0:0:0:
256,192,60726,1,0,0:0:0:0:
256,192,60949,1,8,0:0:0:0:
256,192,61171,1,8,0:0:0:0:
256,192,61393,1,0,0:0:0:0:
256,192,61837,1,8,0:0:0:0:
256,192,62060,1,0,0:0:0:0:
256,192,62171,1,0,0:0:0:0:
256,192,62282,1,0,0:0:0:0:
256,192,62504,1,0,0:0:0:0:
256,192,62726,1,8,0:0:0:0:
256,192,63171,1,8,0:0:0:0:
256,192,63393,1,0,0:0:0:0:
256,192,63615,1,8,0:0:0:0:
256,192,63726,1,8,0:0:0:0:
256,192,63837,1,8,0:0:0:0:
256,192,64060,1,0,0:0:0:0:
256,192,64504,1,8,0:0:0:0:
256,192,64726,1,0,0:0:0:0:
256,192,64837,1,0,0:0:0:0:
256,192,64949,1,0,0:0:0:0:
256,192,65171,1,0,0:0:0:0:
256,192,65393,1,8,0:0:0:0:
256,192,65615,1,8,0:0:0:0:
256,192,65837,1,0,0:0:0:0:
256,192,66282,1,8,0:0:0:0:
256,192,66504,1,0,0:0:0:0:
256,192,66949,1,0,0:0:0:0:
256,192,67171,1,8,0:0:0:0:
256,192,67393,1,8,0:0:0:0:
256,192,67615,1,0,0:0:0:0:
256,192,68060,1,8,0:0:0:0:
256,192,68282,1,0,0:0:0:0:
256,192,68393,1,0,0:0:0:0:
256,192,68504,1,0,0:0:0:0:
256,192,68726,1,0,0:0:0:0:
256,192,68949,1,8,0:0:0:0:
256,192,69393,1,0,0:0:0:0:
256,192,69615,1,8,0:0:0:0:
256,192,69837,1,8,0:0:0:0:
256,192,70060,1,0,0:0:0:0:
256,192,70504,1,0,0:0:0:0:
256,192,70726,1,8,0:0:0:0:
256,192,70949,1,0,0:0:0:0:
256,192,71171,1,8,0:0:0:0:
256,192,71615,1,0,0:0:0:0:
256,192,71837,1,8,0:0:0:0:
256,192,71949,1,8,0:0:0:0:
256,192,72060,1,8,0:0:0:0:
256,192,72282,1,8,0:0:0:0:
256,192,72504,1,0,0:0:0:0:
256,192,72949,1,0,0:0:0:0:
256,192,73171,1,8,0:0:0:0:
256,192,73393,1,8,0:0:0:0:
256,192,73615,1,0,0:0:0:0:
256,192,74060,1,0,0:0:0:0:
256,192,74282,1,8,0:0:0:0:
256,192,74504,1,0,0:0:0:0:
256,192,74615,1,0,0:0:0:0:
256,192,74726,1,0,0:0:0:0:
256,192,74949,1,0,0:0:0:0:
256,192,75171,1,8,0:0:0:0:
256,192,75615,1,8,0:0:0:0:
256,192,75837,1,0,0:0:0:0:
256,192,75949,1,0,0:0:0:0:
256,192,76060,1,0,0:0:0:0:
256,192,76282,1,8,0:0:0:0:
256,192,76504,1,0,0:0:0:0:
256,192,76949,1,8,0:0:0:0:
256,192,77171,1,0,0:0:0:0:
256,192,77393,1,8,0:0:0:0:
256,192,77726,1,8,0:0:0:0:
256,192,78060,1,0,0:0:0:0:
256,192,78282,1,8,0:0:0:0:
256,192,78726,1,8,0:0:0:0:
256,192,79171,1,0,0:0:0:0:
256,192,79393,1,8,0:0:0:0:
256,192,79504,1,8,0:0:0:0:
256,192,79615,1,8,0:0:0:0:
256,192,79837,1,8,0:0:0:0:
256,192,80060,1,0,0:0:0:0:
256,192,80504,1,8,0:0:0:0:
256,192,80949,1,0,0:0:0:0:
256,192,81171,1,0,0:0:0:0:
256,192,81393,1,8,0:0:0:0:
256,192,81615,1,8,0:0:0:0:
256,192,81837,1,0,0:0:0:0:
256,192,82504,1,8,0:0:0:0:
256,192,83615,1,0,0:0:0:0:
256,192,84060,1,8,0:0:0:0:
256,192,84504,1,0,0:0:0:0:
256,192,84949,1,8,0:0:0:0:
256,192,85393,1,0,0:0:0:0:
256,192,85615,12,0,88949,0:0:0:0:
