osu file format v12

[General]
AudioFilename: Lamaze-P - WAVEFILE.mp3
AudioLeadIn: 0
PreviewTime: 36726
Countdown: 0
SampleSet: Normal
StackLeniency: 0.7
Mode: 1
LetterboxInBreaks: 0
WidescreenStoryboard: 1

[Editor]
DistanceSpacing: 1.1
BeatDivisor: 4
GridSize: 4

[Metadata]
Title:WAVEFILE
TitleUnicode:WAVEFILE
Artist:Lamaze-P
ArtistUnicode:ラマーズ-P
Creator:mancuso_JM_
Version:Kantan
Source:Nico Nico Douga
Tags:Vocaloid Hatsune Miku ゴジマジP GojimajiP mancusojuanmattos
BeatmapID:288095
BeatmapSetID:110609

[Difficulty]
HPDrainRate:3
CircleSize:5
OverallDifficulty:3
ApproachRate:5
SliderMultiplier:1.2
SliderTickRate:1

[Events]
//Background and Video events
0,0,"anime-hatsune-miku-203623.jpg",0,0
//Break Periods
//Storyboard Layer 0 (Background)
//Storyboard Layer 1 (Fail)
//Storyboard Layer 2 (Pass)
//Storyboard Layer 3 (Foreground)
//Storyboard Sound Samples
//Background Colour Transformations
3,100,163,162,255

[TimingPoints]
1838,444.444444444444,4,1,0,70,1,0
53393,-100,4,1,0,70,0,1
81837,-100,4,1,0,70,0,0
82060,-100,4,1,0,50,0,0
85615,-100,4,1,0,35,0,0

[HitObjects]
256,192,1838,1,8,0:0:0:0:
256,192,2504,1,8,0:0:0:0:
256,192,3615,1,8,0:0:0:0:
256,192,4282,1,8,0:0:0:0:
256,192,4949,1,8,0:0:0:0:
256,192,5393,1,8,0:0:0:0:
256,192,6282,1,8,0:0:0:0:
256,192,7171,1,0,0:0:0:0:
256,192,8060,1,4,0:0:0:0:
256,192,8504,1,4,0:0:0:0:
256,192,8949,1,4,0:0:0:0:
256,192,9393,1,8,0:0:0:0:
256,192,10282,1,8,0:0:0:0:
256,192,10726,1,8,0:0:0:0:
256,192,11615,1,8,0:0:0:0:
256,192,12060,1,8,0:0:0:0:
256,192,12504,1,0,0:0:0:0:
256,192,13393,1,8,0:0:0:0:
256,192,14282,1,8,0:0:0:0:
256,192,14726,1,8,0:0:0:0:
256,192,15171,1,8,0:0:0:0:
256,192,16060,1,0,0:0:0:0:
256,192,16504,1,8,0:0:0:0:
256,192,17393,1,8,0:0:0:0:
256,192,18282,1,8,0:0:0:0:
256,192,18726,1,8,0:0:0:0:
256,192,19171,1,8,0:0:0:0:
76,192,19615,2,10,L|436:192,1,360
256,192,21393,1,0,0:0:0:0:
256,192,22282,1,8,0:0:0:0:
256,192,23171,1,4,0:0:0:0:
256,192,23615,1,8,0:0:0:0:
256,192,24504,1,8,0:0:0:0:
256,192,24949,1,8,0:0:0:0:
256,192,25393,1,8,0:0:0:0:
256,192,26282,1,0,0:0:0:0:
256,192,26726,1,0,0:0:0:0:
256,192,27171,1,0,0:0:0:0:
256,192,28060,1,8,0:0:0:0:
256,192,28504,1,8,0:0:0:0:
256,192,28949,1,8,0:0:0:0:
256,192,30282,1,4,0:0:0:0:
256,192,30726,1,8,0:0:0:0:
256,192,31615,1,8,0:0:0:0:
256,192,32060,1,8,0:0:0:0:
256,192,32504,1,8,0:0:0:0:
256,192,33393,1,0,0:0:0:0:
256,192,33837,1,0,0:0:0:0:
256,192,34282,1,0,0:0:0:0:
256,192,35171,1,8,0:0:0:0:
76,192,35615,2,10,L|436:192,1,360
256,192,37393,1,4,0:0:0:0:
256,192,38282,1,8,0:0:0:0:
256,192,39171,1,8,0:0:0:0:
256,192,40060,1,0,0:0:0:0:
256,192,40504,1,0,0:0:0:0:
256,192,41393,1,8,0:0:0:0:
256,192,42282,1,8,0:0:0:0:
256,192,43171,1,8,0:0:0:0:
256,192,44060,1,8,0:0:0:0:
256,192,44504,1,8,0:0:0:0:
256,192,44949,1,8,0:0:0:0:
256,192,45837,1,8,0:0:0:0:
256,192,46282,1,8,0:0:0:0:
256,192,46726,1,8,0:0:0:0:
256,192,48060,1,8,0:0:0:0:
256,192,48504,1,0,0:0:0:0:
256,192,49393,1,0,0:0:0:0:
80,192,49837,2,10,L|440:192,1,360
256,192,51615,1,8,0:0:0:0:
256,192,52060,1,8,0:0:0:0:
256,192,52504,1,0,0:0:0:0:
256,192,53393,1,4,0:0:0:0:
256,192,54060,1,0,0:0:0:0:
256,192,55171,1,8,0:0:0:0:
256,192,55837,1,8,0:0:0:0:
256,192,56504,1,0,0:0:0:0:
256,192,56949,1,0,0:0:0:0:
256,192,57837,1,0,0:0:0:0:
256,192,58282,1,0,0:0:0:0:
256,192,58726,1,0,0:0:0:0:
256,192,59615,1,0,0:0:0:0:
256,192,60060,1,4,0:0:0:0:
256,192,60949,1,8,0:0:0:0:
256,192,61393,1,8,0:0:0:0:
256,192,62060,1,8,0:0:0:0:
256,192,62726,1,0,0:0:0:0:
256,192,63171,1,0,0:0:0:0:
256,192,63837,1,0,0:0:0:0:
256,192,64504,1,8,0:0:0:0:
256,192,64949,1,8,0:0:0:0:
256,192,65837,1,8,0:0:0:0:
256,192,66504,1,0,0:0:0:0:
256,192,67171,1,0,0:0:0:0:
256,192,67615,1,8,0:0:0:0:
256,192,68504,1,0,0:0:0:0:
256,192,69393,1,8,0:0:0:0:
256,192,69837,1,8,0:0:0:0:
256,192,70282,1,0,0:0:0:0:
256,192,71171,1,8,0:0:0:0:
256,192,71615,1,8,0:0:0:0:
256,192,72060,1,8,0:0:0:0:
256,192,72949,1,8,0:0:0:0:
256,192,73393,1,8,0:0:0:0:
256,192,73837,1,0,0:0:0:0:
256,192,74726,1,0,0:0:0:0:
256,192,75615,1,8,0:0:0:0:
256,192,76504,1,0,0:0:0:0:
256,192,77393,1,8,0:0:0:0:
256,192,77837,1,8,0:0:0:0:
256,192,78282,1,0,0:0:0:0:
256,192,79171,1,0,0:0:0:0:
256,192,79615,1,0,0:0:0:0:
256,192,80060,1,0,0:0:0:0:
256,192,80949,1,8,0:0:0:0:
256,192,81393,1,8,0:0:0:0:
256,192,81837,1,12,0:0:0:0:
256,192,82504,1,8,0:0:0:0:
256,192,84060,1,8,0:0:0:0:
256,192,84504,1,8,0:0:0:0:
256,192,84949,1,8,0:0:0:0:
256,192,85393,1,8,0:0:0:0:
256,192,85615,12,0,88949,0:0:0:0:
