osu file format v12

[General]
AudioFilename: 100-.mp3
AudioLeadIn: 0
PreviewTime: 86470
Countdown: 0
SampleSet: None
StackLeniency: 0.7
Mode: 0
LetterboxInBreaks: 0
WidescreenStoryboard: 1

[Editor]
Bookmarks: 8070,20870,80070,112070,164870,201670
DistanceSpacing: 0.8
BeatDivisor: 4
GridSize: 16

[Metadata]
Title:Blushing Phenomenon 100%
TitleUnicode:デレ化現象100%
Artist:Lamaze-P
ArtistUnicode:ラマーズP
Creator:SomeFatWhiteGuy
Version:Insane
Source:
Tags:vocaloid lamaze japanese love
BeatmapID:343535
BeatmapSetID:137438

[Difficulty]
HPDrainRate:5
CircleSize:5
OverallDifficulty:6
ApproachRate:9
SliderMultiplier:1.4
SliderTickRate:2

[Events]
//Background and Video events
0,0,"100%.jpg",0,0
Video,0,"100%.avi"
//Break Periods
2,73870,79870
2,100270,111470
2,163470,171070
2,191470,201870
2,243470,249470
//Storyboard Layer 0 (Background)
//Storyboard Layer 1 (Fail)
//Storyboard Layer 2 (Pass)
//Storyboard Layer 3 (Foreground)
//Storyboard Sound Samples
//Background Colour Transformations
3,100,163,162,255

[TimingPoints]
8070.38317410465,400,4,1,0,100,1,0
20870,-100,4,2,0,100,0,0
80070,-100,4,1,0,100,0,1
100070,-100,4,1,0,100,0,0
112070,-100,4,2,0,100,0,0
171270,-66.6666666666667,4,1,0,100,0,1
191270,-100,4,1,0,100,0,0
202470,-100,4,1,0,20,0,0
202670,-100,4,1,0,40,0,0
202870,-100,4,1,0,60,0,0
203070,-100,4,1,0,80,0,0
203270,-100,4,2,0,100,0,0
209070,-100,4,2,0,100,0,0
209270,-100,4,2,0,100,0,0
209370,-100,4,2,0,100,0,0
249670,-66.6666666666667,4,1,0,100,0,1
275270,-100,4,1,0,20,0,1
275370,-100,4,1,0,40,0,1
275470,-100,4,1,0,60,0,1
275570,-100,4,1,0,80,0,1
275670,-50,4,1,0,100,0,1
299270,-50,4,1,0,100,0,1
301670,-100,4,1,0,100,0,0

[Colours]
Combo1 : 255,128,128
Combo2 : 255,255,128
Combo3 : 128,255,128
Combo4 : 128,255,255
Combo5 : 255,128,192

[HitObjects]
64,144,8070,6,0,L|144:64,1,70
128,192,8470,2,0,L|208:96,1,70,8|0,0:0|0:0,0:0:0:0:
192,224,8870,2,0,L|272:128,1,70
256,272,9270,2,0,L|320:192,1,70,8|0,0:0|0:0,0:0:0:0:
464,144,9670,6,0,L|416:224,1,70
400,112,10070,2,0,L|352:192,1,70,8|0,0:0|0:0,0:0:0:0:
336,80,10470,2,0,L|288:160,1,70
272,48,10870,2,0,L|224:128,1,70,8|0,0:0|0:0,0:0:0:0:
112,48,11270,6,0,L|208:48,1,70
400,128,11670,2,0,L|304:128,1,70,8|0,0:0|0:0,0:0:0:0:
112,192,12070,2,0,L|208:192,1,70
400,272,12470,2,0,L|320:272,1,70,8|0,0:0|0:0,0:0:0:0:
112,320,12870,1,0,0:0:0:0:
160,320,13070,1,0,0:0:0:0:
208,320,13270,1,8,0:0:0:0:
256,320,13470,1,0,0:0:0:0:
256,296,13570,1,0,0:0:0:0:
256,280,13670,1,0,0:0:0:0:
256,216,13870,1,8,0:0:0:0:
256,152,14070,1,8,0:0:0:0:
384,288,14470,6,0,L|384:208,3,70,0|0|8|0,0:0|0:0|0:0|0:0,0:0:0:0:
384,144,15270,2,0,L|384:48,3,70,0|0|8|0,0:0|0:0|0:0|0:0,0:0:0:0:
304,64,16070,6,0,L|224:64,3,70,0|0|8|0,0:0|0:0|0:0|0:0,0:0:0:0:
160,64,16870,2,0,L|64:64,3,70,0|0|8|0,0:0|0:0|0:0|0:0,0:0:0:0:
80,144,17670,6,0,L|80:224,3,70,0|0|8|0,0:0|0:0|0:0|0:0,0:0:0:0:
80,288,18470,2,0,L|80:368,3,70,0|0|8|0,0:0|0:0|0:0|0:0,0:0:0:0:
176,320,19270,6,0,L|256:320,2,70,0|0|8,0:0|0:0|0:0,0:0:0:0:
176,240,19870,1,0,0:0:0:0:
176,240,19970,1,0,0:0:0:0:
176,240,20070,1,0,0:0:0:0:
176,160,20270,2,8,L|272:160,1,70
432,112,20870,6,0,P|336:64|224:80,1,210,0|0,0:0|0:0,0:0:0:0:
176,96,21670,1,0,0:0:0:0:
128,176,22270,1,0,0:0:0:0:
144,240,22470,2,0,P|240:336|304:304,1,210
336,256,23270,2,0,L|416:128,1,140
160,80,23870,5,0,0:0:0:0:
160,80,23970,1,0,0:0:0:0:
160,80,24070,1,0,0:0:0:0:
144,160,24270,1,0,0:0:0:0:
144,160,24370,1,0,0:0:0:0:
144,160,24470,1,0,0:0:0:0:
256,112,24670,1,0,0:0:0:0:
304,176,24870,1,0,0:0:0:0:
352,112,25070,1,0,0:0:0:0:
400,176,25270,1,0,0:0:0:0:
448,240,25470,1,0,0:0:0:0:
400,304,25670,1,0,0:0:0:0:
352,240,25870,1,0,0:0:0:0:
304,304,26070,1,0,0:0:0:0:
128,208,26870,6,0,P|80:160|128:112,1,140
208,80,27870,1,0,0:0:0:0:
272,80,28070,1,0,0:0:0:0:
400,128,28670,1,0,0:0:0:0:
368,192,28870,2,0,P|304:240|240:240,2,140
400,128,29870,1,0,0:0:0:0:
272,80,30270,1,0,0:0:0:0:
208,80,30470,1,0,0:0:0:0:
96,272,31070,5,0,0:0:0:0:
96,272,31170,1,0,0:0:0:0:
96,272,31270,1,0,0:0:0:0:
176,272,31470,1,0,0:0:0:0:
240,272,31670,1,0,0:0:0:0:
304,272,31870,1,0,0:0:0:0:
368,272,32070,2,0,P|400:208|352:160,1,140
288,160,32870,1,0,0:0:0:0:
224,160,33070,1,0,0:0:0:0:
96,80,33870,5,0,0:0:0:0:
144,96,34070,1,0,0:0:0:0:
192,112,34270,1,0,0:0:0:0:
240,128,34470,1,0,0:0:0:0:
288,144,34670,1,0,0:0:0:0:
336,160,34870,1,0,0:0:0:0:
384,176,35070,1,0,0:0:0:0:
432,192,35270,2,0,B|464:256|448:288|384:320|304:320|224:288,1,280
176,272,36270,2,0,L|96:256,2,70
160,192,36870,2,0,L|176:160,8,35
240,112,37870,1,0,0:0:0:0:
320,176,38070,1,0,0:0:0:0:
240,240,38270,1,0,0:0:0:0:
64,160,38470,6,0,L|128:96,1,70
288,32,38870,2,0,L|368:80,1,70
448,192,39270,2,0,L|400:256,1,70
208,336,39670,2,0,L|144:272,1,70
208,144,40270,5,0,0:0:0:0:
304,144,40470,1,0,0:0:0:0:
304,240,40670,1,0,0:0:0:0:
208,240,40870,1,0,0:0:0:0:
144,80,41070,1,0,0:0:0:0:
368,80,41270,1,0,0:0:0:0:
368,288,41470,1,0,0:0:0:0:
144,288,41670,1,0,0:0:0:0:
256,192,41870,1,0,0:0:0:0:
208,144,42270,5,0,0:0:0:0:
288,144,42470,1,0,0:0:0:0:
208,176,42670,1,0,0:0:0:0:
288,176,42870,1,0,0:0:0:0:
208,208,43070,1,0,0:0:0:0:
288,208,43270,2,0,P|384:208|448:112,1,210
448,80,44070,1,0,0:0:0:0:
224,256,44670,5,0,0:0:0:0:
192,208,44870,2,0,P|160:112|240:48,1,210
288,48,45670,1,0,0:0:0:0:
432,48,46270,5,0,0:0:0:0:
432,48,46470,2,0,L|352:48,1,70
352,128,47070,1,0,0:0:0:0:
352,128,47270,2,0,L|272:128,1,70
272,208,47870,1,0,0:0:0:0:
272,208,48070,2,0,L|192:208,1,70
192,288,48670,1,0,0:0:0:0:
192,288,48870,2,0,L|112:288,1,70
80,288,49270,1,0,0:0:0:0:
32,288,49470,1,0,0:0:0:0:
0,224,49670,2,0,P|-32:160|16:128,1,140
80,128,50270,1,0,0:0:0:0:
160,144,50670,1,0,0:0:0:0:
240,160,51070,2,0,P|272:144|288:176,1,70
416,96,52270,5,0,0:0:0:0:
448,160,52470,1,0,0:0:0:0:
416,224,52670,1,0,0:0:0:0:
352,256,52870,1,0,0:0:0:0:
208,96,53470,1,0,0:0:0:0:
160,112,53670,1,0,0:0:0:0:
192,144,53870,1,0,0:0:0:0:
128,272,54270,1,0,0:0:0:0:
80,304,54470,1,0,0:0:0:0:
64,208,54870,1,0,0:0:0:0:
16,240,55070,1,0,0:0:0:0:
0,160,55270,6,0,P|48:96|80:112,1,140
160,144,55870,2,0,L|192:112,10,35
400,96,57470,5,0,0:0:0:0:
288,64,57670,1,0,0:0:0:0:
352,208,57870,1,0,0:0:0:0:
208,160,58070,1,0,0:0:0:0:
144,64,58270,2,0,L|64:64|80:64,1,70
16,128,58670,2,0,L|-16:192,1,70
240,272,59670,5,0,0:0:0:0:
112,240,60070,1,0,0:0:0:0:
144,144,60470,1,0,0:0:0:0:
208,160,60670,1,0,0:0:0:0:
272,176,60870,1,0,0:0:0:0:
336,192,61070,1,0,0:0:0:0:
400,208,61270,1,0,0:0:0:0:
192,64,61870,6,0,L|272:80,2,70
112,48,62470,2,0,P|48:80|80:128,1,140
144,160,63070,2,0,L|288:208,1,140
368,208,63870,2,0,L|400:176,2,35
336,96,65070,5,0,0:0:0:0:
288,64,65270,1,0,0:0:0:0:
240,96,65470,1,0,0:0:0:0:
160,96,65670,2,0,B|96:64|32:80|16:112|16:160|64:208|48:192,1,210
96,224,66470,1,0,0:0:0:0:
384,304,67070,5,0,0:0:0:0:
416,256,67270,2,0,B|432:192|416:128|352:96|304:96,1,210
272,96,68070,1,0,0:0:0:0:
64,80,68870,5,0,0:0:0:0:
48,160,69070,1,0,0:0:0:0:
48,160,69170,1,0,0:0:0:0:
48,160,69270,1,0,0:0:0:0:
128,192,69470,1,0,0:0:0:0:
128,192,69570,1,0,0:0:0:0:
128,192,69670,1,0,0:0:0:0:
208,160,69870,1,0,0:0:0:0:
272,224,70070,1,0,0:0:0:0:
336,176,70270,1,0,0:0:0:0:
400,240,70470,1,0,0:0:0:0:
480,224,70670,2,0,L|496:192,12,35
320,96,72070,6,0,L|256:64,1,70
112,160,72470,2,0,L|176:112,1,70
256,160,72870,1,0,0:0:0:0:
288,272,73070,1,0,0:0:0:0:
256,240,73170,1,0,0:0:0:0:
224,224,73270,1,0,0:0:0:0:
192,256,73370,1,0,0:0:0:0:
160,288,73470,1,0,0:0:0:0:
128,256,73570,1,0,0:0:0:0:
96,224,73670,1,0,0:0:0:0:
416,128,80470,6,0,L|288:80,1,105,8|0,0:0|0:0,0:0:0:0:
288,80,80870,1,0,0:0:0:0:
160,208,81070,1,0,0:0:0:0:
80,96,81270,1,8,0:0:0:0:
64,320,81470,1,0,0:0:0:0:
304,272,81670,1,0,0:0:0:0:
384,320,82070,6,0,L|432:224,1,105,8|0,0:0|0:0,0:0:0:0:
432,192,82470,1,0,0:0:0:0:
352,80,82670,1,0,0:0:0:0:
240,208,82870,1,8,0:0:0:0:
112,272,83070,1,0,0:0:0:0:
144,96,83270,1,0,0:0:0:0:
176,240,83670,6,0,P|112:208|128:192,1,105,8|0,0:0|0:0,0:0:0:0:
144,176,84070,1,0,0:0:0:0:
208,48,84270,1,0,0:0:0:0:
272,176,84470,1,8,0:0:0:0:
128,80,84670,1,0,0:0:0:0:
288,80,84870,1,0,0:0:0:0:
432,272,85270,5,14,0:0:0:0:
64,288,85670,5,14,0:0:0:0:
224,304,86870,6,8,L|224:192,1,105,8|0,0:0|0:0,0:0:0:0:
224,160,87270,1,0,0:0:0:0:
160,192,87470,1,0,0:0:0:0:
288,192,87670,1,8,0:0:0:0:
80,272,87870,1,0,0:0:0:0:
384,272,88070,1,0,0:0:0:0:
0,128,88470,6,0,P|32:64|64:80,1,105,8|0,0:0|0:0,0:0:0:0:
80,96,88870,1,0,0:0:0:0:
144,256,89070,1,0,0:0:0:0:
224,112,89270,1,8,0:0:0:0:
320,272,89470,1,0,0:0:0:0:
448,128,89670,1,0,0:0:0:0:
448,224,90070,6,0,L|336:192,1,105,8|0,0:0|0:0,0:0:0:0:
304,176,90470,1,0,0:0:0:0:
160,112,90670,1,0,0:0:0:0:
80,80,90870,1,8,0:0:0:0:
96,176,91070,1,0,0:0:0:0:
288,80,91270,6,0,L|368:144,1,70,8|0,0:0|0:0,0:0:0:0:
352,240,91670,6,0,L|272:256,1,70,8|0,0:0|0:0,0:0:0:0:
160,208,92070,6,0,L|192:128,1,70,8|0,0:0|0:0,0:0:0:0:
32,80,93270,6,0,L|144:96,1,105,8|0,0:0|0:0,0:0:0:0:
135,94,93670,2,0,L|176:160,1,70
224,144,94070,2,0,L|288:112,1,70,8|0,0:0|0:0,0:0:0:0:
368,160,94470,1,0,0:0:0:0:
512,288,94870,6,0,L|416:240,1,105,8|0,0:0|0:0,0:0:0:0:
418,241,95270,2,0,L|352:272,1,70
272,288,95670,2,0,L|208:240,1,70,8|0,0:0|0:0,0:0:0:0:
144,208,96070,2,0,L|96:192,4,35,0|0|0|0|8,0:0|0:0|0:0|0:0|0:0,0:0:0:0:
32,192,96670,1,0,0:0:0:0:
32,192,96770,1,0,0:0:0:0:
32,192,96870,1,0,0:0:0:0:
256,48,97670,5,4,0:0:0:0:
400,192,98070,5,4,0:0:0:0:
256,320,98470,5,4,0:0:0:0:
112,192,98870,5,4,0:0:0:0:
256,192,99270,12,4,100070,0:0:0:0:
0,96,112070,6,0,P|128:48|208:96,1,210
256,112,112870,1,0,0:0:0:0:
480,144,113470,1,0,0:0:0:0:
480,144,113670,2,0,P|352:96|288:128,1,210
272,144,114370,1,0,0:0:0:0:
256,160,114470,1,0,0:0:0:0:
160,256,115070,5,0,0:0:0:0:
160,256,115170,1,0,0:0:0:0:
160,256,115270,1,0,0:0:0:0:
208,192,115470,1,0,0:0:0:0:
256,256,115670,1,0,0:0:0:0:
256,112,115870,1,0,0:0:0:0:
352,240,116070,1,0,0:0:0:0:
320,48,116270,1,0,0:0:0:0:
464,240,116470,1,0,0:0:0:0:
448,96,116670,1,0,0:0:0:0:
352,160,116870,1,0,0:0:0:0:
240,208,117070,2,0,L|192:224,2,35
16,96,118070,5,0,0:0:0:0:
96,96,118270,1,0,0:0:0:0:
176,112,118470,2,0,P|272:176|208:240,1,210
176,256,119270,1,0,0:0:0:0:
416,80,119870,5,0,0:0:0:0:
416,80,119970,1,0,0:0:0:0:
416,80,120070,2,0,P|480:128|448:192,1,140
352,160,120870,1,0,0:0:0:0:
384,240,121070,1,0,0:0:0:0:
288,272,121470,1,0,0:0:0:0:
256,192,121670,1,0,0:0:0:0:
144,272,122270,5,0,0:0:0:0:
112,256,122370,1,0,0:0:0:0:
80,240,122470,1,0,0:0:0:0:
128,176,122670,1,0,0:0:0:0:
48,144,122870,1,0,0:0:0:0:
144,96,123070,1,0,0:0:0:0:
48,64,123270,1,0,0:0:0:0:
272,48,123670,1,0,0:0:0:0:
400,128,124070,1,0,0:0:0:0:
352,208,124270,1,0,0:0:0:0:
320,144,125070,6,0,P|240:96|192:128,1,140
160,144,125670,1,0,0:0:0:0:
96,192,125870,1,0,0:0:0:0:
144,256,126070,1,0,0:0:0:0:
208,208,126270,1,0,0:0:0:0:
288,256,126470,2,0,B|400:272|432:224|448:160,1,210
128,48,127470,6,0,P|112:80|144:112,1,70
176,128,127870,1,0,0:0:0:0:
240,112,128070,2,0,B|336:128|368:160|400:224|400:256,1,210
320,256,129070,1,0,0:0:0:0:
240,240,129270,1,0,0:0:0:0:
160,224,129470,1,0,0:0:0:0:
96,144,129670,6,0,P|112:64|160:48,1,140
224,96,130470,1,0,0:0:0:0:
304,64,130670,1,0,0:0:0:0:
368,128,130870,1,0,0:0:0:0:
288,176,131070,1,0,0:0:0:0:
208,192,131270,2,0,B|160:144|96:96|64:80|0:96,1,210
0,144,132070,1,0,0:0:0:0:
464,192,132670,5,0,0:0:0:0:
384,128,132870,1,0,0:0:0:0:
384,128,133070,1,0,0:0:0:0:
304,128,133470,1,0,0:0:0:0:
208,128,133870,1,0,0:0:0:0:
144,160,134070,1,0,0:0:0:0:
80,128,134270,1,0,0:0:0:0:
16,192,134470,6,0,B|64:272|112:288|192:288,1,210
272,288,135270,2,0,B|368:272|416:208|416:144,1,210
368,80,136070,2,0,B|288:32|224:32|144:96,1,210
96,128,136870,1,0,0:0:0:0:
432,304,137470,5,0,0:0:0:0:
432,304,137670,2,0,L|432:224,1,70
352,224,138270,1,0,0:0:0:0:
352,224,138470,2,0,L|352:144,1,70
272,160,139070,1,0,0:0:0:0:
272,160,139270,2,0,L|272:80,1,70
192,96,139870,1,0,0:0:0:0:
192,96,140070,2,0,L|96:96,1,70
122,96,140470,2,0,L|64:144,1,70
0,208,140870,6,0,P|64:256|128:224,1,140
176,192,141470,2,0,P|240:224|240:288,1,140
160,288,142270,2,0,L|112:288,2,35
416,112,143470,6,0,P|448:176|384:208,1,140
336,192,144070,1,0,0:0:0:0:
224,128,144670,1,0,0:0:0:0:
160,144,144870,1,0,0:0:0:0:
96,160,145070,1,0,0:0:0:0:
0,288,145470,1,0,0:0:0:0:
48,256,145670,2,0,P|128:240|192:240,1,140
256,256,146270,1,0,0:0:0:0:
368,240,146470,2,0,P|448:192|448:144,1,140
416,80,147070,2,0,L|352:64,11,35
144,64,148670,6,0,P|224:32|288:64,1,140
304,112,149270,1,0,0:0:0:0:
240,160,149470,2,0,L|176:224,1,70
190,209,149870,2,0,L|112:176,1,70
416,224,150870,6,0,P|480:176|448:128,1,140
368,96,151670,1,0,0:0:0:0:
288,96,151870,1,0,0:0:0:0:
320,176,152270,1,0,0:0:0:0:
240,176,152470,1,0,0:0:0:0:
32,96,153070,5,0,0:0:0:0:
0,160,153270,1,0,0:0:0:0:
32,224,153470,1,0,0:0:0:0:
96,176,153670,2,0,P|128:96|176:96,1,140
208,160,154270,2,0,P|192:240|128:240,1,140
96,112,155070,2,0,L|128:96,2,35
176,288,155870,6,0,P|256:320|320:288,1,140
303,302,156470,2,0,L|336:240,1,70
368,176,156870,1,0,0:0:0:0:
128,96,157470,1,0,0:0:0:0:
208,96,157670,1,0,0:0:0:0:
256,176,158270,1,0,0:0:0:0:
176,176,158470,1,0,0:0:0:0:
112,256,159070,1,0,0:0:0:0:
192,256,159270,1,0,0:0:0:0:
336,64,160070,5,0,0:0:0:0:
272,96,160270,1,0,0:0:0:0:
240,112,160370,1,0,0:0:0:0:
208,128,160470,1,0,0:0:0:0:
256,176,160670,1,0,0:0:0:0:
224,192,160770,1,0,0:0:0:0:
192,208,160870,1,0,0:0:0:0:
240,256,161070,1,0,0:0:0:0:
176,288,161270,1,0,0:0:0:0:
256,192,161470,12,4,163270,0:0:0:0:
416,240,171670,6,0,L|336:96,1,157.500006008148
304,80,172070,1,0,0:0:0:0:
80,192,172270,1,0,0:0:0:0:
272,288,172470,1,0,0:0:0:0:
192,48,172670,1,0,0:0:0:0:
128,304,172870,1,0,0:0:0:0:
144,272,173270,6,0,L|336:272,1,157.500006008148
336,272,173670,1,0,0:0:0:0:
176,176,173870,1,0,0:0:0:0:
304,176,174070,1,0,0:0:0:0:
80,80,174270,1,0,0:0:0:0:
400,80,174470,1,0,0:0:0:0:
288,48,174870,6,0,P|384:80|432:144,1,157.500006008148
432,160,175270,1,0,0:0:0:0:
352,288,175470,1,0,0:0:0:0:
224,128,175670,1,0,0:0:0:0:
176,288,175870,1,0,0:0:0:0:
16,160,176070,6,0,L|144:80,1,105.000004005432
272,128,176470,6,0,L|176:224,1,105.000004005432
368,208,176870,5,0,0:0:0:0:
144,288,178070,6,0,B|160:208|192:240|208:288|272:240,1,157.500006008148
304,224,178470,1,0,0:0:0:0:
448,160,178670,1,0,0:0:0:0:
288,48,178870,1,0,0:0:0:0:
160,160,179070,1,0,0:0:0:0:
0,96,179270,1,0,0:0:0:0:
416,48,179670,6,0,B|480:64|416:96|400:128|464:192,1,157.500006008148
464,208,180070,1,0,0:0:0:0:
384,304,180270,1,0,0:0:0:0:
112,256,180470,1,0,0:0:0:0:
320,160,180670,1,0,0:0:0:0:
96,80,180870,1,0,0:0:0:0:
16,64,181270,6,0,B|-64:80|32:112|64:160|-16:208,1,157.500006008148
0,224,181670,1,0,0:0:0:0:
144,320,181870,1,0,0:0:0:0:
400,288,182070,1,0,0:0:0:0:
464,112,182270,1,0,0:0:0:0:
368,240,182470,6,0,L|320:112,1,105.000004005432
128,240,182870,6,0,L|176:128,1,105.000004005432
256,64,183270,5,0,0:0:0:0:
352,32,184470,6,0,B|448:96|240:80|448:176|352:192,1,157.500006008148
384,208,184870,1,0,0:0:0:0:
288,256,185070,1,0,0:0:0:0:
32,96,185270,1,0,0:0:0:0:
240,80,185470,1,0,0:0:0:0:
48,304,185670,1,0,0:0:0:0:
112,320,186070,6,0,B|128:256|16:272|48:176,1,157.500006008148
64,160,186470,1,0,0:0:0:0:
160,96,186670,1,0,0:0:0:0:
224,288,186870,1,0,0:0:0:0:
432,192,187070,1,0,0:0:0:0:
448,288,187270,6,0,P|352:256|304:160,1,210.000008010865
256,64,187870,1,0,0:0:0:0:
224,80,187970,1,0,0:0:0:0:
192,96,188070,1,0,0:0:0:0:
112,80,188870,5,0,0:0:0:0:
352,256,189270,5,0,0:0:0:0:
352,80,189670,5,0,0:0:0:0:
112,256,190070,5,0,0:0:0:0:
256,192,190470,12,4,191270,0:0:0:0:
48,304,202470,5,0,0:0:0:0:
80,288,202570,1,0,0:0:0:0:
112,272,202670,1,0,0:0:0:0:
144,256,202770,1,0,0:0:0:0:
176,240,202870,1,0,0:0:0:0:
208,224,202970,1,0,0:0:0:0:
240,208,203070,1,0,0:0:0:0:
272,192,203170,1,0,0:0:0:0:
304,176,203270,2,0,L|432:96,1,140,0|8,0:0|0:0,0:0:0:0:
448,192,203870,1,0,0:0:0:0:
368,208,204070,6,0,L|240:112,1,140,8|0,0:0|0:0,0:0:0:0:
32,64,204870,6,0,L|96:96,1,70,8|0,0:0|0:0,0:0:0:0:
128,112,205270,1,0,0:0:0:0:
32,176,205470,1,0,0:0:0:0:
64,192,205570,1,0,0:0:0:0:
96,208,205670,1,8,0:0:0:0:
208,160,206070,1,0,0:0:0:0:
256,208,206270,1,0,0:0:0:0:
464,64,206470,6,0,L|320:80,1,140,8|0,0:0|0:0,0:0:0:0:
288,80,207070,1,0,0:0:0:0:
224,64,207270,2,0,L|96:128,1,140,8|0,0:0|0:0,0:0:0:0:
0,176,208070,5,8,0:0:0:0:
64,176,208270,1,0,0:0:0:0:
128,176,208470,1,0,0:0:0:0:
192,176,208670,1,0,0:0:0:0:
224,176,208770,1,0,0:0:0:0:
256,160,208870,1,8,0:0:0:0:
320,176,209070,1,8,0:0:0:0:
384,160,209270,1,8,0:0:0:0:
304,272,209670,6,8,L|160:240,1,140,8|0,0:0|0:0,0:0:0:0:
167,241,210270,2,8,L|128:176,1,70
64,144,210870,1,0,0:0:0:0:
144,32,211270,2,0,L|208:64,1,70,8|0,0:0|0:0,0:0:0:0:
240,80,211670,1,0,0:0:0:0:
320,64,211870,1,0,0:0:0:0:
320,64,211970,1,0,0:0:0:0:
320,64,212070,1,8,0:0:0:0:
400,64,212470,2,0,L|464:128,1,70,0|8,0:0|0:0,0:0:0:0:
0,64,212870,5,8,0:0:0:0:
0,96,212970,1,0,0:0:0:0:
0,128,213070,1,0,0:0:0:0:
64,96,213270,5,8,0:0:0:0:
80,128,213370,1,0,0:0:0:0:
96,160,213470,1,0,0:0:0:0:
176,128,213670,5,8,0:0:0:0:
192,160,213770,1,0,0:0:0:0:
208,192,213870,1,0,0:0:0:0:
288,160,214070,5,8,0:0:0:0:
304,192,214170,1,0,0:0:0:0:
320,224,214270,1,0,0:0:0:0:
400,192,214470,5,8,0:0:0:0:
416,224,214570,1,0,0:0:0:0:
432,256,214670,1,8,0:0:0:0:
112,64,214870,5,8,0:0:0:0:
128,96,214970,1,0,0:0:0:0:
144,128,215070,1,8,0:0:0:0:
224,96,215270,5,8,0:0:0:0:
240,128,215370,1,8,0:0:0:0:
256,160,215470,1,8,0:0:0:0:
384,80,215670,5,6,0:0:0:0:
0,304,216070,5,0,0:0:0:0:
80,304,216270,1,0,0:0:0:0:
112,304,216370,1,0,0:0:0:0:
144,304,216470,1,8,0:0:0:0:
96,224,216670,5,0,0:0:0:0:
64,224,216770,1,0,0:0:0:0:
32,224,216870,1,0,0:0:0:0:
0,128,217070,1,8,0:0:0:0:
112,144,217270,1,8,0:0:0:0:
224,64,217670,5,0,0:0:0:0:
288,96,217870,1,0,0:0:0:0:
352,128,218070,2,0,L|384:160,1,35,8|0,0:0|0:0,0:0:0:0:
376,152,218270,2,0,L|384:208,1,35
381,187,218470,2,0,L|352:224,1,35
320,224,218670,1,8,0:0:0:0:
240,192,218870,1,8,0:0:0:0:
0,144,219270,5,0,0:0:0:0:
0,224,219470,1,0,0:0:0:0:
64,224,219670,1,8,0:0:0:0:
64,144,219870,1,0,0:0:0:0:
96,144,219970,1,0,0:0:0:0:
128,144,220070,1,0,0:0:0:0:
128,224,220270,1,0,0:0:0:0:
208,224,220470,1,8,0:0:0:0:
208,144,220670,1,0,0:0:0:0:
400,144,220870,6,0,P|368:48|320:48,1,140,0|8,0:0|0:0,0:0:0:0:
288,208,221670,1,0,0:0:0:0:
192,96,221870,1,8,0:0:0:0:
128,224,222070,1,8,0:0:0:0:
64,112,222470,5,0,0:0:0:0:
16,176,222670,2,0,L|48:192,1,35
47,191,222870,2,0,L|128:176,1,70,8|0,0:0|0:0,0:0:0:0:
256,128,223270,1,0,0:0:0:0:
288,208,223470,2,0,L|256:224,1,35
256,223,223670,2,0,L|176:192,1,70,8|0,0:0|0:0,0:0:0:0:
368,112,224070,1,0,0:0:0:0:
384,192,224270,2,0,L|416:208,1,35
415,207,224470,2,0,L|480:176,1,70,8|0,0:0|0:0,0:0:0:0:
480,64,224870,2,0,L|448:48,1,35
448,48,225070,2,0,L|368:48,1,70,8|8,0:0|0:0,0:0:0:0:
304,48,225470,1,0,0:0:0:0:
272,48,225570,1,0,0:0:0:0:
240,48,225670,5,0,0:0:0:0:
160,48,225870,2,0,L|128:80,1,35
135,72,226070,2,0,L|48:96,1,70,8|0,0:0|0:0,0:0:0:0:
0,112,226470,2,0,L|0:144,1,35
0,143,226670,2,0,L|80:160,1,70,0|8,0:0|0:0,0:0:0:0:
144,176,227070,1,0,0:0:0:0:
400,80,227270,5,0,0:0:0:0:
400,80,227470,1,0,0:0:0:0:
320,160,227670,1,8,0:0:0:0:
320,160,227870,1,0,0:0:0:0:
240,80,228070,2,0,L|176:128,1,70
184,122,228370,2,0,L|176:160,1,35,0|8,0:0|0:0,0:0:0:0:
80,96,228670,1,0,0:0:0:0:
16,176,228870,5,0,0:0:0:0:
64,240,229070,1,0,0:0:0:0:
96,240,229170,1,0,0:0:0:0:
128,240,229270,1,8,0:0:0:0:
160,304,229470,1,0,0:0:0:0:
192,304,229570,1,0,0:0:0:0:
224,304,229670,1,0,0:0:0:0:
240,240,229870,1,0,0:0:0:0:
272,240,229970,1,0,0:0:0:0:
304,240,230070,1,8,0:0:0:0:
384,240,230270,1,0,0:0:0:0:
480,176,230470,5,0,0:0:0:0:
448,96,230670,1,0,0:0:0:0:
416,96,230770,1,0,0:0:0:0:
384,96,230870,1,8,0:0:0:0:
368,32,231070,1,0,0:0:0:0:
336,32,231170,1,0,0:0:0:0:
304,32,231270,1,0,0:0:0:0:
224,32,231470,1,8,0:0:0:0:
144,32,231670,1,8,0:0:0:0:
288,96,232070,5,0,0:0:0:0:
352,144,232270,2,0,L|352:192,1,35
352,179,232470,1,8,0:0:0:0:
272,176,232670,2,0,L|224:176,1,35
237,176,232870,1,0,0:0:0:0:
160,176,233070,2,0,L|160:128,1,35
160,141,233270,1,8,0:0:0:0:
160,80,233470,1,0,0:0:0:0:
32,320,233670,5,0,0:0:0:0:
96,320,233870,2,0,L|96:272,1,35
96,285,234070,1,8,0:0:0:0:
160,288,234270,1,0,0:0:0:0:
224,304,234470,1,0,0:0:0:0:
288,288,234670,1,8,0:0:0:0:
352,304,234870,1,8,0:0:0:0:
16,80,235270,5,0,0:0:0:0:
80,80,235470,1,0,0:0:0:0:
80,144,235670,1,8,0:0:0:0:
16,144,235870,1,0,0:0:0:0:
16,208,236070,2,0,L|32:240,1,35
31,239,236270,2,0,L|112:240,1,70,0|8,0:0|0:0,0:0:0:0:
432,80,236870,5,0,0:0:0:0:
368,80,237070,1,0,0:0:0:0:
368,144,237270,1,8,0:0:0:0:
432,144,237470,1,0,0:0:0:0:
432,208,237670,2,0,L|368:256,1,70
320,224,238070,1,8,0:0:0:0:
112,64,238470,6,0,L|144:128,1,70
143,126,238770,2,0,L|192:112,1,35,0|8,0:0|0:0,0:0:0:0:
240,96,239070,1,0,0:0:0:0:
240,256,239270,6,0,L|176:208,1,70
184,214,239570,2,0,L|144:224,1,35,0|8,0:0|0:0,0:0:0:0:
80,256,239870,1,0,0:0:0:0:
352,48,240070,6,0,L|416:96,1,70
408,90,240370,2,0,L|416:128,1,35,0|8,0:0|0:0,0:0:0:0:
416,192,240670,1,0,0:0:0:0:
0,48,240870,6,0,L|16:128,1,70
13,116,241170,1,0,0:0:0:0:
80,80,241270,6,0,L|96:160,1,70,8|0,0:0|0:0,0:0:0:0:
93,148,241570,1,0,0:0:0:0:
160,96,241670,6,0,L|176:192,1,70
171,165,241970,1,0,0:0:0:0:
240,112,242070,6,0,L|256:192,1,70
253,180,242370,1,0,0:0:0:0:
320,128,242470,6,0,L|336:208,1,70
333,196,242770,1,0,0:0:0:0:
256,256,242870,1,0,0:0:0:0:
304,320,243070,1,0,0:0:0:0:
208,320,243270,1,4,0:0:0:0:
0,288,250070,6,0,L|48:128,1,157.500006008148,8|0,0:0|0:0,0:0:0:0:
64,128,250470,1,0,0:0:0:0:
192,80,250670,1,0,0:0:0:0:
400,80,250870,1,8,0:0:0:0:
400,272,251070,1,0,0:0:0:0:
192,272,251270,1,0,0:0:0:0:
400,208,251670,6,0,P|432:96|384:80,1,157.500006008148,8|0,0:0|0:0,0:0:0:0:
400,80,252070,1,0,0:0:0:0:
288,272,252270,1,0,0:0:0:0:
224,112,252470,1,8,0:0:0:0:
96,320,252670,1,0,0:0:0:0:
0,80,252870,1,0,0:0:0:0:
0,272,253270,6,0,B|-32:208|48:224|32:128,1,157.500006008148,8|0,0:0|0:0,0:0:0:0:
48,96,253670,1,0,0:0:0:0:
160,256,253870,1,0,0:0:0:0:
384,96,254070,1,8,0:0:0:0:
448,288,254270,1,0,0:0:0:0:
208,96,254470,6,0,L|320:160,1,105.000004005432,8|0,0:0|0:0,0:0:0:0:
368,288,254870,6,0,L|256:240,1,105.000004005432,8|0,0:0|0:0,0:0:0:0:
64,160,255270,5,12,0:0:0:0:
240,304,256470,6,0,B|208:240|256:192|224:144,1,157.500006008148,8|0,0:0|0:0,0:0:0:0:
240,112,256870,1,0,0:0:0:0:
144,64,257070,1,0,0:0:0:0:
336,64,257270,1,8,0:0:0:0:
48,208,257470,1,0,0:0:0:0:
448,208,257670,1,0,0:0:0:0:
368,272,258070,6,0,B|304:256|224:288|192:256,1,157.500006008148,8|0,0:0|0:0,0:0:0:0:
176,256,258470,1,0,0:0:0:0:
16,176,258670,1,0,0:0:0:0:
128,48,258870,1,8,0:0:0:0:
352,48,259070,1,0,0:0:0:0:
496,176,259270,1,0,0:0:0:0:
448,288,259670,6,0,B|432:224|352:272|352:208|320:176,1,157.500006008148,8|0,0:0|0:0,0:0:0:0:
320,160,260070,1,0,0:0:0:0:
208,288,260270,1,0,0:0:0:0:
48,80,260470,1,8,0:0:0:0:
0,288,260670,1,0,0:0:0:0:
96,192,260870,6,0,L|208:112,1,105.000004005432,8|0,0:0|0:0,0:0:0:0:
304,48,261270,6,0,L|416:112,1,105.000004005432,8|0,0:0|0:0,0:0:0:0:
400,224,261670,5,12,0:0:0:0:
16,272,262870,6,0,B|64:160|64:160|96:208,1,157.500006008148,8|0,0:0|0:0,0:0:0:0:
96,224,263270,1,0,0:0:0:0:
176,112,263470,1,0,0:0:0:0:
240,288,263670,1,8,0:0:0:0:
336,32,263870,1,0,0:0:0:0:
464,304,264070,1,0,0:0:0:0:
160,320,264470,6,0,B|288:272|288:272|240:240,1,157.500006008148,8|0,0:0|0:0,0:0:0:0:
240,256,264870,1,0,0:0:0:0:
112,192,265070,1,0,0:0:0:0:
352,192,265270,1,8,0:0:0:0:
32,80,265470,1,0,0:0:0:0:
432,80,265670,1,0,0:0:0:0:
336,48,266070,6,0,B|368:96|320:112|400:208,1,157.500006008148,8|0,0:0|0:0,0:0:0:0:
416,224,266470,1,0,0:0:0:0:
336,320,266670,1,0,0:0:0:0:
112,320,266870,1,8,0:0:0:0:
0,144,267070,1,0,0:0:0:0:
176,48,267270,6,0,L|224:160,1,105.000004005432,8|0,0:0|0:0,0:0:0:0:
320,48,267670,6,0,L|272:160,1,105.000004005432,8|0,0:0|0:0,0:0:0:0:
240,208,268070,5,12,0:0:0:0:
128,80,269270,6,0,B|208:48|272:96|320:80,1,157.500006008148,8|0,0:0|0:0,0:0:0:0:
282,82,269670,2,0,L|384:160,1,105.000004005432
366,146,270070,2,0,L|288:224,1,105.000004005432,8|0,0:0|0:0,0:0:0:0:
224,272,270470,1,0,0:0:0:0:
368,288,270870,6,0,P|448:192|432:144,1,157.500006008148,8|0,0:0|0:0,0:0:0:0:
444,171,271270,2,0,L|352:112,1,105.000004005432
356,114,271670,2,0,L|256:192,1,105.000004005432,8|0,0:0|0:0,0:0:0:0:
176,176,272070,1,0,0:0:0:0:
32,64,272470,6,0,P|-32:96|16:128,1,157.500006008148,8|0,0:0|0:0,0:0:0:0:
15,128,272870,2,0,L|128:144,1,105.000004005432
119,142,273270,2,0,L|160:240,1,105.000004005432,8|0,0:0|0:0,0:0:0:0:
304,80,273670,6,0,P|384:112|416:160,1,105.000004005432,8|0,0:0|0:0,0:0:0:0:
320,272,274070,6,0,P|400:240|400:192,1,105.000004005432,8|0,0:0|0:0,0:0:0:0:
336,192,274470,5,12,0:0:0:0:
36,308,275270,5,0,0:0:0:0:
52,256,275370,1,0,0:0:0:0:
88,184,275470,1,0,0:0:0:0:
168,116,275570,1,0,0:0:0:0:
248,84,275670,2,0,B|320:64|400:96|448:192,1,210,8|0,0:0|0:0,0:0:0:0:
448,192,276070,1,0,0:0:0:0:
320,304,276270,1,0,0:0:0:0:
112,224,276470,1,8,0:0:0:0:
320,144,276670,1,0,0:0:0:0:
64,64,276870,1,0,0:0:0:0:
320,48,277270,6,0,B|384:96|288:128|400:256,1,210,8|0,0:0|0:0,0:0:0:0:
416,272,277670,1,0,0:0:0:0:
464,96,277870,1,0,0:0:0:0:
256,288,278070,1,8,0:0:0:0:
144,64,278270,1,0,0:0:0:0:
32,272,278470,1,0,0:0:0:0:
0,192,278870,6,0,B|-32:96|0:192|48:112|112:48,1,210,8|0,0:0|0:0,0:0:0:0:
112,32,279270,1,0,0:0:0:0:
160,304,279470,1,0,0:0:0:0:
320,64,279670,1,8,0:0:0:0:
400,304,279870,1,0,0:0:0:0:
464,176,280070,6,0,L|272:176,1,140,8|0,0:0|0:0,0:0:0:0:
0,176,280470,6,0,L|160:176,1,140,8|0,0:0|0:0,0:0:0:0:
240,256,280870,5,4,0:0:0:0:
240,320,282070,6,0,B|304:224|208:144|256:96,1,210,8|0,0:0|0:0,0:0:0:0:
256,80,282470,1,0,0:0:0:0:
432,80,282670,1,0,0:0:0:0:
480,256,282870,1,8,0:0:0:0:
112,64,283070,1,0,0:0:0:0:
32,256,283270,1,0,0:0:0:0:
96,176,283670,6,0,B|176:144|256:192|304:144,1,210,8|0,0:0|0:0,0:0:0:0:
336,128,284070,1,0,0:0:0:0:
432,80,284270,1,0,0:0:0:0:
432,256,284470,1,8,0:0:0:0:
64,256,284670,1,0,0:0:0:0:
64,80,284870,1,0,0:0:0:0:
384,272,285270,6,0,B|384:192|320:288|272:224|224:144,1,210,8|0,0:0|0:0,0:0:0:0:
208,128,285670,1,0,0:0:0:0:
48,48,285870,1,0,0:0:0:0:
112,272,286070,1,8,0:0:0:0:
480,128,286270,1,0,0:0:0:0:
304,192,286470,6,0,L|160:160,1,140,8|0,0:0|0:0,0:0:0:0:
32,192,286870,6,0,L|144:64,1,140,8|0,0:0|0:0,0:0:0:0:
256,112,287270,5,12,0:0:0:0:
160,256,288470,6,0,B|192:336|304:272|336:224,1,210,8|0,0:0|0:0,0:0:0:0:
352,192,288870,1,0,0:0:0:0:
448,112,289070,1,0,0:0:0:0:
240,48,289270,1,8,0:0:0:0:
16,96,289470,1,0,0:0:0:0:
0,304,289670,1,0,0:0:0:0:
352,48,290070,6,0,P|448:160|416:240,1,210,8|0,0:0|0:0,0:0:0:0:
416,240,290470,1,0,0:0:0:0:
96,64,290670,1,0,0:0:0:0:
272,80,290870,1,8,0:0:0:0:
64,224,291070,1,0,0:0:0:0:
272,272,291270,1,0,0:0:0:0:
160,48,291670,6,0,B|208:112|80:160|224:240,1,210,8|0,0:0|0:0,0:0:0:0:
256,240,292070,1,0,0:0:0:0:
384,144,292270,1,0,0:0:0:0:
32,288,292470,1,8,0:0:0:0:
16,64,292670,1,0,0:0:0:0:
64,208,292870,6,0,L|192:128,1,140,8|0,0:0|0:0,0:0:0:0:
448,224,293270,6,0,L|320:128,1,140,8|0,0:0|0:0,0:0:0:0:
256,128,293670,6,0,L|256:48,8,70,0|0|0|0|0|0|0|0|4,0:0|0:0|0:0|0:0|0:0|0:0|0:0|0:0|0:0,0:0:0:0:
64,64,294870,6,0,B|176:80|-48:160|80:256,1,210,8|0,0:0|0:0,0:0:0:0:
80,256,295270,1,0,0:0:0:0:
160,128,295470,2,0,L|320:64,1,140,0|8,0:0|0:0,0:0:0:0:
496,128,295870,1,0,0:0:0:0:
336,288,296070,1,0,0:0:0:0:
464,240,296470,6,0,B|416:320|400:176|352:208|256:256,1,210,8|0,0:0|0:0,0:0:0:0:
256,272,296870,1,0,0:0:0:0:
80,304,297070,1,0,0:0:0:0:
0,160,297270,1,8,0:0:0:0:
144,48,297470,1,0,0:0:0:0:
304,48,297670,6,0,P|400:80|320:224,1,280,0|8,0:0|0:0,0:0:0:0:
208,192,298270,1,0,0:0:0:0:
160,176,298370,1,0,0:0:0:0:
112,160,298470,1,0,0:0:0:0:
160,64,299270,6,0,L|352:64,1,140,0|4,0:0|0:0,0:0:0:0:
368,96,299670,6,0,L|368:256,1,140,8|4,0:0|0:0,0:0:0:0:
304,288,300070,6,0,L|112:288,1,140,8|4,0:0|0:0,0:0:0:0:
96,240,300470,6,0,L|96:80,1,140,8|4,0:0|0:0,0:0:0:0:
256,192,300870,12,4,301670,0:0:0:0:
