osu file format v12

[General]
AudioFilename: yuqinghuan.mp3
AudioLeadIn: 2000
PreviewTime: 16774
Countdown: 0
SampleSet: Soft
StackLeniency: 0.7
Mode: 0
LetterboxInBreaks: 0
WidescreenStoryboard: 0

[Editor]
Bookmarks: 80649
DistanceSpacing: 1.5
BeatDivisor: 4
GridSize: 4
TimelineZoom: 1

[Metadata]
Title:Tian Ji Xiao Meng
TitleUnicode:天機曉夢
Artist:Lain
ArtistUnicode:阿輪
Creator:Akabato
Version:Normal
Source:霹靂天啟
Tags:pili 小飛天 玉傾歡 yuqinghuan everything but the culture chinese classical Pasha_Khvan97 古風 中國風 布袋戲
BeatmapID:382446
BeatmapSetID:154238

[Difficulty]
HPDrainRate:4
CircleSize:3
OverallDifficulty:4
ApproachRate:4
SliderMultiplier:1
SliderTickRate:1

[Events]
//Background and Video events
0,0,"random bg.jpg",0,0
//Break Periods
2,48974,55454
//Storyboard Layer 0 (Background)
//Storyboard Layer 1 (Fail)
//Storyboard Layer 2 (Pass)
//Storyboard Layer 3 (Foreground)
//Storyboard Sound Samples
//Background Colour Transformations
3,100,163,162,255

[TimingPoints]
774,500,4,2,1,65,1,0
16774,-100,4,2,1,70,0,0
80774,-100,4,2,3,70,0,1
80899,-100,4,2,2,70,0,1
96774,-100,4,2,3,70,0,1
96899,-100,4,2,2,70,0,1
112774,-100,4,2,3,70,0,1
112899,-100,4,2,2,70,0,1
116774,-100,4,2,3,70,0,1
116899,-100,4,2,2,70,0,1
120774,-100,4,2,3,45,0,0

[Colours]
Combo1 : 183,150,203
Combo2 : 114,254,176
Combo3 : 128,128,192
Combo4 : 255,157,157

[HitObjects]
256,68,774,6,0,P|304:44|352:40,2,100,4|0|8,0:0|0:0|0:0,0:0:0:0:
340,192,2274,1,0,0:0:0:0:
324,340,2774,2,0,P|373:334|417:311,2,100,4|4|2,0:0|0:0|0:0,0:0:0:0:
340,192,4274,1,0,0:0:0:0:
200,248,4774,6,0,P|164:212|104:184,1,100,4|0,0:0|0:0,0:0:0:0:
76,45,5774,1,8,0:0:0:0:
224,80,6274,2,0,L|284:72,1,50
348,64,6774,2,0,P|388:96|416:144,1,100,4|4,0:0|0:0,0:0:0:0:
424,288,7774,1,2,0:0:0:0:
280,332,8274,1,0,0:0:0:0:
132,324,8774,6,0,P|88:304|56:256,1,100,4|0,0:0|0:0,0:0:0:0:
180,176,9774,2,0,P|220:144|240:88,1,100,8|0,0:0|0:0,0:0:0:0:
380,48,10774,2,0,L|440:24,2,50,4|0|4,0:0|0:0|0:0,0:0:0:0:
412,196,11774,2,0,P|456:232|470:276,1,100,2|0,0:0|0:0,0:0:0:0:
328,320,12774,5,4,0:0:0:0:
328,320,13274,1,0,0:0:0:0:
180,308,13774,2,0,P|128:300|80:272,1,100,8|0,0:0|0:0,0:0:0:0:
96,128,14774,1,4,0:0:0:0:
96,128,15024,2,0,L|124:72,1,50,0|4,0:0|0:0,0:0:0:0:
268,96,15774,2,0,P|316:80|376:80,1,100,2|0,0:0|0:0,0:0:0:0:
424,216,16774,6,0,P|396:256|384:320,1,100,4|0,0:0|0:0,0:0:0:0:
236,300,17774,2,0,L|136:316,1,100,8|0,0:0|0:0,0:0:0:0:
64,184,18774,2,0,P|56:160|56:116,1,50,4|0,0:0|0:0,0:0:0:0:
45,60,19274,1,4,0:0:0:0:
188,104,19774,2,0,B|217:111|256:80|299:90,1,100,2|0,0:0|0:0,0:0:0:0:
424,148,20774,5,4,0:0:0:0:
424,148,21274,1,0,0:0:0:0:
452,296,21774,2,0,P|400:296|356:280,1,100,8|0,0:0|0:0,0:0:0:0:
204,296,22774,2,0,L|176:340,2,50,4|0|4,0:0|0:0|0:0,0:0:0:0:
100,188,23774,2,0,P|76:148|72:87,1,100,2|0,0:0|0:0,0:0:0:0:
220,96,24774,5,4,0:0:0:0:
220,96,25024,2,0,L|280:76,1,50
412,48,25774,2,0,P|420:108|436:152,1,100,8|0,0:0|0:0,0:0:0:0:
404,292,26774,1,4,0:0:0:0:
256,320,27274,1,4,0:0:0:0:
108,292,27774,2,0,B|100:256|116:228|108:192,1,100,2|0,0:0|0:0,0:0:0:0:
256,172,28774,6,0,B|264:136|248:108|256:72,1,100,4|0,0:0|0:0,0:0:0:0:
108,100,29774,1,8,0:0:0:0:
108,100,30274,1,0,0:0:0:0:
108,248,30774,2,0,L|60:292,2,50,4|0|4,0:0|0:0|0:0,0:0:0:0:
256,276,31774,2,0,P|296:308|360:316,1,100,2|0,0:0|0:0,0:0:0:0:
356,168,32774,6,0,P|380:128|380:68,1,100,4|0,0:0|0:0,0:0:0:0:
232,88,33774,1,8,0:0:0:0:
88,128,34274,2,0,P|69:145|55:182,1,50
116,216,34774,2,0,P|156:248|184:288,1,100,4|4,0:0|0:0,0:0:0:0:
332,264,35774,2,0,L|440:292,1,100,2|0,0:0|0:0,0:0:0:0:
424,140,36774,5,4,0:0:0:0:
424,140,37274,1,0,0:0:0:0:
292,68,37774,2,0,P|244:64|184:80,1,100,8|0,0:0|0:0,0:0:0:0:
84,180,38774,2,0,L|24:208,2,50,4|0|4,0:0|0:0|0:0,0:0:0:0:
228,224,39774,2,0,P|248:268|256:328,1,100,2|0,0:0|0:0,0:0:0:0:
404,292,40774,5,4,0:0:0:0:
484,164,41274,2,0,P|444:140|380:140,1,100,0|8,0:0|0:0,0:0:0:0:
256,72,42274,2,0,L|192:88,1,50
135,105,42774,2,0,P|107:149|103:213,1,100,4|4,0:0|0:0,0:0:0:0:
192,316,43774,2,0,P|244:324|296:348,1,100,2|0,0:0|0:0,0:0:0:0:
400,244,44774,6,0,L|448:148,1,100,4|0,0:0|0:0,0:0:0:0:
332,56,45774,1,8,0:0:0:0:
180,56,46274,1,0,0:0:0:0:
256,184,46774,1,4,0:0:0:0:
256,192,47024,12,4,48774,0:0:0:0:
104,88,56774,5,4,0:0:0:0:
80,236,57274,2,0,P|128:240|180:212,1,100,0|8,0:0|0:0,0:0:0:0:
256,92,58274,1,0,0:0:0:0:
396,36,58774,2,0,P|412:80|396:140,1,100,4|4,0:0|0:0,0:0:0:0:
388,280,59774,2,0,L|424:324,2,50,2|0|0,0:0|0:0|0:0,0:0:0:0:
240,312,60774,5,4,0:0:0:0:
240,312,61274,2,0,P|192:292|144:288,1,100,0|8,0:0|0:0,0:0:0:0:
60,164,62274,1,0,0:0:0:0:
168,60,62774,2,0,L|268:44,1,100,4|4,0:0|0:0,0:0:0:0:
404,104,63774,1,2,0:0:0:0:
436,252,64274,2,0,P|436:280|443:318,1,50
369,329,64774,6,0,P|317:333|261:349,1,100,4|0,0:0|0:0,0:0:0:0:
144,264,65774,1,8,0:0:0:0:
144,264,66274,1,0,0:0:0:0:
44,150,66774,2,0,P|83:119|139:114,1,100,4|4,0:0|0:0,0:0:0:0:
276,152,67774,2,0,P|283:102|259:47,1,100,2|0,0:0|0:0,0:0:0:0:
416,40,68774,6,0,L|480:128,1,100,4|0,0:0|0:0,0:0:0:0:
428,264,69774,2,0,L|468:316,2,50,8|0|0,0:0|0:0|0:0,0:0:0:0:
280,288,70774,2,0,P|236:304|180:304,1,100,4|4,0:0|0:0,0:0:0:0:
88,188,71774,1,2,0:0:0:0:
88,188,72024,2,0,L|64:144,1,50
196,72,72774,5,4,0:0:0:0:
344,48,73274,2,0,P|400:56|440:84,1,100,0|8,0:0|0:0,0:0:0:0:
412,228,74274,2,0,L|436:280,1,50
372,316,74774,2,0,P|324:308|272:316,1,100,4|4,0:0|0:0,0:0:0:0:
124,296,75774,2,0,P|84:260|64:204,1,100,2|0,0:0|0:0,0:0:0:0:
164,104,76774,6,0,P|188:84|204:64,1,50,4|0,0:0|0:0,0:0:0:0:
272,48,77274,2,0,P|300:48|328:56,1,50,4|0,0:0|0:0,0:0:0:0:
404,180,78024,2,0,P|432:180|464:172,1,50,0|4,0:0|0:0,0:0:0:0:
388,312,78774,2,0,P|336:320|284:340,1,100,4|4,0:0|0:0,0:0:0:0:
144,312,79774,1,2,0:0:0:0:
72,180,80274,1,0,0:0:0:0:
164,64,80774,6,0,P|220:60|276:36,1,100,4|2,0:0|0:0,0:0:0:0:
388,124,81774,1,8,0:0:0:0:
388,124,82274,1,0,0:0:0:0:
456,256,82774,2,0,P|416:276|360:272,1,100,4|2,0:0|0:0,0:0:0:0:
216,304,83774,1,8,0:0:0:0:
216,304,84274,2,0,L|168:284,1,50
96,304,84774,6,0,P|104:248|141:214,1,100,4|2,0:0|0:0,0:0:0:0:
84,76,85774,2,0,P|134:65|184:76,1,100,8|0,0:0|0:0,0:0:0:0:
320,132,86774,1,4,0:0:0:0:
320,132,87274,1,2,0:0:0:0:
464,84,87774,2,0,P|476:132|464:188,1,100,8|0,0:0|0:0,0:0:0:0:
378,302,88774,6,0,L|402:346,2,50,4|0|2,0:0|0:0|0:0,0:0:0:0:
228,308,89774,2,0,P|177:303|132:278,1,100,8|0,0:0|0:0,0:0:0:0:
56,152,90774,1,4,0:0:0:0:
56,152,91274,1,2,0:0:0:0:
176,64,91774,2,0,P|200:108|200:168,1,100,8|0,0:0|0:0,0:0:0:0:
120,284,92774,6,0,L|80:328,2,50,4|0|2,0:0|0:0|0:0,0:0:0:0:
256,220,93774,1,8,0:0:0:0:
256,220,94274,1,0,0:0:0:0:
392,284,94774,2,0,L|432:328,2,50,4|0|2,0:0|0:0|0:0,0:0:0:0:
436,140,95774,2,0,B|428:104|380:100|372:56,1,100,8|0,0:0|0:0,0:0:0:0:
224,60,96774,6,0,P|180:84|132:92,1,100,4|2,0:0|0:0,0:0:0:0:
76,232,97774,1,8,0:0:0:0:
76,232,98274,1,0,0:0:0:0:
208,304,98774,2,0,P|256:312|308:304,1,100,4|2,0:0|0:0,0:0:0:0:
428,216,99774,1,8,0:0:0:0:
428,216,100274,2,0,P|432:188|452:152,1,50
408,100,100774,6,0,P|356:88|312:60,1,100,4|2,0:0|0:0,0:0:0:0:
168,88,101774,1,8,0:0:0:0:
68,200,102274,2,0,P|72:224|68:260,1,50
140,276,102774,2,0,P|174:303|240:332,1,100,4|2,0:0|0:0,0:0:0:0:
368,288,103774,2,0,P|404:252|448:228,1,100,8|0,0:0|0:0,0:0:0:0:
388,88,104774,6,0,L|436:48,2,50,4|0|2,0:0|0:0|0:0,0:0:0:0:
236,68,105774,2,0,P|188:64|136:76,1,100,8|0,0:0|0:0,0:0:0:0:
100,220,106774,1,4,0:0:0:0:
100,220,107274,1,2,0:0:0:0:
184,344,107774,2,0,P|224:312|240:252,1,100,8|0,0:0|0:0,0:0:0:0:
384,316,108774,6,0,L|432:348,2,50,4|0|2,0:0|0:0|0:0,0:0:0:0:
472,192,109774,1,8,0:0:0:0:
376,76,110274,2,0,L|324:76,1,50
256,52,110774,2,0,P|212:76|160:88,1,100,4|6,0:0|0:0,0:0:0:0:
84,216,111774,1,12,0:0:0:0:
84,216,112274,1,0,0:0:0:0:
192,320,112774,5,4,0:0:0:0:
192,320,113274,1,2,0:0:0:0:
340,344,113774,2,0,P|388:336|444:300,1,100,8|0,0:0|0:0,0:0:0:0:
480,168,114774,2,0,L|440:68,1,100,4|2,0:0|0:0,0:0:0:0:
292,68,115774,2,0,L|240:32,2,50,8|0|0,0:0|0:0|0:0,0:0:0:0:
176,164,116774,5,4,0:0:0:0:
176,164,117274,1,2,0:0:0:0:
300,252,117774,2,0,B|280:266|269:291|269:291|243:296|224:311,1,100,8|0,0:0|0:0,0:0:0:0:
256,192,118774,12,4,120774,0:0:0:0:
