osu file format v6

[General]
AudioFilename: mydelerium.mp3
AudioLeadIn: 0
PreviewTime: 62319
Countdown: 1
SampleSet: Soft
StackLeniency: 0.7
Mode: 0
LetterboxInBreaks: 1

[Editor]
Bookmarks: 17133,36736,62339,87943,97519,107123,132718,158320,187134,212739,238341
DistanceSpacing: 0.800000011920929
BeatDivisor: 2
GridSize: 8

[Metadata]
Title:My Delirium
Artist:Ladyhawke
Creator:Luigi4444
Version:Hard
Source:
Tags:Delirium Ladyhawke

[Difficulty]
HPDrainRate:6
CircleSize:5
OverallDifficulty:7
SliderMultiplier:1.6
SliderTickRate:2

[Events]
//Background and Video events
0,0,"yalqy4b..jpg"
Video,-448,"Ladyhawke - My Delirium-2.flv"
//Break Periods
2,49715,61817
2,120125,132227
2,158130,186634
//Storyboard Layer 0 (Background)
//Storyboard Layer 1 (Fail)
//Storyboard Layer 2 (Pass)
//Storyboard Layer 3 (Foreground)
//Storyboard Sound Samples
//Background Colour Transformations
3,100,163,162,255

[TimingPoints]
4710,400.053340445393,4,2,0,80,1,0
62313,-100,4,1,0,85,0,1
74519,-100,4,2,0,80,0,0
74919,-100,4,1,0,100,0,1
87943,-100,4,2,0,80,0,0
132718,-100,4,1,0,100,0,1
132727,-100,4,1,0,100,0,1
158320,-100,4,2,0,80,0,0
187134,-100,4,1,0,100,0,1
212739,-100,4,1,0,100,0,0
212939,-100,4,1,0,100,0,1
238341,-100,4,2,0,80,0,0

[HitObjects]
256,192,17511,1,0
256,192,17911,2,0,B|296:240|256:320|184:272,1,160
136,240,18511,1,0
104,120,18911,2,0,B|96:56|216:40|208:112,1,160
264,216,19712,1,0
328,104,20112,1,0
328,104,20312,1,0
96,216,21112,6,0,B|96:152|176:128|216:184,1,160
272,152,21712,1,0
272,216,21912,1,0
272,216,22112,2,0,B|256:280|160:288|160:192,1,160
104,104,22912,1,0
232,104,23312,1,0
232,104,23512,2,0,B|312:16|384:144,2,160
232,104,24512,1,0
192,96,27513,5,2
320,96,27913,1,2
232,264,28513,2,2,B|128:264,2,80
200,208,29113,1,0
136,208,29313,2,2,B|136:96|240:96,1,160
184,56,29913,1,2
336,56,30713,6,0,B|424:128|368:240,1,160
216,304,31713,1,0
216,304,31913,2,2,B|112:304,6,80
344,304,33513,1,8
344,112,34113,1,4
112,72,37114,6,0,B|288:72,2,160
112,136,38114,1,0
112,328,38714,2,0,B|200:360|272:312,1,160
264,248,39314,1,0
312,208,39514,1,0
264,168,39714,1,0
216,128,39914,1,4
400,312,40314,6,0,B|224:312,2,160
400,248,41314,1,0
400,56,41914,2,0,B|312:24|240:72,1,160
248,136,42515,1,0
200,176,42715,1,0
248,216,42915,1,0
296,256,43115,1,4
248,296,43315,5,0
200,344,43515,1,0
104,256,43915,1,0
104,128,44315,2,2,B|64:80|128:40,1,80
240,48,44915,1,8
368,48,45315,1,8
368,176,45715,2,2,B|400:208|368:256,1,80
256,208,46315,12,4,49515
256,192,62717,5,4
256,192,63917,1,4
256,192,64117,1,0
256,192,64317,1,4
176,88,64718,2,4,B|64:120|104:256,1,160
120,272,65318,1,0
168,312,65518,1,4
232,320,65718,1,0
296,320,65918,1,12
296,256,66118,5,8
296,192,66318,5,0
176,152,66718,2,0,B|248:56|360:168,1,160,8|0
360,240,67518,1,8
360,304,67718,1,8
168,304,68318,1,8
168,176,68718,6,0,B|256:136|336:184,2,160
248,72,69918,1,0
320,176,70318,2,0,B|224:128|136:192|136:192|128:200,2,160
248,280,71518,1,0
184,280,71718,1,0
256,208,71918,12,0,74719
256,192,75519,5,4
256,192,76719,1,4
256,192,76919,1,0
256,192,77119,1,4
336,296,77519,2,4,B|448:264|408:128,1,160
392,112,78119,1,0
344,72,78319,1,4
280,64,78519,1,0
216,64,78719,1,12
216,128,78919,5,8
216,192,79119,5,0
336,232,79519,2,0,B|264:328|152:216,1,160,8|0
152,144,80320,1,8
152,80,80520,1,8
344,80,81120,1,8
344,208,81520,6,0,B|256:248|176:200,2,160
270,312,82720,1,0
192,208,83120,2,0,B|288:256|376:192|376:192|384:184,2,160
272,108,84320,1,0
336,107,84520,1,0
256,208,84720,12,6,87521
256,192,88321,5,0
256,192,88721,1,0
456,40,89521,2,0,B|488:96|432:152,1,80
454,244,90121,2,0,B|390:316|302:268,1,160
247,250,90721,1,0
88,48,91521,6,0,B|32:160|136:264,1,160
88,264,92121,1,0
152,264,92321,1,0
152,200,92521,2,0,B|208:88|104:-16,1,160
280,40,93321,6,0,B|368:40,2,80
216,40,93921,1,0
256,208,94121,12,6,97522
256,192,97922,6,0,B|216:144|256:64|328:112,1,160,2|0
376,144,98522,1,2
408,264,98922,2,2,B|416:328|296:344|304:272,1,160
248,168,99722,1,0
184,280,100122,1,8
184,280,100322,1,8
416,168,101122,6,2,B|416:232|336:256|296:200,1,160
240,232,101722,1,0
240,168,101922,1,0
240,168,102122,2,2,B|256:104|352:96|352:192,1,160
408,280,102923,1,0
280,280,103323,1,0
280,280,103523,2,0,B|200:368|128:240,2,160
148,271,104723,1,0
56,176,105123,1,0
152,96,105523,1,0
280,96,105923,2,2,B|448:96,1,160
440,224,106723,1,0
312,224,107123,1,4
400,312,107523,6,2,B|224:312,2,160
400,248,108523,1,8
400,56,109123,2,2,B|312:24|240:72,1,160
248,136,109724,1,0
200,176,109924,1,0
248,216,110124,1,0
296,256,110324,1,4
112,72,110724,6,2,B|288:72,2,160
112,136,111724,1,8
112,328,112324,2,2,B|200:360|272:312,1,160
264,248,112924,1,0
312,208,113124,1,0
264,168,113324,1,0
216,128,113524,1,4
264,88,113724,5,8
312,40,113924,1,8
408,128,114324,1,8
408,256,114724,2,4,B|448:304|384:344,1,80
272,336,115324,1,2
144,336,115724,1,2
144,208,116124,2,8,B|112:176|144:128,1,80
256,208,116724,12,6,119925
256,192,133127,5,4
256,192,134327,1,4
256,192,134527,1,0
256,192,134727,1,4
336,296,135127,2,4,B|448:264|408:128,1,160
392,112,135727,1,0
344,72,135927,1,4
280,64,136127,1,0
216,64,136327,1,12
216,128,136527,5,8
216,192,136727,5,0
336,232,137127,2,0,B|264:328|152:216,1,160,8|0
152,144,137927,1,8
152,80,138127,1,8
344,80,138727,1,8
344,208,139127,6,0,B|256:248|176:200,2,160
264,312,140328,1,0
192,208,140728,2,0,B|288:256|376:192|376:192|384:184,2,160
264,104,141928,1,0
328,104,142128,1,0
256,208,142328,12,0,145128
256,192,145928,5,4
256,192,147128,1,4
256,192,147329,1,0
256,192,147529,1,4
176,88,147929,2,4,B|64:120|104:256,1,160
120,272,148529,1,0
168,312,148729,1,4
232,320,148929,1,0
296,320,149129,1,12
296,256,149329,5,8
296,192,149529,5,0
176,152,149929,2,0,B|248:56|360:168,1,160,8|0
360,240,150729,1,8
360,304,150929,1,8
168,304,151529,1,8
168,176,151929,6,0,B|256:136|336:184,2,160
242,72,153129,1,0
320,176,153529,2,0,B|224:128|136:192|136:192|128:200,2,160
240,276,154730,1,0
176,277,154930,1,0
256,208,155130,12,0,157930
256,192,187534,5,4
256,192,188734,1,4
256,192,188934,1,0
256,192,189134,1,4
336,88,189534,2,4,B|448:120|408:256,1,160
392,272,190134,1,0
344,312,190334,1,4
280,320,190534,1,0
216,320,190734,1,12
216,256,190934,5,8
216,192,191134,5,0
336,152,191534,2,0,B|264:56|152:168,1,160,8|0
152,240,192335,1,8
152,304,192535,1,8
344,304,193135,1,8
344,176,193535,6,0,B|256:136|176:184,2,160
264,72,194735,1,0
192,176,195135,2,0,B|288:128|376:192|376:192|384:200,2,160
264,280,196335,1,0
328,280,196535,1,0
256,208,196735,12,0,199535
256,192,200336,5,4
256,192,201536,1,4
256,192,201736,1,0
256,192,201936,1,4
176,296,202336,2,4,B|64:264|104:128,1,160
120,112,202936,1,0
168,72,203136,1,4
232,64,203336,1,0
296,64,203536,1,12
296,128,203736,5,8
296,192,203936,5,0
176,232,204336,2,0,B|248:328|360:216,1,160,8|0
360,144,205136,1,8
360,80,205336,1,8
168,80,205936,1,8
168,208,206336,6,0,B|256:248|336:200,2,160
242,312,207537,1,0
320,208,207937,2,0,B|224:256|136:192|136:192|128:184,2,160
240,108,209137,1,0
176,107,209337,1,0
256,208,209537,12,0,212337
256,192,213137,5,4
256,192,214337,1,4
256,192,214537,1,0
256,192,214738,1,4
176,296,215138,2,4,B|64:264|104:128,1,160
120,112,215738,1,0
168,72,215938,1,4
232,64,216138,1,0
296,64,216338,1,12
296,128,216538,5,8
296,192,216738,5,0
176,232,217138,2,0,B|248:328|360:216,1,160,8|0
360,144,217938,1,8
360,80,218138,1,8
168,80,218738,1,8
168,208,219138,6,0,B|256:248|336:200,2,160
248,312,220338,1,0
320,208,220738,2,0,B|224:256|136:192|136:192|128:184,2,160
248,104,221938,1,0
184,104,222138,1,0
256,208,222339,12,0,225139
256,192,225939,5,4
256,192,227139,1,4
256,192,227339,1,0
256,192,227539,1,4
336,88,227939,2,4,B|448:120|408:256,1,160
392,272,228539,1,0
344,312,228739,1,4
280,320,228939,1,0
216,320,229139,1,12
216,256,229339,5,8
216,192,229539,5,0
336,152,229940,2,0,B|264:56|152:168,1,160,8|0
152,240,230740,1,8
152,304,230940,1,8
344,304,231540,1,8
344,176,231940,6,0,B|256:136|176:184,2,160
270,72,233140,1,0
192,176,233540,2,0,B|288:128|376:192|376:192|384:200,2,160
272,276,234740,1,0
336,277,234940,1,0
256,208,235140,12,0,237941
