osu file format v14

[General]
AudioFilename: Lady Gaga - The Cure.mp3
AudioLeadIn: 0
PreviewTime: 163309
Countdown: 0
SampleSet: Normal
StackLeniency: 0.3
Mode: 1
LetterboxInBreaks: 0
EpilepsyWarning: 1
WidescreenStoryboard: 1

[Editor]
Bookmarks: 9709,205009
DistanceSpacing: 1.3
BeatDivisor: 4
GridSize: 32
TimelineZoom: 1.5

[Metadata]
Title:The Cure
TitleUnicode:The Cure
Artist:Lady Gaga
ArtistUnicode:Lady Gaga
Creator:Gero
Version:Futsuu
Source:
Tags:Beren ErufenRito Xanandra mancusojuanmattos mancuso_JM_ Skubi CptSqBany English Pop Disco Dance Rock Dive Bar Tour Battered Interscope Records Billboard Hot 100 Haus of Gaga Mother Monster Stefani Joanne Angelina Germanotta Coachella DJ White Shadow Lukas Nelson Mark Nilan Nick Monson
BeatmapID:1328132
BeatmapSetID:629209

[Difficulty]
HPDrainRate:7
CircleSize:4
OverallDifficulty:2.5
ApproachRate:10
SliderMultiplier:1.4
SliderTickRate:2

[Events]
//Background and Video events
0,0,"BG.jpg",0,120
//Break Periods
//Storyboard Layer 0 (Background)
//Storyboard Layer 1 (Fail)
//Storyboard Layer 2 (Pass)
//Storyboard Layer 3 (Foreground)
//Storyboard Layer 4 (Overlay)
//Storyboard Sound Samples

[TimingPoints]
9709,600,4,1,0,60,1,0
28909,-100,4,1,0,70,0,0
45709,-100,4,1,0,30,0,0
48109,-100,4,1,0,80,0,1
67309,-100,4,1,0,80,0,0
76909,-100,4,1,0,60,0,0
96109,-100,4,1,0,70,0,0
112909,-100,4,1,0,30,0,0
115309,-100,4,1,0,80,0,1
134509,-100,4,1,0,80,0,0
142909,-100,4,1,0,70,0,0
144109,600,4,1,0,60,1,8
144409,600,4,1,0,50,1,0
154009,-100,4,1,0,65,0,8
161209,-100,4,1,0,40,0,8
162409,-100,4,1,0,60,0,0
162709,-100,4,1,0,75,0,0
163009,-100,4,1,0,90,0,0
163309,600,4,1,0,80,1,1
163309,-100,4,1,0,80,0,1
182509,-100,4,1,0,80,0,0
201709,600,4,1,0,40,1,8
202009,600,4,1,0,30,1,0

[Colours]
Combo1 : 211,120,65
Combo2 : 215,166,91
Combo3 : 107,157,199
Combo4 : 205,198,58
SliderBorder : 63,63,63

[HitObjects]
256,192,9709,5,0,0:0:0:0:
256,192,10309,1,8,0:0:0:0:
256,192,10909,1,0,0:0:0:0:
256,192,11509,1,8,0:0:0:0:
256,192,12109,1,0,0:0:0:0:
256,192,13309,1,8,0:0:0:0:
256,192,14509,1,0,0:0:0:0:
256,192,15109,1,8,0:0:0:0:
256,192,15709,1,0,0:0:0:0:
256,192,16309,1,8,0:0:0:0:
256,192,16909,1,0,0:0:0:0:
256,192,17509,1,8,0:0:0:0:
256,192,17809,1,8,0:0:0:0:
256,192,18409,1,0,0:0:0:0:
256,192,19309,1,0,0:0:0:0:
256,192,19909,1,8,0:0:0:0:
256,192,20509,1,0,0:0:0:0:
256,192,21109,1,8,0:0:0:0:
256,192,21709,1,0,0:0:0:0:
256,192,22909,1,8,0:0:0:0:
256,192,24109,1,0,0:0:0:0:
256,192,24709,1,8,0:0:0:0:
256,192,25309,1,0,0:0:0:0:
256,192,25909,1,8,0:0:0:0:
256,192,26509,1,0,0:0:0:0:
256,192,27109,1,8,0:0:0:0:
256,192,27409,1,8,0:0:0:0:
256,192,28009,1,8,0:0:0:0:
256,192,28909,1,0,0:0:0:0:
256,192,29509,1,0,0:0:0:0:
256,192,30109,1,8,0:0:0:0:
256,192,31309,1,0,0:0:0:0:
256,192,31909,1,0,0:0:0:0:
256,192,32509,1,8,0:0:0:0:
256,192,33109,1,8,0:0:0:0:
256,192,33709,1,0,0:0:0:0:
256,192,34309,1,0,0:0:0:0:
256,192,34909,1,8,0:0:0:0:
256,192,36109,1,0,0:0:0:0:
256,192,37309,1,8,0:0:0:0:
256,192,37909,1,8,0:0:0:0:
256,192,38509,1,0,0:0:0:0:
256,192,39409,1,0,0:0:0:0:
256,192,39709,1,8,0:0:0:0:
256,192,40009,1,0,0:0:0:0:
256,192,40309,1,0,0:0:0:0:
256,192,40909,1,0,0:0:0:0:
256,192,41509,1,0,0:0:0:0:
256,192,41809,1,0,0:0:0:0:
256,192,42109,1,8,0:0:0:0:
256,192,42709,1,8,0:0:0:0:
256,192,43309,1,0,0:0:0:0:
256,192,44209,1,0,0:0:0:0:
256,192,44509,1,8,0:0:0:0:
256,192,44809,1,8,0:0:0:0:
256,192,45109,1,0,0:0:0:0:
256,192,45709,1,0,0:0:0:0:
256,192,48109,1,4,0:0:0:0:
256,192,48709,1,0,0:0:0:0:
256,192,49009,1,0,0:0:0:0:
256,192,49309,1,8,0:0:0:0:
256,192,49609,1,0,0:0:0:0:
256,192,49909,1,8,0:0:0:0:
256,192,50509,1,0,0:0:0:0:
256,192,50809,1,0,0:0:0:0:
256,192,51109,1,8,0:0:0:0:
256,192,51409,1,8,0:0:0:0:
256,192,51709,1,0,0:0:0:0:
256,192,52309,1,8,0:0:0:0:
256,192,52909,1,0,0:0:0:0:
256,192,53509,1,0,0:0:0:0:
256,192,53809,1,0,0:0:0:0:
256,192,54109,1,8,0:0:0:0:
256,192,54409,1,0,0:0:0:0:
256,192,54709,1,8,0:0:0:0:
256,192,55309,1,0,0:0:0:0:
256,192,55609,1,8,0:0:0:0:
256,192,56209,1,8,0:0:0:0:
256,192,56509,1,0,0:0:0:0:
256,192,56809,1,0,0:0:0:0:
256,192,57109,1,8,0:0:0:0:
256,192,57709,1,4,0:0:0:0:
256,192,58909,1,8,0:0:0:0:
256,192,59209,1,0,0:0:0:0:
256,192,59509,1,8,0:0:0:0:
256,192,60109,1,0,0:0:0:0:
256,192,60709,1,8,0:0:0:0:
256,192,61009,1,0,0:0:0:0:
256,192,61309,1,8,0:0:0:0:
256,192,61609,1,0,0:0:0:0:
256,192,61909,1,8,0:0:0:0:
256,192,62509,1,0,0:0:0:0:
256,192,63109,1,8,0:0:0:0:
256,192,63709,1,8,0:0:0:0:
256,192,64009,1,0,0:0:0:0:
256,192,64309,1,8,0:0:0:0:
256,192,64909,1,0,0:0:0:0:
256,192,66109,1,8,0:0:0:0:
256,192,66709,1,8,0:0:0:0:
256,192,67309,1,4,0:0:0:0:
256,192,67909,1,8,0:0:0:0:
256,192,68209,1,0,0:0:0:0:
256,192,68809,1,0,0:0:0:0:
256,192,69109,1,8,0:0:0:0:
256,192,69709,1,0,0:0:0:0:
256,192,70309,1,8,0:0:0:0:
256,192,70609,1,0,0:0:0:0:
256,192,71209,1,0,0:0:0:0:
256,192,71509,1,8,0:0:0:0:
256,192,72109,1,0,0:0:0:0:
256,192,72709,1,8,0:0:0:0:
256,192,73009,1,0,0:0:0:0:
256,192,73609,1,0,0:0:0:0:
256,192,73909,1,8,0:0:0:0:
256,192,74509,1,0,0:0:0:0:
256,192,75109,1,8,0:0:0:0:
256,192,75409,1,0,0:0:0:0:
256,192,75709,1,0,0:0:0:0:
256,192,76909,1,0,0:0:0:0:
256,192,77509,1,8,0:0:0:0:
256,192,78109,1,0,0:0:0:0:
256,192,78709,1,8,0:0:0:0:
256,192,79309,1,0,0:0:0:0:
256,192,80509,1,8,0:0:0:0:
256,192,81709,1,0,0:0:0:0:
256,192,82309,1,8,0:0:0:0:
256,192,82909,1,0,0:0:0:0:
256,192,83509,1,8,0:0:0:0:
256,192,84109,1,0,0:0:0:0:
256,192,84709,1,8,0:0:0:0:
256,192,85009,1,8,0:0:0:0:
256,192,85609,1,8,0:0:0:0:
256,192,86509,1,0,0:0:0:0:
256,192,87109,1,8,0:0:0:0:
256,192,87709,1,0,0:0:0:0:
256,192,88309,1,8,0:0:0:0:
256,192,88909,1,0,0:0:0:0:
256,192,90109,1,8,0:0:0:0:
256,192,91309,1,0,0:0:0:0:
256,192,91909,1,8,0:0:0:0:
256,192,92509,1,0,0:0:0:0:
256,192,93109,1,8,0:0:0:0:
256,192,93709,1,0,0:0:0:0:
256,192,94309,1,8,0:0:0:0:
256,192,94609,1,8,0:0:0:0:
256,192,95209,1,8,0:0:0:0:
256,192,96109,1,0,0:0:0:0:
256,192,97009,1,0,0:0:0:0:
256,192,97309,1,8,0:0:0:0:
256,192,97609,1,0,0:0:0:0:
256,192,97909,1,0,0:0:0:0:
256,192,98509,1,0,0:0:0:0:
256,192,99109,1,0,0:0:0:0:
256,192,99709,1,8,0:0:0:0:
256,192,100309,1,8,0:0:0:0:
256,192,100909,1,0,0:0:0:0:
256,192,101809,1,0,0:0:0:0:
256,192,102109,1,8,0:0:0:0:
256,192,102409,1,0,0:0:0:0:
256,192,102709,1,0,0:0:0:0:
256,192,103309,1,0,0:0:0:0:
256,192,104509,1,8,0:0:0:0:
256,192,104809,1,0,0:0:0:0:
256,192,105109,1,8,0:0:0:0:
256,192,105709,1,0,0:0:0:0:
256,192,106609,1,0,0:0:0:0:
256,192,106909,1,8,0:0:0:0:
256,192,107209,1,0,0:0:0:0:
256,192,107509,1,0,0:0:0:0:
256,192,108109,1,0,0:0:0:0:
256,192,108709,1,0,0:0:0:0:
256,192,109309,1,8,0:0:0:0:
256,192,109909,1,8,0:0:0:0:
256,192,110509,1,0,0:0:0:0:
256,192,111409,1,0,0:0:0:0:
256,192,111709,1,8,0:0:0:0:
256,192,112009,1,8,0:0:0:0:
256,192,112309,1,0,0:0:0:0:
256,192,112909,1,0,0:0:0:0:
256,192,115309,1,4,0:0:0:0:
256,192,115909,1,0,0:0:0:0:
256,192,116209,1,0,0:0:0:0:
256,192,116509,1,8,0:0:0:0:
256,192,116809,1,0,0:0:0:0:
256,192,117109,1,8,0:0:0:0:
256,192,117709,1,0,0:0:0:0:
256,192,118009,1,0,0:0:0:0:
256,192,118309,1,8,0:0:0:0:
256,192,118609,1,8,0:0:0:0:
256,192,118909,1,0,0:0:0:0:
256,192,119509,1,8,0:0:0:0:
256,192,120109,1,0,0:0:0:0:
256,192,120709,1,0,0:0:0:0:
256,192,121009,1,0,0:0:0:0:
256,192,121309,1,8,0:0:0:0:
256,192,121609,1,0,0:0:0:0:
256,192,121909,1,8,0:0:0:0:
256,192,122509,1,0,0:0:0:0:
256,192,122809,1,8,0:0:0:0:
256,192,123409,1,8,0:0:0:0:
256,192,123709,1,0,0:0:0:0:
256,192,124009,1,0,0:0:0:0:
256,192,124309,1,8,0:0:0:0:
256,192,124909,1,4,0:0:0:0:
256,192,126109,1,8,0:0:0:0:
256,192,126409,1,0,0:0:0:0:
256,192,126709,1,8,0:0:0:0:
256,192,127309,1,0,0:0:0:0:
256,192,127909,1,8,0:0:0:0:
256,192,128209,1,0,0:0:0:0:
256,192,128509,1,8,0:0:0:0:
256,192,128809,1,0,0:0:0:0:
256,192,129109,1,8,0:0:0:0:
256,192,129709,1,0,0:0:0:0:
256,192,130309,1,8,0:0:0:0:
256,192,130909,1,8,0:0:0:0:
256,192,131209,1,0,0:0:0:0:
256,192,131509,1,8,0:0:0:0:
256,192,132109,1,0,0:0:0:0:
256,192,133309,1,8,0:0:0:0:
256,192,133909,1,8,0:0:0:0:
256,192,134509,1,4,0:0:0:0:
256,192,135109,1,8,0:0:0:0:
256,192,135409,1,0,0:0:0:0:
256,192,136009,1,0,0:0:0:0:
256,192,136309,1,8,0:0:0:0:
256,192,136909,1,0,0:0:0:0:
256,192,137509,1,8,0:0:0:0:
256,192,137809,1,0,0:0:0:0:
256,192,138409,1,0,0:0:0:0:
256,192,138709,1,8,0:0:0:0:
256,192,139309,1,0,0:0:0:0:
256,192,139909,1,8,0:0:0:0:
256,192,140209,1,0,0:0:0:0:
256,192,140809,1,0,0:0:0:0:
256,192,141109,1,8,0:0:0:0:
256,192,141709,1,0,0:0:0:0:
256,192,142309,1,8,0:0:0:0:
256,192,142609,1,0,0:0:0:0:
256,192,142909,1,0,0:0:0:0:
256,192,144409,1,8,0:0:0:0:
256,192,145009,1,0,0:0:0:0:
256,192,145609,1,8,0:0:0:0:
256,192,146209,1,8,0:0:0:0:
256,192,146809,1,0,0:0:0:0:
256,192,148009,1,8,0:0:0:0:
256,192,148309,1,8,0:0:0:0:
256,192,149209,1,8,0:0:0:0:
256,192,149809,1,0,0:0:0:0:
256,192,150409,1,8,0:0:0:0:
256,192,151009,1,8,0:0:0:0:
256,192,151609,1,0,0:0:0:0:
256,192,152809,1,8,0:0:0:0:
256,192,153109,1,8,0:0:0:0:
256,192,154009,1,8,0:0:0:0:
256,192,154609,1,0,0:0:0:0:
256,192,155209,1,8,0:0:0:0:
256,192,155809,1,8,0:0:0:0:
256,192,156409,1,0,0:0:0:0:
256,192,157609,1,8,0:0:0:0:
256,192,157909,1,8,0:0:0:0:
256,192,158809,1,0,0:0:0:0:
256,192,160009,1,8,0:0:0:0:
256,192,160309,1,8,0:0:0:0:
256,192,160609,1,0,0:0:0:0:
256,192,161209,1,0,0:0:0:0:
256,192,162409,1,8,0:0:0:0:
256,192,162709,1,0,0:0:0:0:
256,192,163309,1,4,0:0:0:0:
256,192,163909,1,0,0:0:0:0:
256,192,164209,1,0,0:0:0:0:
256,192,164509,1,8,0:0:0:0:
256,192,164809,1,0,0:0:0:0:
256,192,165109,1,8,0:0:0:0:
256,192,165709,1,0,0:0:0:0:
256,192,166009,1,0,0:0:0:0:
256,192,166309,1,8,0:0:0:0:
256,192,166609,1,8,0:0:0:0:
256,192,166909,1,0,0:0:0:0:
256,192,167509,1,8,0:0:0:0:
256,192,168109,1,0,0:0:0:0:
256,192,168709,1,0,0:0:0:0:
256,192,169009,1,0,0:0:0:0:
256,192,169309,1,8,0:0:0:0:
256,192,169609,1,0,0:0:0:0:
256,192,169909,1,8,0:0:0:0:
256,192,170509,1,0,0:0:0:0:
256,192,170809,1,8,0:0:0:0:
256,192,171409,1,8,0:0:0:0:
256,192,171709,1,0,0:0:0:0:
256,192,172009,1,0,0:0:0:0:
256,192,172309,1,8,0:0:0:0:
256,192,172909,1,4,0:0:0:0:
256,192,174109,1,8,0:0:0:0:
256,192,174409,1,0,0:0:0:0:
256,192,174709,1,8,0:0:0:0:
256,192,175309,1,0,0:0:0:0:
256,192,175909,1,8,0:0:0:0:
256,192,176209,1,0,0:0:0:0:
256,192,176509,1,8,0:0:0:0:
256,192,176809,1,0,0:0:0:0:
256,192,177109,1,8,0:0:0:0:
256,192,177709,1,0,0:0:0:0:
256,192,178309,1,8,0:0:0:0:
256,192,178909,1,8,0:0:0:0:
256,192,179209,1,0,0:0:0:0:
256,192,179509,1,8,0:0:0:0:
256,192,180109,1,0,0:0:0:0:
256,192,181309,1,8,0:0:0:0:
256,192,181909,1,8,0:0:0:0:
256,192,182509,1,4,0:0:0:0:
256,192,183109,1,8,0:0:0:0:
256,192,183409,1,0,0:0:0:0:
256,192,184009,1,0,0:0:0:0:
256,192,184309,1,8,0:0:0:0:
256,192,184909,1,0,0:0:0:0:
256,192,185509,1,8,0:0:0:0:
256,192,185809,1,0,0:0:0:0:
256,192,186409,1,0,0:0:0:0:
256,192,186709,1,8,0:0:0:0:
256,192,187309,1,0,0:0:0:0:
256,192,187909,1,8,0:0:0:0:
256,192,188209,1,0,0:0:0:0:
256,192,188809,1,0,0:0:0:0:
256,192,189109,1,8,0:0:0:0:
256,192,189709,1,0,0:0:0:0:
256,192,190309,1,8,0:0:0:0:
256,192,190609,1,0,0:0:0:0:
256,192,190909,1,0,0:0:0:0:
256,192,192109,1,4,0:0:0:0:
256,192,192709,1,8,0:0:0:0:
256,192,193009,1,0,0:0:0:0:
256,192,193609,1,0,0:0:0:0:
256,192,193909,1,8,0:0:0:0:
256,192,194509,1,0,0:0:0:0:
256,192,195109,1,8,0:0:0:0:
256,192,195409,1,0,0:0:0:0:
256,192,196009,1,0,0:0:0:0:
256,192,196309,1,8,0:0:0:0:
256,192,196909,1,0,0:0:0:0:
256,192,197509,1,8,0:0:0:0:
256,192,197809,1,0,0:0:0:0:
256,192,198409,1,0,0:0:0:0:
256,192,198709,1,8,0:0:0:0:
256,192,199309,1,0,0:0:0:0:
256,192,199909,1,8,0:0:0:0:
256,192,200209,1,0,0:0:0:0:
256,192,200509,1,8,0:0:0:0:
256,192,201109,1,8,0:0:0:0:
256,192,201409,1,0,0:0:0:0:
256,192,202009,1,8,0:0:0:0:
256,192,203209,1,0,0:0:0:0:
256,192,204409,1,8,0:0:0:0:
256,192,205009,1,8,0:0:0:0:
