osu file format v5

[General]
AudioFilename: Lady Gaga - Poker Face.mp3
AudioLeadIn: 0
PreviewTime: -1
Countdown: 1
SampleSet: Normal
StackLeniency: 0.7
Mode: 0
LetterboxInBreaks: 1
EditorBookmarks: 27899

[Metadata]
Title:Poker Face
Artist:Lady Gaga
Creator:Tri-Edge
Version:Hard
Source:
Tags:

[Difficulty]
HPDrainRate:5
CircleSize:5
OverallDifficulty:5
SliderMultiplier:1.4
SliderTickRate:1

[Events]
//Background and Video events
//Break Periods
//Storyboard Layer 0 (Background)
//Storyboard Layer 1 (Failing)
//Storyboard Layer 2 (Passing)
//Storyboard Layer 3 (Foreground)
//Storyboard Sound Samples
//Background Colour Transformations
3,100,163,162,255

[TimingPoints]
27900,504.2,4,1,0,100,1,0

[HitObjects]
320,160,31177,1,0
256,192,31429,1,8
256,160,31681,1,0
256,160,31933,1,0
288,160,32437,1,8
256,160,33446,1,8
256,192,34454,1,8
256,192,35210,1,0
256,192,35462,1,8
256,192,35715,1,0
256,192,35967,1,0
256,192,36471,1,8
256,192,37479,1,8
256,192,38488,1,8
256,192,39496,1,8
128,320,40504,1,8
256,192,41513,1,8
256,192,42521,1,8
256,192,43530,1,8
256,192,44538,1,8
256,192,45546,1,8
256,192,46555,1,8
256,192,47563,1,8
256,192,48572,1,8
256,192,49580,1,8
256,192,50588,1,8
256,192,51597,1,8
256,192,52605,1,8
256,192,53614,1,8
256,192,54622,1,8
256,192,55630,1,8
256,192,56639,1,8
256,192,57647,1,8
256,192,58656,1,8
256,192,59664,1,8
256,192,60672,1,8
256,192,61681,1,8
256,192,62689,1,8
256,192,63698,1,8
256,192,64706,1,8
256,192,65714,1,8
256,192,68488,1,0
256,192,68740,1,0
256,192,68992,1,0
256,192,69496,1,0
256,192,69748,1,0
256,192,70000,1,0
256,192,70504,1,0
256,192,70756,1,0
256,192,71009,1,0
256,192,71261,1,0
256,192,71765,1,0
256,192,72269,1,0
256,192,72773,1,0
256,192,73025,1,0
256,192,74160,1,0
256,192,74412,1,0
256,192,74664,1,0
256,192,74916,1,0
256,192,75168,1,0
256,192,75420,1,0
256,192,75672,1,0
256,192,75925,1,0
256,192,76555,1,0
256,192,76807,1,0
256,192,77059,1,0
256,192,77563,1,0
256,192,77815,1,0
256,192,78067,1,0
256,192,78572,1,0
256,192,78824,1,0
256,192,79076,1,0
256,192,79328,1,0
256,192,79832,1,0
256,192,80336,1,0
256,192,80840,1,0
256,192,81093,1,0
256,192,82353,1,0
256,192,82605,1,0
256,192,82857,1,0
256,192,83109,1,0
256,192,83361,1,0
256,192,83614,1,0
256,192,83866,1,0
256,192,84118,1,0
256,192,84496,1,0
256,192,84748,1,0
256,192,85000,1,0
256,192,85252,1,0
256,192,85504,1,0
256,192,85756,1,0
256,192,86009,1,0
256,192,86261,1,0
256,192,86513,1,0
256,192,86765,1,0
256,192,87017,1,0
256,192,87647,1,0
256,192,87899,1,0
256,192,88151,1,0
256,192,88403,1,0
