osu file format v14

[General]
AudioFilename: Lady Gaga - Perfect Illusion.mp3
AudioLeadIn: 0
PreviewTime: 110968
Countdown: 0
SampleSet: Soft
StackLeniency: 0.2
Mode: 0
LetterboxInBreaks: 0
WidescreenStoryboard: 1

[Editor]
Bookmarks: 358,80998,95398,142438,155878,178918
DistanceSpacing: 0.9
BeatDivisor: 4
GridSize: 4
TimelineZoom: 1

[Metadata]
Title:Perfect Illusion
TitleUnicode:Perfect Illusion
Artist:Lady Gaga
ArtistUnicode:Lady Gaga
Creator:Gero
Version:Relaxing Past
Source:
Tags:Disco Dance Rock Dive Bar Tour Battered Interscope Records Billboard Hot 100 Scream Queens Fox Haus of Gaga Mother Monster Stefani Joanne Angelina Germanotta Kevin Parker Mark Ronson BloodPop Josh Homme Ex's Ex Boyfriend Unrequited Love
BeatmapID:1128529
BeatmapSetID:516296

[Difficulty]
HPDrainRate:3
CircleSize:3.5
OverallDifficulty:3
ApproachRate:4
SliderMultiplier:1.2
SliderTickRate:2

[Events]
//Background and Video events
0,0,"BG.jpg",0,0
Video,0,"Video.flv"
//Break Periods
2,81198,94078
2,142638,154558
//Storyboard Layer 0 (Background)
//Storyboard Layer 1 (Fail)
//Storyboard Layer 2 (Pass)
//Storyboard Layer 3 (Foreground)
//Storyboard Sound Samples
Sample,16198,0,"soft-hitclap.wav",60
Sample,16918,0,"soft-hitwhistle.wav",60
Sample,17398,0,"soft-hitwhistle.wav",60
Sample,18118,0,"soft-hitclap.wav",60
Sample,18838,0,"soft-hitwhistle.wav",60
Sample,19318,0,"soft-hitwhistle.wav",60
Sample,20758,0,"soft-hitwhistle.wav",60
Sample,21238,0,"soft-hitwhistle.wav",60
Sample,22678,0,"soft-hitwhistle.wav",60
Sample,23158,0,"soft-hitwhistle.wav",60
Sample,23878,0,"soft-hitclap.wav",60
Sample,24598,0,"soft-hitwhistle.wav",60
Sample,25078,0,"soft-hitwhistle.wav",60
Sample,25798,0,"soft-hitclap.wav",60
Sample,26518,0,"soft-hitwhistle.wav",60
Sample,26998,0,"soft-hitwhistle.wav",60
Sample,28438,0,"soft-hitwhistle.wav",60
Sample,28918,0,"soft-hitwhistle.wav",60
Sample,29638,0,"soft-hitwhistle.wav",60
Sample,30118,0,"soft-hitwhistle.wav",60
Sample,30358,0,"soft-hitwhistle.wav",60
Sample,34678,0,"soft-hitwhistle.wav",70
Sample,35398,0,"soft-hitclap.wav",70
Sample,35398,0,"normal-hitnormal.wav",70
Sample,35398,0,"normal-hitwhistle.wav",70
Sample,35878,0,"soft-hitwhistle.wav",70
Sample,36118,0,"soft-hitwhistle.wav",70
Sample,37318,0,"normal-hitnormal.wav",70
Sample,37318,0,"normal-hitwhistle.wav",70
Sample,37318,0,"soft-hitclap.wav",70
Sample,37798,0,"soft-hitwhistle.wav",70
Sample,38038,0,"soft-hitwhistle.wav",70
Sample,38518,0,"soft-hitwhistle.wav",70
Sample,39238,0,"soft-hitclap.wav",70
Sample,39238,0,"normal-hitnormal.wav",70
Sample,39238,0,"normal-hitwhistle.wav",70
Sample,39718,0,"soft-hitwhistle.wav",70
Sample,39958,0,"soft-hitwhistle.wav",70
Sample,42358,0,"soft-hitwhistle.wav",70
Sample,43078,0,"normal-hitnormal.wav",70
Sample,43078,0,"soft-hitclap.wav",70
Sample,43078,0,"normal-hitwhistle.wav",70
Sample,43558,0,"soft-hitwhistle.wav",70
Sample,43798,0,"soft-hitwhistle.wav",70
Sample,44998,0,"normal-hitwhistle.wav",70
Sample,44998,0,"normal-hitnormal.wav",70
Sample,44998,0,"soft-hitclap.wav",70
Sample,45478,0,"soft-hitwhistle.wav",70
Sample,45718,0,"soft-hitwhistle.wav",70
Sample,47638,0,"soft-hitwhistle.wav",40
Sample,47878,0,"soft-hitwhistle.wav",40
Sample,48358,0,"soft-hitwhistle.wav",40
Sample,49078,0,"soft-hitwhistle.wav",40
Sample,50758,0,"soft-hitclap.wav",60
Sample,51478,0,"soft-hitwhistle.wav",60
Sample,51958,0,"soft-hitwhistle.wav",60
Sample,53398,0,"soft-hitwhistle.wav",60
Sample,53878,0,"soft-hitwhistle.wav",60
Sample,54598,0,"soft-hitclap.wav",60
Sample,55078,0,"soft-hitwhistle.wav",60
Sample,55318,0,"soft-hitwhistle.wav",60
Sample,55798,0,"soft-hitwhistle.wav",60
Sample,56518,0,"soft-hitclap.wav",60
Sample,56998,0,"soft-hitwhistle.wav",60
Sample,57238,0,"soft-hitwhistle.wav",60
Sample,57718,0,"soft-hitwhistle.wav",60
Sample,59158,0,"soft-hitwhistle.wav",60
Sample,59638,0,"soft-hitwhistle.wav",60
Sample,60358,0,"soft-hitclap.wav",60
Sample,60838,0,"soft-hitwhistle.wav",60
Sample,61078,0,"soft-hitwhistle.wav",60
Sample,61558,0,"soft-hitwhistle.wav",60
Sample,62998,0,"soft-hitwhistle.wav",60
Sample,63478,0,"soft-hitwhistle.wav",60
Sample,64198,0,"soft-hitwhistle.wav",60
Sample,64918,0,"soft-hitwhistle.wav",60
Sample,69238,0,"soft-hitwhistle.wav",70
Sample,69958,0,"normal-hitnormal.wav",70
Sample,69958,0,"soft-hitclap.wav",70
Sample,69958,0,"normal-hitwhistle.wav",70
Sample,70438,0,"soft-hitwhistle.wav",70
Sample,70678,0,"soft-hitwhistle.wav",70
Sample,71878,0,"normal-hitwhistle.wav",70
Sample,71878,0,"normal-hitnormal.wav",70
Sample,71878,0,"soft-hitclap.wav",70
Sample,72358,0,"soft-hitwhistle.wav",70
Sample,72598,0,"soft-hitwhistle.wav",70
Sample,73078,0,"soft-hitwhistle.wav",70
Sample,73798,0,"soft-hitclap.wav",70
Sample,73798,0,"normal-hitwhistle.wav",70
Sample,73798,0,"normal-hitnormal.wav",70
Sample,74278,0,"soft-hitwhistle.wav",70
Sample,74518,0,"soft-hitwhistle.wav",70
Sample,76918,0,"soft-hitwhistle.wav",70
Sample,77638,0,"soft-hitclap.wav",70
Sample,77638,0,"normal-hitnormal.wav",70
Sample,77638,0,"normal-hitwhistle.wav",70
Sample,78118,0,"soft-hitwhistle.wav",70
Sample,78358,0,"soft-hitwhistle.wav",70
Sample,79558,0,"normal-hitnormal.wav",70
Sample,79558,0,"soft-hitclap.wav",70
Sample,79558,0,"normal-hitwhistle.wav",70
Sample,80038,0,"soft-hitwhistle.wav",70
Sample,80278,0,"soft-hitwhistle.wav",70
Sample,80758,0,"soft-hitwhistle.wav",70
Sample,95638,0,"soft-hitwhistle.wav",60
Sample,96118,0,"soft-hitwhistle.wav",60
Sample,96838,0,"soft-hitwhistle.wav",60
Sample,97318,0,"soft-hitwhistle.wav",60
Sample,97558,0,"soft-hitwhistle.wav",60
Sample,98038,0,"drum-hitfinish.wav",60
Sample,98038,0,"drum-hitnormal.wav",60
Sample,98518,0,"drum-hitnormal.wav",60
Sample,98518,0,"drum-hitfinish.wav",60
Sample,98758,0,"soft-hitwhistle.wav",60
Sample,98998,0,"drum-hitfinish.wav",60
Sample,98998,0,"drum-hitnormal.wav",60
Sample,99238,0,"soft-hitwhistle.wav",60
Sample,99478,0,"soft-hitwhistle.wav",60
Sample,99958,0,"drum-hitnormal.wav",60
Sample,99958,0,"drum-hitfinish.wav",60
Sample,100678,0,"soft-hitwhistle.wav",60
Sample,101158,0,"soft-hitwhistle.wav",60
Sample,101398,0,"soft-hitwhistle.wav",60
Sample,101638,0,"soft-hitwhistle.wav",60
Sample,101638,0,"soft-hitclap.wav",60
Sample,102598,0,"soft-hitwhistle.wav",60
Sample,102598,0,"soft-hitclap.wav",60
Sample,103078,0,"soft-hitclap.wav",60
Sample,103078,0,"soft-hitwhistle.wav",60
Sample,103318,0,"soft-hitwhistle.wav",60
Sample,103558,0,"soft-hitclap.wav",60
Sample,103558,0,"soft-hitwhistle.wav",60
Sample,104518,0,"soft-hitwhistle.wav",60
Sample,104998,0,"soft-hitwhistle.wav",60
Sample,105478,0,"soft-hitwhistle.wav",60
Sample,105718,0,"soft-hitwhistle.wav",60
Sample,105718,0,"drum-hitnormal.wav",60
Sample,105958,0,"soft-hitwhistle.wav",60
Sample,106438,0,"soft-hitwhistle.wav",60
Sample,106918,0,"soft-hitwhistle.wav",60
Sample,107398,0,"soft-hitwhistle.wav",60
Sample,107638,0,"soft-hitwhistle.wav",60
Sample,107638,0,"drum-hitnormal.wav",60
Sample,107878,0,"drum-hitnormal.wav",60
Sample,107878,0,"soft-hitwhistle.wav",60
Sample,108118,0,"drum-hitnormal.wav",60
Sample,108118,0,"soft-hitwhistle.wav",60
Sample,108358,0,"drum-hitnormal.wav",60
Sample,108358,0,"soft-hitwhistle.wav",60
Sample,108598,0,"soft-hitwhistle.wav",60
Sample,108598,0,"drum-hitnormal.wav",60
Sample,108838,0,"drum-hitwhistle.wav",60
Sample,108838,0,"normal-hitnormal.wav",60
Sample,109078,0,"normal-hitnormal.wav",60
Sample,109078,0,"drum-hitwhistle.wav",60
Sample,109318,0,"drum-hitwhistle.wav",60
Sample,109318,0,"normal-hitnormal.wav",60
Sample,109558,0,"drum-hitwhistle.wav",60
Sample,109558,0,"normal-hitnormal.wav",60
Sample,110278,0,"soft-hitclap.wav",60
Sample,110278,0,"soft-hitfinish.wav",60
Sample,110518,0,"soft-hitwhistle.wav",60
Sample,110518,0,"soft-hitwhistle.wav",60
Sample,110758,0,"soft-hitfinish.wav",60
Sample,110758,0,"soft-hitwhistle.wav",60
Sample,110758,0,"soft-hitclap.wav",60
Sample,110998,0,"soft-hitwhistle.wav",70
Sample,111238,0,"soft-hitclap.wav",60
Sample,111238,0,"soft-hitfinish.wav",60
Sample,111478,0,"soft-hitwhistle.wav",60
Sample,115318,0,"soft-hitwhistle.wav",70
Sample,116038,0,"normal-hitwhistle.wav",70
Sample,116038,0,"soft-hitclap.wav",70
Sample,116038,0,"normal-hitnormal.wav",70
Sample,116518,0,"soft-hitwhistle.wav",70
Sample,116758,0,"soft-hitwhistle.wav",70
Sample,117238,0,"soft-hitwhistle.wav",70
Sample,117958,0,"soft-hitclap.wav",70
Sample,117958,0,"normal-hitnormal.wav",70
Sample,117958,0,"normal-hitwhistle.wav",70
Sample,118438,0,"soft-hitwhistle.wav",70
Sample,118678,0,"soft-hitwhistle.wav",70
Sample,119158,0,"soft-hitwhistle.wav",70
Sample,119878,0,"normal-hitnormal.wav",70
Sample,119878,0,"soft-hitclap.wav",70
Sample,119878,0,"normal-hitwhistle.wav",70
Sample,120358,0,"soft-hitwhistle.wav",70
Sample,120598,0,"soft-hitwhistle.wav",70
Sample,122998,0,"soft-hitwhistle.wav",70
Sample,123718,0,"normal-hitnormal.wav",70
Sample,123718,0,"normal-hitwhistle.wav",70
Sample,123718,0,"soft-hitclap.wav",70
Sample,124198,0,"soft-hitwhistle.wav",70
Sample,124438,0,"soft-hitwhistle.wav",70
Sample,125638,0,"normal-hitwhistle.wav",70
Sample,125638,0,"soft-hitclap.wav",70
Sample,125638,0,"normal-hitnormal.wav",70
Sample,126118,0,"soft-hitwhistle.wav",70
Sample,126358,0,"soft-hitwhistle.wav",70
Sample,126838,0,"soft-hitwhistle.wav",70
Sample,127558,0,"normal-hitnormal.wav",70
Sample,127558,0,"soft-hitclap.wav",70
Sample,127558,0,"normal-hitwhistle.wav",70
Sample,128038,0,"soft-hitwhistle.wav",70
Sample,128278,0,"soft-hitwhistle.wav",70
Sample,128758,0,"soft-hitwhistle.wav",70
Sample,129478,0,"normal-hitnormal.wav",70
Sample,129478,0,"normal-hitwhistle.wav",70
Sample,129478,0,"soft-hitclap.wav",70
Sample,129958,0,"soft-hitwhistle.wav",70
Sample,130198,0,"soft-hitwhistle.wav",70
Sample,130678,0,"soft-hitwhistle.wav",70
Sample,131398,0,"normal-hitwhistle.wav",70
Sample,131398,0,"soft-hitclap.wav",70
Sample,131398,0,"normal-hitnormal.wav",70
Sample,131878,0,"soft-hitwhistle.wav",70
Sample,132118,0,"soft-hitwhistle.wav",70
Sample,132598,0,"soft-hitwhistle.wav",70
Sample,133318,0,"soft-hitclap.wav",70
Sample,133318,0,"normal-hitnormal.wav",70
Sample,133318,0,"normal-hitwhistle.wav",70
Sample,134038,0,"soft-hitwhistle.wav",70
Sample,134518,0,"soft-hitwhistle.wav",70
Sample,135238,0,"soft-hitclap.wav",70
Sample,135238,0,"normal-hitnormal.wav",70
Sample,135238,0,"normal-hitwhistle.wav",70
Sample,135718,0,"soft-hitwhistle.wav",70
Sample,135958,0,"soft-hitwhistle.wav",70
Sample,136438,0,"soft-hitwhistle.wav",70
Sample,137158,0,"normal-hitnormal.wav",70
Sample,137158,0,"soft-hitclap.wav",70
Sample,137158,0,"normal-hitwhistle.wav",70
Sample,137638,0,"soft-hitwhistle.wav",70
Sample,137878,0,"soft-hitwhistle.wav",70
Sample,138358,0,"soft-hitwhistle.wav",70
Sample,139078,0,"normal-hitwhistle.wav",70
Sample,139078,0,"soft-hitclap.wav",70
Sample,139078,0,"normal-hitnormal.wav",70
Sample,139558,0,"soft-hitwhistle.wav",70
Sample,139798,0,"soft-hitwhistle.wav",70
Sample,140278,0,"soft-hitwhistle.wav",70
Sample,140998,0,"soft-hitclap.wav",70
Sample,140998,0,"normal-hitnormal.wav",70
Sample,140998,0,"normal-hitwhistle.wav",70
Sample,141718,0,"soft-hitwhistle.wav",70
Sample,142198,0,"soft-hitwhistle.wav",70
Sample,156358,0,"soft-hitclap.wav",60
Sample,156598,0,"soft-hitwhistle.wav",60
Sample,157078,0,"soft-hitwhistle.wav",60
Sample,157318,0,"soft-hitclap.wav",60
Sample,157558,0,"soft-hitwhistle.wav",60
Sample,158278,0,"normal-hitwhistle.wav",70
Sample,158278,0,"normal-hitnormal.wav",70
Sample,158278,0,"soft-hitclap.wav",70
Sample,158998,0,"soft-hitwhistle.wav",70
Sample,159478,0,"soft-hitwhistle.wav",70
Sample,160918,0,"soft-hitwhistle.wav",70
Sample,161398,0,"soft-hitwhistle.wav",70
Sample,162838,0,"soft-hitwhistle.wav",70
Sample,163318,0,"soft-hitwhistle.wav",70
Sample,164758,0,"soft-hitwhistle.wav",70
Sample,165238,0,"soft-hitwhistle.wav",70
Sample,166678,0,"soft-hitwhistle.wav",70
Sample,167158,0,"soft-hitwhistle.wav",70
Sample,168598,0,"soft-hitwhistle.wav",70
Sample,169078,0,"soft-hitwhistle.wav",70
Sample,170518,0,"soft-hitwhistle.wav",70
Sample,170998,0,"soft-hitwhistle.wav",70
Sample,172438,0,"soft-hitwhistle.wav",70
Sample,172918,0,"soft-hitwhistle.wav",70

[TimingPoints]
358,480,4,2,1,50,1,0
358,-100,4,2,1,50,0,0
8038,-100,4,2,1,60,0,0
15718,-100,4,2,1,70,0,0
31078,-100,4,2,1,80,0,1
46438,-100,4,2,1,50,0,0
49558,-100,4,2,2,60,0,0
50278,-100,4,2,1,70,0,0
65638,-100,4,2,1,80,0,1
80998,-100,4,2,1,70,0,0
111718,-100,4,2,1,80,0,1
126958,-100,4,2,1,80,0,0
127078,-100,4,2,1,80,0,1
142438,-100,4,2,1,70,0,0
157798,-100,4,2,1,80,0,1
173158,-83.3333333333333,4,2,1,50,0,0
176518,-100,4,2,1,45,0,0
176998,-100,4,2,1,40,0,0
177478,-100,4,2,1,30,0,0
177958,-100,4,2,1,20,0,0
178438,-100,4,2,1,10,0,0
178918,-100,4,2,3,5,0,0

[Colours]
Combo1 : 211,120,65
Combo2 : 215,166,91
Combo3 : 107,157,199
Combo4 : 205,198,58
SliderBorder : 63,63,63

[HitObjects]
490,320,358,6,0,B|446:292|446:224|490:192|490:192|446:160|446:92|490:64,1,300,2|2,0:1|0:1,0:0:0:0:
338,120,2278,2,0,B|382:232|290:268|233:192|290:116|382:152|338:264,1,300,2|2,0:1|0:1,0:0:0:0:
174,264,4198,6,0,B|130:152|222:116|279:192|222:268|130:232|174:120,1,300,2|2,0:1|0:1,0:0:0:0:
22,64,6118,2,0,B|66:92|66:160|22:192|22:192|66:224|66:292|22:320,1,300,2|2,0:1|0:1,0:0:0:0:
174,264,8038,6,0,B|192:204|256:184|256:184|320:204|338:264,1,240,2|0,0:1|0:0,0:0:0:0:
416,192,9478,1,2,0:1:0:0:
338,120,9958,2,0,P|256:88|174:120,2,180,2|0|2,0:1|0:1|0:1,0:0:0:0:
416,192,11878,6,0,P|337:120|416:48,1,240,2|0,0:1|0:1,0:0:0:0:
496,120,13318,1,2,0:1:0:0:
416,192,13798,2,0,P|397:248|416:304,2,120,2|0|0,0:1|0:0|0:0,0:0:0:0:
496,120,15238,1,2,0:1:0:0:
415,47,15718,6,0,B|344:48|344:48|256:48|216:140,1,240,4|2,0:0|0:0,0:0:0:0:
120,188,17158,1,8,0:0:0:0:
216,244,17638,2,0,B|256:336|344:336|344:336|415:336,1,240,2|2,0:0|0:0,0:0:0:0:
496,264,19078,1,8,0:0:0:0:
414,192,19558,6,0,B|368:192|368:192|356:168|328:152|310:152,1,120,2|8,0:0|0:0,0:0:0:0:
201,152,20518,2,0,B|184:152|156:168|144:192|144:192|97:192,1,120,2|8,0:0|0:0,0:0:0:0:
16,264,21478,1,2,0:0:0:0:
97,337,21958,1,8,0:0:0:0:
178,264,22438,2,0,L|267:344,1,120,2|8,0:0|0:0,0:0:0:0:
352,259,23398,6,0,B|413:259|442:192|442:192|413:125|352:125,1,240,2|2,0:0|0:0,0:0:0:0:
256,192,24838,1,10,0:0:0:0:
160,125,25318,2,0,B|99:125|70:192|70:192|99:259|160:259,1,240,2|2,0:0|0:0,0:0:0:0:
256,192,26758,1,8,0:0:0:0:
352,259,27238,6,0,B|408:280|408:280|464:259,1,120,2|8,0:0|0:0,0:0:0:0:
464,125,28198,2,0,B|408:104|408:104|352:125,1,120,2|8,0:0|0:0,0:0:0:0:
256,58,29158,2,0,B|288:112|252:184|184:192|184:192|252:200|288:272|256:326,1,360,2|8,0:0|0:0,0:0:0:0:
352,259,31078,5,4,0:0:0:0:
452,192,31558,1,10,1:0:0:0:
352,125,32038,2,0,B|324:114|324:114|296:125,1,60,2|2,0:0|0:0,0:0:0:0:
256,80,32518,2,0,B|228:91|228:91|200:80,1,60,10|2,1:0|0:0,0:0:0:0:
160,35,32998,6,0,B|200:80|200:80|160:125,1,120,2|10,0:0|1:0,0:0:0:0:
75,209,33958,2,0,P|65:237|75:265,1,60,2|2,0:0|0:0,0:0:0:0:
117,307,34438,1,10,1:0:0:0:
216,240,34918,6,0,B|216:162|296:162|295:85,2,180,2|0|10,0:0|0:0|1:0,0:0:0:0:
256,284,36598,1,2,0:0:0:0:
296,240,36838,2,0,B|296:162|216:162|216:85,2,180,2|0|10,0:0|0:0|1:0,0:0:0:0:
395,307,38758,6,0,B|395:343|364:376|308:376|308:376|256:340|204:376|204:376|148:376|117:343|117:307,1,360,2|10,0:0|1:0,0:0:0:0:
159,263,40438,1,2,0:0:0:0:
201,220,40678,2,0,P|256:199|311:220,1,120,2|10,0:0|1:0,0:0:0:0:
284,336,41638,2,0,B|256:347|256:347|228:336,2,60,2|2|10,0:0|0:0|1:0,0:0:0:0:
311,220,42598,6,0,P|339:136|311:52,2,180,2|0|10,0:0|0:0|1:0,0:0:0:0:
256,244,44278,1,2,0:0:0:0:
201,220,44518,2,0,P|173:136|201:52,2,180,2|0|10,0:0|0:0|1:0,0:0:0:0:
117,307,46438,6,0,B|88:280|80:228|112:196|158:167|204:196|236:228|228:280|199:307|199:307|240:328|256:384|256:384|272:328|313:307|313:307|284:280|276:228|308:196|354:167|400:196|432:228|424:280|395:307,1,780,2|10,0:0|0:2,0:0:0:0:
437,349,49798,1,8,0:2:0:0:
437,349,50278,6,0,L|510:120,1,240,4|2,0:0|0:0,0:0:0:0:
412,52,51718,1,8,0:0:0:0:
314,121,52198,2,0,B|299:179|299:179|314:237,1,120,2|8,0:0|0:0,0:0:0:0:
198,237,53158,2,0,B|213:179|213:179|198:121,1,120,2|8,0:0|0:0,0:0:0:0:
94,179,54118,6,0,P|53:255|94:331,2,180,2|0|8,0:0|0:0|0:0,0:0:0:0:
170,87,56038,2,0,P|94:128|18:87,2,180,2|0|8,0:0|0:0|0:0,0:0:0:0:
256,172,57958,5,2,0:0:0:0:
342,87,58438,1,8,0:0:0:0:
428,172,58918,2,0,P|447:228|428:284,1,120,2|8,0:0|0:0,0:0:0:0:
342,368,59878,2,0,P|256:241|170:368,1,360,2|8,0:0|0:0,0:0:0:0:
83,283,61798,6,0,P|64:227|83:171,1,120,2|8,0:0|0:0,0:0:0:0:
170,87,62758,1,2,0:0:0:0:
256,172,63238,1,8,0:0:0:0:
342,87,63718,2,0,B|256:4|256:4|170:87,1,240,2|2,0:0|0:0,0:0:0:0:
256,172,65158,1,8,0:0:0:0:
170,257,65638,5,4,0:0:0:0:
256,332,66118,1,10,1:0:0:0:
342,257,66598,2,0,B|353:229|353:229|342:201,1,60,2|2,0:0|0:0,0:0:0:0:
387,161,67078,2,0,B|376:133|376:133|387:105,1,60,10|2,1:0|0:0,0:0:0:0:
432,65,67558,6,0,B|387:105|387:105|342:65,1,120,2|10,0:0|1:0,0:0:0:0:
256,148,68518,2,0,B|224:148|224:148|204:128,1,60,2|2,0:0|0:0,0:0:0:0:
168,80,68998,1,10,1:0:0:0:
76,156,69478,6,0,B|36:156|4:124|4:80|4:80|4:16,2,180,2|0|10,0:0|0:0|1:0,0:0:0:0:
124,192,71158,1,2,0:0:0:0:
76,228,71398,2,0,B|36:228|4:260|4:304|4:304|4:368,2,180,2|0|10,0:0|0:0|1:0,0:0:0:0:
192,192,73318,6,0,B|236:220|332:168|332:80|256:44|180:80|180:168|276:220|320:192,1,360,2|10,0:0|1:0,0:0:0:0:
372,160,74998,1,2,0:0:0:0:
424,192,75238,2,0,L|339:276,1,120,2|10,0:0|1:0,0:0:0:0:
256,192,76198,2,0,L|213:149,1,60,2|2,0:0|0:0,0:0:0:0:
171,107,76678,1,10,1:0:0:0:
84,192,77158,6,0,B|141:249|141:249|149:252|149:252|158:254|158:254|215:312,2,180,2|0|10,0:0|0:0|1:0,0:0:0:0:
126,149,78838,1,2,0:0:0:0:
171,107,79078,2,0,B|228:164|228:164|236:167|236:167|245:169|245:169|302:227,2,180,2|0|10,0:0|0:0|1:0,0:0:0:0:
256,22,80998,5,4,0:0:0:0:
406,284,95398,5,10,1:0:0:0:
310,232,95878,1,10,1:0:0:0:
406,284,96358,6,0,B|430:284|490:264|514:192|498:120|434:100|410:96|386:96|386:96|310:96,1,360,4|10,0:0|0:0,0:0:0:0:
202,96,98278,2,0,B|126:96|126:96|102:96|78:100|14:120|-2:192|22:264|82:284|106:284,1,360,2|10,0:0|0:0,0:0:0:0:
202,232,100198,6,0,B|172:232|172:232|160:216|136:200|116:200|116:200|168:180|168:180|256:180|256:180|344:180|344:180|396:200|396:200|376:200|352:216|340:232|340:232|310:232,2,480,2|2|2,0:0|0:0|3:2,0:0:0:0:
256,192,104278,12,12,109798,1:2:0:0:
196,192,111718,6,0,P|252:211|308:192,1,120,4|10,0:0|1:0,0:0:0:0:
284,88,112678,2,0,P|256:79|228:88,1,60,2|2,0:0|0:0,0:0:0:0:
189,49,113158,2,0,P|161:58|133:49,1,60,10|2,1:0|0:0,0:0:0:0:
94,10,113638,6,0,B|119:40|119:40|147:74|127:115,1,120,2|10,0:0|1:0,0:0:0:0:
52,192,114598,2,0,B|52:224|52:224|32:243,1,60,2|2,0:0|0:0,0:0:0:0:
80,268,115078,1,10,1:0:0:0:
180,312,115558,6,0,P|256:353|332:312,2,180,2|0|10,0:0|0:0|1:0,0:0:0:0:
180,204,117478,2,0,B|200:224|236:224|256:190|256:190|276:224|312:224|332:204,2,180,2|0|10,0:0|0:0|1:0,0:0:0:0:
103,127,119398,6,0,P|256:46|409:127,1,360,2|10,0:0|1:0,0:0:0:0:
370,165,121078,1,2,0:0:0:0:
332,204,121318,2,0,L|247:288,1,120,2|10,0:0|1:0,0:0:0:0:
154,231,122278,2,0,L|111:273,2,60,2|2|8,0:0|0:0|1:0,0:0:0:0:
77,154,123238,6,0,B|33:138|19:90|19:90|33:42|77:26,2,180,2|0|10,0:0|0:0|1:0,0:0:0:0:
115,192,124918,1,2,0:0:0:0:
77,230,125158,2,0,B|33:246|19:294|19:294|33:342|77:358,2,180,2|0|10,0:0|0:0|1:0,0:0:0:0:
154,153,127078,6,0,B|208:192|288:164|308:128|300:88|256:64|212:88|204:128|224:164|304:192|358:153,1,360,4|10,0:0|1:0,0:0:0:0:
435,230,128998,2,0,B|476:232|512:284|496:356|400:372|372:304|372:304|367:334|339:353|339:353|311:334|306:305,1,360,2|10,0:0|1:0,0:0:0:0:
205,305,130918,2,0,B|201:334|173:353|173:353|145:334|140:304|140:304|112:372|16:356|0:284|36:232|77:230,1,360,2|10,0:0|1:0,0:0:0:0:
154,153,132838,2,0,P|256:207|358:153,1,240,2|2,0:0|0:0,0:0:0:0:
434,76,134278,1,10,1:0:0:0:
510,152,134758,6,0,B|470:165|439:211|440:254|464:303|464:303|427:263|386:248|332:261|306:294,1,360,4|10,0:0|1:0,0:0:0:0:
205,294,136678,2,0,B|179:261|125:248|84:263|47:303|47:303|71:254|72:211|41:165|2:152,1,360,2|10,0:0|1:0,0:0:0:0:
154,153,138598,2,0,B|154:89|230:89|256:11|256:11|282:89|358:89|358:153,1,360,2|10,0:0|1:0,0:0:0:0:
358,261,140518,2,0,B|312:300|312:300|256:279|256:279|200:300|200:300|154:261,1,240,2|2,0:0|0:0,0:0:0:0:
60,207,141958,1,10,1:0:0:0:
154,153,142438,5,4,0:0:0:0:
148,150,155878,5,8,0:0:0:0:
364,150,156838,1,8,0:0:0:0:
192,280,157798,6,0,P|256:362|320:280,1,240,4|2,0:0|0:0,0:0:0:0:
256,192,159238,1,10,1:0:0:0:
192,280,159718,6,0,P|136:298|80:280,2,120,4|10|2,0:0|1:0|0:0,0:0:0:0:
256,192,161158,1,10,1:0:0:0:
320,280,161638,2,0,P|376:298|432:280,2,120,4|10|2,0:0|1:0|0:0,0:0:0:0:
256,192,163078,1,10,1:0:0:0:
192,104,163558,6,0,P|136:86|80:104,2,120,4|10|2,0:0|1:0|0:0,0:0:0:0:
256,192,164998,1,10,1:0:0:0:
320,104,165478,2,0,P|376:86|432:104,2,120,4|10|2,0:0|1:0|0:0,0:0:0:0:
256,192,166918,1,10,1:0:0:0:
192,280,167398,6,0,P|136:298|80:280,2,120,4|10|2,0:0|1:0|0:0,0:0:0:0:
256,192,168838,1,10,1:0:0:0:
320,280,169318,2,0,P|376:298|432:280,2,120,4|10|2,0:0|1:0|0:0,0:0:0:0:
256,192,170758,1,10,1:0:0:0:
192,104,171238,5,4,0:0:0:0:
256,16,171718,1,10,1:0:0:0:
320,104,172198,1,2,0:0:0:0:
256,192,172678,1,10,1:0:0:0:
256,192,173158,6,0,B|297:192|297:192|328:238|378:238|378:238|350:360|210:412|30:370|-37:131|94:-36|306:-24|362:80|378:146,1,971.999970336915,4|2,0:0|0:1,0:0:0:0:
256,192,176518,12,0,178918,0:0:0:0:
