osu file format v14

[General]
AudioFilename: Lady Gaga - Perfect Illusion.mp3
AudioLeadIn: 0
PreviewTime: 110968
Countdown: 0
SampleSet: Soft
StackLeniency: 0.2
Mode: 0
LetterboxInBreaks: 0
WidescreenStoryboard: 1

[Editor]
Bookmarks: 358,80998,95398,142438,155878,178918
DistanceSpacing: 1
BeatDivisor: 4
GridSize: 4
TimelineZoom: 1

[Metadata]
Title:Perfect Illusion
TitleUnicode:Perfect Illusion
Artist:Lady Gaga
ArtistUnicode:Lady Gaga
Creator:Gero
Version:Average Present
Source:
Tags:Disco Dance Rock Dive Bar Tour Battered Interscope Records Billboard Hot 100 Scream Queens Fox Haus of Gaga Mother Monster Stefani Joanne Angelina Germanotta Kevin Parker Mark Ronson BloodPop Josh Homme Ex's Ex Boyfriend Unrequited Love
BeatmapID:1128530
BeatmapSetID:516296

[Difficulty]
HPDrainRate:5
CircleSize:4
OverallDifficulty:5
ApproachRate:6
SliderMultiplier:1.4
SliderTickRate:2

[Events]
//Background and Video events
0,0,"BG.jpg",0,0
Video,0,"Video.flv"
//Break Periods
2,81198,94348
2,142638,154828
//Storyboard Layer 0 (Background)
//Storyboard Layer 1 (Fail)
//Storyboard Layer 2 (Pass)
//Storyboard Layer 3 (Foreground)
//Storyboard Sound Samples
Sample,21238,0,"soft-hitwhistle.wav",60
Sample,26998,0,"soft-hitwhistle.wav",60
Sample,28438,0,"soft-hitwhistle.wav",60
Sample,35878,0,"soft-hitwhistle.wav",70
Sample,37798,0,"soft-hitwhistle.wav",70
Sample,43558,0,"soft-hitwhistle.wav",70
Sample,45478,0,"soft-hitwhistle.wav",70
Sample,59638,0,"soft-hitwhistle.wav",70
Sample,61558,0,"soft-hitwhistle.wav",70
Sample,62998,0,"soft-hitwhistle.wav",70
Sample,70438,0,"soft-hitwhistle.wav",70
Sample,72358,0,"soft-hitwhistle.wav",70
Sample,78118,0,"soft-hitwhistle.wav",70
Sample,80038,0,"soft-hitwhistle.wav",70
Sample,96118,0,"soft-hitwhistle.wav",60
Sample,98038,0,"drum-hitnormal.wav",60
Sample,98038,0,"drum-hitfinish.wav",60
Sample,98518,0,"drum-hitfinish.wav",60
Sample,98518,0,"drum-hitnormal.wav",60
Sample,98998,0,"drum-hitnormal.wav",60
Sample,98998,0,"drum-hitfinish.wav",60
Sample,104518,0,"soft-hitwhistle.wav",60
Sample,104998,0,"soft-hitwhistle.wav",60
Sample,105478,0,"soft-hitwhistle.wav",60
Sample,106438,0,"soft-hitwhistle.wav",60
Sample,106918,0,"soft-hitwhistle.wav",60
Sample,107398,0,"soft-hitwhistle.wav",60
Sample,110518,0,"soft-hitwhistle.wav",60
Sample,110998,0,"soft-hitwhistle.wav",60
Sample,111478,0,"soft-hitwhistle.wav",60
Sample,116518,0,"soft-hitwhistle.wav",70
Sample,118438,0,"soft-hitwhistle.wav",70
Sample,124198,0,"soft-hitwhistle.wav",70
Sample,126118,0,"soft-hitwhistle.wav",70
Sample,128038,0,"soft-hitwhistle.wav",70
Sample,131878,0,"soft-hitwhistle.wav",70
Sample,133798,0,"soft-hitwhistle.wav",70
Sample,135238,0,"soft-hitclap.wav",70
Sample,135238,0,"normal-hitwhistle.wav",70
Sample,135238,0,"normal-hitnormal.wav",70
Sample,135718,0,"soft-hitwhistle.wav",70
Sample,135958,0,"soft-hitwhistle.wav",70
Sample,137158,0,"soft-hitclap.wav",70
Sample,137158,0,"normal-hitwhistle.wav",70
Sample,137158,0,"normal-hitnormal.wav",70
Sample,137638,0,"soft-hitwhistle.wav",70
Sample,137878,0,"soft-hitwhistle.wav",70
Sample,140278,0,"soft-hitwhistle.wav",70
Sample,141478,0,"soft-hitwhistle.wav",70
Sample,141958,0,"soft-hitclap.wav",70
Sample,141958,0,"normal-hitnormal.wav",70
Sample,141958,0,"normal-hitwhistle.wav",70
Sample,156598,0,"soft-hitwhistle.wav",60
Sample,157078,0,"soft-hitwhistle.wav",60
Sample,157558,0,"soft-hitwhistle.wav",60
Sample,158758,0,"soft-hitwhistle.wav",70
Sample,159718,0,"soft-hitfinish.wav",70
Sample,160678,0,"soft-hitwhistle.wav",70
Sample,162598,0,"soft-hitwhistle.wav",70
Sample,163558,0,"soft-hitfinish.wav",70
Sample,165478,0,"soft-hitfinish.wav",70
Sample,167398,0,"soft-hitfinish.wav",70
Sample,168838,0,"normal-hitnormal.wav",70
Sample,168838,0,"soft-hitclap.wav",70
Sample,168838,0,"normal-hitwhistle.wav",70
Sample,170278,0,"soft-hitwhistle.wav",70
Sample,172198,0,"soft-hitwhistle.wav",70

[TimingPoints]
358,480,4,2,1,50,1,0
358,-100,4,2,1,50,0,0
8038,-100,4,2,1,60,0,0
15718,-100,4,2,1,70,0,0
31078,-100,4,2,1,80,0,1
46438,-100,4,2,1,50,0,0
49558,-100,4,2,2,60,0,0
50278,-100,4,2,1,70,0,0
65638,-100,4,2,1,80,0,1
80998,-100,4,2,1,70,0,0
111718,-100,4,2,1,80,0,1
126958,-100,4,2,1,80,0,0
127078,-100,4,2,1,80,0,1
142438,-100,4,2,1,70,0,0
157798,-100,4,2,1,80,0,1
173158,-100,4,2,1,50,0,0
176518,-100,4,2,1,45,0,0
176998,-100,4,2,1,40,0,0
177478,-100,4,2,1,30,0,0
177958,-100,4,2,1,20,0,0
178438,-100,4,2,1,10,0,0
178918,-100,4,2,3,5,0,0

[Colours]
Combo1 : 211,120,65
Combo2 : 215,166,91
Combo3 : 107,157,199
Combo4 : 205,198,58
SliderBorder : 63,63,63

[HitObjects]
158,91,358,6,0,B|118:91|90:119|90:159|90:159|90:223|90:223|90:263|118:291|158:291,1,280,2|0,0:1|0:0,0:0:0:0:
207,241,1558,1,2,0:1:0:0:
352,92,2278,2,0,B|392:92|420:120|420:160|420:160|420:224|420:224|420:264|392:292|352:292,1,280,2|0,0:1|0:0,0:0:0:0:
305,241,3478,1,2,0:1:0:0:
158,91,4198,6,0,B|160:152|100:192|77:192|77:192|100:192|160:232|158:293,1,280,2|0,0:1|0:0,0:0:0:0:
207,342,5398,2,0,B|256:292|256:292|305:342,1,140,2|0,0:1|0:0,0:0:0:0:
354,293,6118,2,0,B|352:232|412:192|435:192|435:192|412:192|352:152|354:91,1,280,2|0,0:1|0:0,0:0:0:0:
305,42,7318,2,0,B|256:92|256:92|207:42,1,140,2|0,0:1|0:0,0:0:0:0:
158,91,8038,5,2,0:1:0:0:
256,192,8518,2,0,B|270:224|270:224|256:256,1,70,0|0,0:0|0:0,0:0:0:0:
206,305,8998,1,0,0:0:0:0:
256,354,9238,2,0,B|284:306|328:306|328:306|377:306,1,140,2|0,0:1|0:0,0:0:0:0:
426,356,9958,2,0,B|360:317|360:242|360:242|360:171,1,210,2|0,0:1|0:1,0:0:0:0:
409,120,10918,1,0,0:0:0:0:
458,70,11158,2,0,B|444:36|409:23|409:23|374:36|360:70,1,140,2|0,0:1|0:0,0:0:0:0:
311,120,11878,5,2,0:1:0:0:
192,192,12358,2,0,P|160:204|128:192,1,70,0|0,0:1|0:0,0:0:0:0:
78,142,12838,1,0,0:1:0:0:
28,192,13078,2,0,B|70:234|70:234|73:242|73:242|76:251|76:251|120:295,1,140,2|0,0:1|0:1,0:0:0:0:
169,344,13798,2,0,B|216:376|300:348|308:292|256:264|204:292|212:348|296:376|343:344,1,280,2|0,0:1|0:0,0:0:0:0:
391,295,14998,2,0,B|435:251|435:251|438:242|438:242|441:234|441:234|484:192,1,140,2|0,0:1|0:0,0:0:0:0:
434,142,15718,6,0,P|370:118|306:142,1,140,4|8,0:0|0:0,0:0:0:0:
256,192,16438,1,0,0:0:0:0:
206,142,16678,2,0,B|176:124|176:124|146:142,1,70,2|2,0:0|0:0,0:0:0:0:
96,192,17158,2,0,B|66:210|66:210|36:192,1,70,8|2,0:0|0:0,0:0:0:0:
66,128,17638,6,0,L|125:254,1,140,2|8,0:0|0:0,0:0:0:0:
75,304,18358,1,0,0:0:0:0:
124,353,18598,2,0,B|158:353|158:353|183:377,1,70,2|2,0:0|0:0,0:0:0:0:
233,328,19078,2,0,B|258:352|258:352|292:352,1,70,8|2,0:0|0:0,0:0:0:0:
342,303,19558,6,0,B|412:303|412:303|461:253,1,140,2|8,0:0|0:0,0:0:0:0:
424,192,20278,1,0,0:0:0:0:
461,130,20518,2,0,P|471:97|461:64,1,70,2|2,0:0|0:0,0:0:0:0:
424,2,20998,1,8,0:0:0:0:
308,76,21478,6,0,B|272:92|256:121|256:121|240:92|204:76,1,140,2|8,0:0|0:0,0:0:0:0:
154,125,22198,1,0,0:0:0:0:
203,174,22438,2,0,B|220:204|220:204|220:240,1,70,2|2,0:0|0:0,0:0:0:0:
292,240,22918,2,0,B|292:204|292:204|309:174,1,70,8|2,0:0|0:0,0:0:0:0:
358,125,23398,6,0,B|422:96|422:96|486:125,1,140,2|8,0:0|0:0,0:0:0:0:
460,192,24118,1,0,0:0:0:0:
486,259,24358,2,0,B|500:291|500:291|486:323,1,70,2|2,0:0|0:0,0:0:0:0:
436,372,24838,1,10,0:0:0:0:
386,322,25078,1,2,0:0:0:0:
336,372,25318,6,0,L|212:306,1,140,2|8,0:0|0:0,0:0:0:0:
162,356,26037,1,0,0:0:0:0:
111,305,26278,2,0,P|99:273|111:241,1,70,2|2,0:0|0:0,0:0:0:0:
161,192,26757,1,8,0:0:0:0:
296,156,27238,6,0,B|353:156|353:228|410:228,1,140,2|8,0:0|0:0,0:0:0:0:
468,192,27958,1,0,0:0:0:0:
410,156,28198,2,0,B|353:156|353:228|296:228,1,140,2|8,0:0|0:0,0:0:0:0:
236,192,28918,1,2,0:0:0:0:
172,160,29158,6,0,B|162:184|134:192|114:192|114:192|134:192|162:200|172:224,2,140,2|2|2,0:0|0:0|0:0,0:0:0:0:
237,192,30358,1,2,0:0:0:0:
237,192,30598,1,8,0:0:0:0:
360,132,31078,6,0,B|384:156|384:156|384:192|384:192|384:228|384:228|360:252,1,140,4|10,0:0|1:0,0:0:0:0:
220,252,32038,2,0,B|193:228|193:228|159:228,1,70,2|2,0:0|0:0,0:0:0:0:
159,156,32518,2,0,B|193:156|193:156|220:132,1,70,10|2,1:0|0:0,0:0:0:0:
256,72,32998,5,2,0:0:0:0:
332,192,33478,1,10,1:0:0:0:
256,312,33958,2,0,P|246:345|256:378,1,70,2|2,0:0|0:0,0:0:0:0:
320,345,34438,2,0,P|310:312|320:279,1,70,10|2,1:0|0:0,0:0:0:0:
384,312,34918,6,0,P|374:345|384:378,2,70,2|0|10,0:0|0:0|1:0,0:0:0:0:
448,345,35638,2,0,P|415:287|448:229,1,140,0|2,0:0|0:0,0:0:0:0:
508,192,36358,1,10,1:0:0:0:
448,155,36598,1,2,0:0:0:0:
388,191,36838,6,0,P|356:203|324:191,2,70,2|0|10,0:0|0:0|1:0,0:0:0:0:
356,131,37558,2,0,L|288:253,1,140,0|2,0:0|0:0,0:0:0:0:
238,302,38278,2,0,L|204:241,1,70,10|2,1:0|0:0,0:0:0:0:
154,290,38758,5,2,0:0:0:0:
48,192,39238,1,10,1:0:0:0:
154,94,39718,2,0,B|174:94|186:82|186:82|198:94|218:94,1,70,2|2,0:0|0:0,0:0:0:0:
267,143,40198,2,0,B|287:143|299:131|299:131|311:143|331:143,1,70,10|2,1:0|0:0,0:0:0:0:
389,182,40678,6,0,B|379:159|355:143|335:143|335:143|355:143|379:127|389:104,1,140,2|10,0:0|1:0,0:0:0:0:
492,192,41638,2,0,P|504:224|492:256,1,70,2|2,0:0|0:0,0:0:0:0:
442,305,42118,1,10,1:0:0:0:
491,354,42358,1,2,0:0:0:0:
442,305,42598,6,0,B|410:291|410:291|378:305,2,70,2|0|10,0:0|0:0|1:0,0:0:0:0:
410,369,43318,2,0,B|346:341|346:341|282:369,1,140,0|2,0:0|0:0,0:0:0:0:
232,319,44038,2,0,L|168:347,1,70,10|2,1:0|0:0,0:0:0:0:
105,381,44518,6,0,P|94:347|104:314,2,70,2|0|10,0:0|0:0|1:0,0:0:0:0:
168,348,45238,2,0,P|139:287|168:226,1,140,0|2,0:0|0:0,0:0:0:0:
108,192,45958,1,10,1:0:0:0:
168,158,46198,1,2,0:0:0:0:
108,124,46438,6,0,B|136:60|208:60|208:60|304:60|304:60|376:60|404:124,1,350,2|2,0:0|0:0,0:0:0:0:
344,158,47878,1,2,0:0:0:0:
256,268,48358,2,0,B|256:348,2,70,2|0|0,0:0|0:0|0:0,0:0:0:0:
296,212,49078,2,0,B|268:192|256:156|256:156|244:192|216:212,1,140,2|10,0:0|0:2,0:0:0:0:
256,268,49798,1,8,0:2:0:0:
344,158,50278,5,4,0:0:0:0:
256,48,50758,1,8,0:0:0:0:
168,158,51238,2,0,P|136:170|104:158,1,70,2|2,0:0|0:0,0:0:0:0:
72,96,51718,2,0,P|104:84|136:96,1,70,8|2,0:0|0:0,0:0:0:0:
168,158,52198,5,2,0:0:0:0:
256,268,52678,1,8,0:0:0:0:
344,158,53158,2,0,P|376:170|408:158,1,70,2|2,0:0|0:0,0:0:0:0:
440,96,53638,2,0,P|408:84|376:96,1,70,8|2,0:0|0:0,0:0:0:0:
344,158,54118,5,2,0:0:0:0:
256,48,54598,1,8,0:0:0:0:
168,158,55078,2,0,L|124:212,1,70,2|2,0:0|0:0,0:0:0:0:
174,262,55558,2,0,L|130:316,1,70,8|2,0:0|0:0,0:0:0:0:
72,355,56038,6,0,P|131:387|190:355,1,140,2|8,0:0|0:0,0:0:0:0:
256,328,56758,2,0,B|291:328|291:328|315:352,1,70,0|2,0:0|0:0,0:0:0:0:
365,303,57238,2,0,B|389:327|389:327|424:327,1,70,2|8,0:0|0:0,0:0:0:0:
474,277,57718,1,2,0:0:0:0:
424,227,57958,6,0,B|424:166|424:166|428:158|428:158|432:150|432:150|432:88,1,140,2|8,0:0|0:0,0:0:0:0:
304,32,58918,1,2,0:0:0:0:
256,82,59158,1,2,0:0:0:0:
208,32,59398,1,8,0:0:0:0:
80,88,59878,6,0,B|80:150|80:150|84:158|84:158|88:166|88:166|88:227,1,140,2|8,0:0|0:0,0:0:0:0:
208,283,60838,1,2,0:0:0:0:
256,333,61078,1,2,0:0:0:0:
304,283,61318,1,8,0:0:0:0:
424,226,61798,6,0,B|396:178|352:178|352:178|303:178,1,140,2|8,0:0|0:0,0:0:0:0:
256,124,62518,1,0,0:0:0:0:
209,178,62758,2,0,B|160:178|160:178|116:178|88:226,1,140,2|8,0:0|0:0,0:0:0:0:
38,275,63478,1,2,0:0:0:0:
87,324,63718,2,0,L|-12:225,2,140,2|2|2,0:0|0:0|0:0,0:0:0:0:
136,373,64918,1,2,0:0:0:0:
136,373,65158,1,8,0:0:0:0:
256,300,65638,5,4,0:0:0:0:
376,227,66118,1,10,1:0:0:0:
256,154,66598,2,0,P|224:142|192:154,1,70,2|2,0:0|0:0,0:0:0:0:
132,192,67078,2,0,P|100:204|68:192,1,70,10|2,1:0|0:0,0:0:0:0:
18,142,67558,6,0,B|67:192|67:192|18:242,1,140,2|10,0:0|1:0,0:0:0:0:
156,287,68518,2,0,P|190:287|219:306,1,70,2|2,0:0|0:0,0:0:0:0:
292,306,68998,2,0,P|321:287|355:287,1,70,10|2,1:0|0:0,0:0:0:0:
419,319,69478,6,0,B|433:287|433:287|419:255,2,70,2|0|10,0:0|0:0|1:0,0:0:0:0:
483,351,70198,2,0,B|511:287|511:287|483:223,1,140,0|2,0:0|0:0,0:0:0:0:
418,190,70918,2,0,L|446:125,1,70,10|2,1:0|0:0,0:0:0:0:
380,92,71398,6,0,P|348:80|316:92,1,70,2|0,0:0|0:0,0:0:0:0:
256,128,71878,1,10,1:0:0:0:
196,92,72118,2,0,B|126:92|126:92|76:141,1,140,0|2,0:0|0:0,0:0:0:0:
124,192,72838,1,10,1:0:0:0:
76,244,73078,1,2,0:0:0:0:
124,296,73318,5,2,0:0:0:0:
256,348,73798,1,10,1:0:0:0:
388,296,74278,2,0,P|400:264|388:232,1,70,2|2,0:0|0:0,0:0:0:0:
350,172,74758,2,0,P|338:140|350:108,1,70,10|2,1:0|0:0,0:0:0:0:
400,58,75238,6,0,B|350:107|350:107|300:58,1,140,2|10,0:0|1:0,0:0:0:0:
256,192,76198,1,2,0:0:0:0:
216,248,76438,1,2,0:0:0:0:
256,304,76678,1,10,1:0:0:0:
296,248,76918,1,2,0:0:0:0:
256,192,77158,6,0,L|256:116,2,70,2|0|10,0:0|0:0|1:0,0:0:0:0:
216,248,77878,2,0,B|188:268|176:304|176:304|188:340|216:360,1,140,0|2,0:0|0:0,0:0:0:0:
256,304,78598,1,10,1:0:0:0:
296,248,78838,1,2,0:0:0:0:
336,304,79078,6,0,P|368:316|400:304,2,70,2|0|10,0:0|0:0|1:0,0:0:0:0:
368,244,79798,2,0,B|400:228|412:192|412:192|400:156|368:140,1,140,0|2,0:0|0:0,0:0:0:0:
340,76,80518,2,0,B|352:60|368:56|368:56|384:60|396:76,1,70,10|2,1:0|0:0,0:0:0:0:
428,7,80998,5,4,0:0:0:0:
207,323,95398,5,10,1:0:0:0:
256,372,95638,1,2,0:0:0:0:
305,323,95878,1,10,1:0:0:0:
352,192,96358,5,4,0:0:0:0:
256,92,96838,1,2,0:0:0:0:
160,192,97318,2,0,P|128:204|96:192,1,70,2|2,0:0|0:0,0:0:0:0:
46,142,97798,1,10,0:0:0:0:
46,282,98278,6,0,L|145:381,1,140,2|2,0:0|0:0,0:0:0:0:
243,282,99238,2,0,B|275:268|275:268|307:282,1,70,2|2,0:0|0:0,0:0:0:0:
356,232,99718,2,0,B|388:246|388:246|420:232,1,70,10|4,0:0|3:0,0:0:0:0:
388,168,100198,6,0,L|388:308,1,140,2|2,0:0|0:0,0:0:0:0:
275,227,101158,2,0,L|275:157,1,70,2|2,0:0|0:0,0:0:0:0:
225,107,101638,1,10,0:0:0:0:
116,192,102118,6,0,B|81:192|81:192|56:216,1,70,2|0,0:0|0:0,0:0:0:0:
6,266,102598,2,0,B|41:266|41:266|65:290,1,70,10|0,0:0|0:0,0:0:0:0:
115,340,103078,2,0,B|80:340|80:340|55:364,2,70,10|2|10,0:0|0:0|0:0,0:0:0:0:
256,340,104038,6,0,B|328:340|412:280|429:192|429:192|412:104|328:44|256:44,1,490,2|2,3:2|3:2,0:0:0:0:
206,93,105958,2,0,B|136:93|136:93|53:93|4:192|4:192|53:291|136:291|136:291|206:291,1,490,2|2,3:2|3:2,0:0:0:0:
256,243,107878,6,0,B|291:243|291:243|315:267,1,70,2|2,3:2|3:2,0:0:0:0:
372,228,108358,2,0,L|442:228,1,70,2|2,3:2|3:2,0:0:0:0:
442,156,108838,2,0,L|372:156,1,70,2|2,1:3|1:3,0:0:0:0:
315,116,109318,2,0,B|291:141|291:141|256:141,1,70,2|2,1:3|1:3,0:0:0:0:
206,93,109798,5,12,1:2:0:0:
108,192,110278,1,12,1:2:0:0:
206,291,110758,1,12,1:2:0:0:
108,192,111238,1,12,1:2:0:0:
206,93,111718,6,0,P|256:52|306:93,1,140,4|10,0:0|1:0,0:0:0:0:
221,204,112678,2,0,P|209:236|221:268,1,70,2|2,0:0|0:0,0:0:0:0:
290,268,113158,2,0,P|302:236|290:204,1,70,10|2,1:0|0:0,0:0:0:0:
256,144,113638,6,0,L|387:192,1,140,2|10,0:0|1:0,0:0:0:0:
486,92,114598,2,0,L|420:67,1,70,2|2,0:0|0:0,0:0:0:0:
371,116,115078,2,0,L|305:91,1,70,10|2,1:0|0:0,0:0:0:0:
256,144,115558,6,0,L|190:119,1,70,2|0,0:0|0:0,0:0:0:0:
141,69,116038,1,10,1:0:0:0:
91,118,116278,2,0,P|120:179|91:240,1,140,0|2,0:0|0:0,0:0:0:0:
41,289,116998,1,10,1:0:0:0:
90,338,117238,1,2,0:0:0:0:
139,288,117478,6,0,P|171:276|203:288,2,70,2|0|8,0:0|0:0|1:0,0:0:0:0:
171,348,118198,2,0,B|200:364|244:360|264:320|264:320|295:320,1,140,0|2,0:0|0:0,0:0:0:0:
359,352,118918,2,0,B|373:320|373:320|359:288,1,70,10|2,1:0|0:0,0:0:0:0:
422,255,119398,5,2,0:0:0:0:
296,192,119878,1,10,1:0:0:0:
422,129,120358,2,0,B|422:109|434:97|434:97|422:85|422:65,1,70,2|2,0:0|0:0,0:0:0:0:
358,33,120838,2,0,B|358:53|346:65|346:65|358:77|358:97,1,70,10|2,1:0|0:0,0:0:0:0:
422,65,121318,6,0,L|282:65,1,140,2|10,0:0|1:0,0:0:0:0:
180,160,122278,2,0,P|168:192|180:224,1,70,2|2,0:0|0:0,0:0:0:0:
230,273,122758,1,8,1:0:0:0:
181,322,122998,1,2,0:0:0:0:
230,273,123238,6,0,B|262:259|262:259|294:273,2,70,2|0|10,0:0|0:0|1:0,0:0:0:0:
262,337,123958,2,0,B|326:309|326:309|390:337,1,140,0|2,0:0|0:0,0:0:0:0:
451,371,124678,2,0,P|463:339|451:307,1,70,10|2,1:0|0:0,0:0:0:0:
396,264,125158,6,0,P|384:232|396:200,2,70,2|0|10,0:0|0:0|1:0,0:0:0:0:
460,232,125878,2,0,P|431:171|460:110,1,140,0|2,0:0|0:0,0:0:0:0:
410,60,126598,1,10,1:0:0:0:
459,10,126838,1,2,0:0:0:0:
410,60,127078,6,0,B|360:110|360:110|291:110,1,140,4|10,0:0|1:0,0:0:0:0:
256,48,127798,2,0,P|284:110|256:172,1,140,2|2,0:1|0:0,0:0:0:0:
206,221,128518,2,0,P|174:233|142:221,1,70,10|2,1:0|0:0,0:0:0:0:
92,171,128998,6,0,B|92:240|92:240|41:290,1,140,2|10,0:0|1:0,0:0:0:0:
91,339,129718,1,2,0:1:0:0:
140,289,129958,2,0,L|189:338,1,70,2|2,0:0|0:0,0:0:0:0:
239,288,130438,2,0,L|288:337,1,70,10|2,1:0|0:0,0:0:0:0:
338,287,130918,6,0,B|373:287|373:287|427:287|451:228,1,140,2|10,0:0|1:0,0:0:0:0:
451,156,131638,2,0,B|427:97|373:97|373:97|338:97,1,140,2|2,0:1|0:0,0:0:0:0:
288,46,132358,2,0,L|239:96,1,70,10|2,1:0|0:0,0:0:0:0:
189,45,132838,6,0,L|288:144,1,140,2|10,0:0|1:0,0:0:0:0:
238,193,133558,2,0,L|139:94,1,140,2|2,0:1|0:0,0:0:0:0:
89,143,134278,1,10,1:0:0:0:
39,192,134518,1,2,0:0:0:0:
89,241,134758,6,0,B|168:216|240:268|256:328|256:328|272:268|344:216|423:241,1,420,4|10,0:0|1:0,0:0:0:0:
473,192,136438,1,2,0:0:0:0:
423,143,136678,2,0,B|344:168|272:116|256:56|256:56|240:116|168:168|89:143,1,420,2|10,0:0|1:0,0:0:0:0:
39,192,138358,1,2,0:0:0:0:
88,241,138598,6,0,P|123:241|155:255,1,70,2|0,0:0|0:0,0:0:0:0:
224,236,139078,2,0,B|256:222|256:222|288:236,1,70,10|2,1:0|0:1,0:0:0:0:
356,255,139558,2,0,P|388:241|423:241,1,70,2|2,0:0|0:0,0:0:0:0:
473,192,140038,1,10,1:0:0:0:
412,68,140518,6,0,B|392:20|340:20|360:20|291:20,1,140,2|10,0:0|1:0,0:0:0:0:
220,20,141238,2,0,B|152:20|172:20|120:20|100:68,2,140,2|2|2,0:1|0:0|0:0,0:0:0:0:
256,80,142438,5,4,0:0:0:0:
256,80,155878,5,8,0:0:0:0:
340,192,156358,1,8,0:0:0:0:
256,304,156838,1,8,0:0:0:0:
172,192,157318,1,8,0:0:0:0:
256,80,157798,6,0,L|396:80,1,140,4|10,0:0|1:0,0:0:0:0:
446,30,158518,2,0,B|480:44|492:80|492:80|480:116|446:130,1,140,0|2,0:0|0:0,0:0:0:0:
409,192,159238,1,10,1:0:0:0:
446,254,159478,6,0,B|480:268|492:304|492:304|480:340|446:354,1,140,2|0,0:0|0:0,0:0:0:0:
396,304,160198,1,10,1:0:0:0:
346,354,160438,2,0,B|248:255,1,140,0|2,0:0|0:0,0:0:0:0:
198,304,161158,2,0,B|149:254,1,70,10|2,1:0|0:0,0:0:0:0:
100,304,161638,6,0,B|199:205,1,140,4|10,0:0|1:0,0:0:0:0:
150,155,162358,2,0,P|209:166|201:107,1,140,0|2,0:0|0:0,0:0:0:0:
256,68,163078,1,10,1:0:0:0:
312,107,163318,6,0,P|304:166|362:155,1,140,2|0,0:0|0:0,0:0:0:0:
420,192,164038,1,10,1:0:0:0:
288,244,164518,2,0,B|256:230|256:230|224:244,2,70,2|2|10,0:0|0:0|1:0,0:0:0:0:
256,308,165238,6,0,L|256:168,1,140,2|0,0:0|0:0,0:0:0:0:
306,118,165958,2,0,B|272:108|256:72|256:72|240:108|206:118,1,140,10|2,1:0|0:0,0:0:0:0:
158,68,166678,1,2,0:0:0:0:
109,117,166918,1,10,1:0:0:0:
60,67,167158,6,0,L|158:165,1,140,2|0,0:0|0:0,0:0:0:0:
110,215,167878,1,10,1:0:0:0:
160,264,168118,2,0,P|192:276|224:264,1,70,0|2,0:0|0:0,0:0:0:0:
274,313,168598,2,0,P|338:289|402:313,1,140,2|2,0:0|0:0,0:0:0:0:
444,256,169318,6,0,P|476:268|508:256,2,70,4|0|10,0:0|0:0|1:0,0:0:0:0:
403,198,170038,2,0,B|403:138|403:138|407:130|407:130|411:122|411:122|411:59,1,140,0|2,0:0|0:0,0:0:0:0:
362,10,170758,1,10,1:0:0:0:
313,59,170998,1,2,0:0:0:0:
313,59,171238,6,0,P|256:94|199:59,1,140,4|10,0:0|1:0,0:0:0:0:
256,20,171958,2,0,L|256:160,1,140,0|2,0:0|0:0,0:0:0:0:
296,220,172678,1,10,1:0:0:0:
336,280,172918,1,2,0:0:0:0:
336,280,173158,102,0,B|256:361|256:361|116:221|116:221|84:189|52:109|116:29|236:33|248:113|256:129|256:129|264:113|276:33|396:29|460:109|428:189|396:221,1,945,4|2,0:0|0:1,0:0:0:0:
256,192,176518,12,0,178918,0:0:0:0:
