osu file format v12

[General]
AudioFilename: Lady Gaga - Paparazzi (Speed Up Ver.).mp3
AudioLeadIn: 0
PreviewTime: 44325
Countdown: 0
SampleSet: Soft
StackLeniency: 0.7
Mode: 0
LetterboxInBreaks: 1

[Editor]
DistanceSpacing: 1.1
BeatDivisor: 4
GridSize: 4

[Metadata]
Title:Paparazzi (Speed Up Ver.)
TitleUnicode:Paparazzi (Speed Up Ver.)
Artist:Lady Gaga
ArtistUnicode:Lady Gaga
Creator:shankishiro
Version:Easy
Source:
Tags:Gero eLtigreXXx Remix DJ Fame Monster The Fame
BeatmapID:224229
BeatmapSetID:79794

[Difficulty]
HPDrainRate:2
CircleSize:3
OverallDifficulty:2
ApproachRate:3
SliderMultiplier:0.8
SliderTickRate:1

[Events]
//Background and Video events
0,0,"Paparazzi.jpg",0,0
//Break Periods
//Storyboard Layer 0 (Background)
//Storyboard Layer 1 (Fail)
//Storyboard Layer 2 (Pass)
//Storyboard Layer 3 (Foreground)
//Storyboard Sound Samples
//Background Colour Transformations
3,100,163,162,255

[TimingPoints]
331,461.439074660842,4,2,0,65,1,0
35746,-100,4,2,1,65,0,0
44629,-100,4,2,1,65,0,1
58933,-100,4,2,0,65,0,0
59395,-100,4,2,0,65,0,1
62048,-100,4,2,0,65,0,1
66316,-100,4,2,1,65,0,1
72315,-100,4,2,0,50,0,0
73469,-100,4,2,0,20,0,0

[Colours]
Combo1 : 170,142,85
Combo2 : 232,231,168
Combo3 : 220,217,253
Combo4 : 139,129,134
SliderBorder : 255,255,255

[HitObjects]
112,232,15097,2,0,L|213:295,1,120,2|2,0:0|0:0,0:0:0:0:
392,164,16942,2,0,L|290:100,1,120,2|2,0:0|0:0,0:0:0:0:
84,24,18788,6,0,P|52:72|48:132,1,120,2|2,0:0|0:0,0:0:0:0:
263,167,20634,2,0,P|244:220|264:280,2,120,2|2|0,0:0|0:0|0:0,0:0:0:0:
332,224,22480,2,0,P|352:152|308:84,1,160,2|0,0:0|0:0,0:0:0:0:
144,16,24325,6,0,L|72:80,1,80,2|0,0:0|0:0,0:0:0:0:
156,120,25248,2,0,L|92:176,1,80,2|0,0:0|0:0,0:0:0:0:
60,252,26171,2,0,P|90:321|180:312,1,160,2|0,0:0|0:0,0:0:0:0:
340,308,28017,2,0,L|428:220,1,120,2|0,0:0|0:0,0:0:0:0:
100,352,29863,5,4,0:0:0:0:
32,296,30324,2,0,P|59:221|139:209,1,160,8|8,0:0|0:0,0:0:0:0:
208,248,31708,1,0,0:0:0:0:
244,328,32170,6,0,P|324:320|364:240,1,160,8|8,0:0|0:0,0:0:0:0:
420,192,33554,1,0,0:0:0:0:
496,148,34016,1,8,0:0:0:0:
364,32,34938,1,8,0:0:0:0:
276,32,35400,6,0,P|255:111|275:191,1,160
310,265,36784,1,8,0:0:0:0:
222,265,37246,2,0,P|144:243|66:261,1,160
6,197,38630,1,8,0:0:0:0:
36,114,39091,5,0,0:0:0:0:
116,78,39553,1,8,0:0:0:0:
292,78,40476,1,8,0:0:0:0:
380,64,40937,6,0,P|364:136|284:168,1,160
205,192,42321,1,8,0:0:0:0:
256,192,42783,12,0,43936,0:0:0:0:
155,222,44629,6,0,B|156:144|156:144|192:64,1,160,4|2,0:0|0:0,0:0:0:0:
276,68,46013,1,8,0:0:0:0:
356,100,46474,2,0,B|355:178|355:178|319:258,1,160,4|2,0:0|0:0,0:0:0:0:
328,340,47859,1,8,0:0:0:0:
240,324,48320,6,0,B|161:311|169:332|64:324,1,160,2|2,0:0|0:0,0:0:0:0:
84,236,49704,1,8,0:0:0:0:
32,164,50166,1,2,0:0:0:0:
88,96,50627,2,0,L|128:8,1,80,8|2,0:0|0:0,0:0:0:0:
208,20,51550,1,8,0:0:0:0:
232,104,52012,6,0,B|232:176|290:176|290:257,1,160,4|2,0:0|0:0,0:0:0:0:
204,264,53396,1,8,0:0:0:0:
240,344,53857,2,0,B|296:352|344:344|392:304,1,160,2|2,0:0|0:0,0:0:0:0:
456,248,55242,1,8,0:0:0:0:
444,160,55703,6,0,P|405:88|333:50,1,160
256,24,57088,1,8,0:0:0:0:
168,28,57549,1,2,0:0:0:0:
84,60,58010,1,8,0:0:0:0:
40,232,58933,1,8,0:0:0:0:
128,232,59395,6,8,L|217:232,2,80,4|8|0,0:0|0:0|0:0,0:0:0:0:
124,320,60779,1,8,0:0:0:0:
212,320,61240,1,2,0:0:0:0:
300,312,61702,2,0,P|355:264|345:180,1,160,8|8,0:0|0:0,0:0:0:0:
304,108,63086,5,4,0:0:0:0:
228,64,63548,2,8,L|56:100,1,160
68,188,64932,1,2,0:0:0:0:
68,276,65393,2,0,L|68:316,1,40,8|0,0:0|0:0,0:0:0:0:
200,316,66316,1,8,0:0:0:0:
288,312,66778,6,0,P|344:240|408:232,1,160,4|2,0:0|0:0,0:0:0:0:
472,172,68162,1,8,0:0:0:0:
408,112,68623,2,0,P|344:104|288:32,1,160,2|2,0:0|0:0,0:0:0:0:
196,28,70008,1,8,0:0:0:0:
128,84,70469,2,0,P|144:168|128:248,1,160,0|2,0:0|0:0,0:0:0:0:
112,328,71854,1,8,0:0:0:0:
256,192,72315,12,4,73469,0:0:0:0:
