osu file format v9

[General]
AudioFilename: Lady Gaga - Judas.mp3
AudioLeadIn: 0
PreviewTime: 65895
Countdown: 1
SampleSet: Soft
StackLeniency: 0.7
Mode: 0
LetterboxInBreaks: 0

[Editor]
Bookmarks: 160024
DistanceSpacing: 1
BeatDivisor: 4
GridSize: 4

[Metadata]
Title:Judas
Artist:Lady Gaga
Creator:HellDawn
Version:Hard
Source:
Tags:fame monster Niva Roddie DarkDunskin

[Difficulty]
HPDrainRate:6
CircleSize:4
OverallDifficulty:7
ApproachRate:8
SliderMultiplier:2
SliderTickRate:2

[Events]
//Background and Video events
0,0,"ladygaga-1024x768.jpg"
//Break Periods
2,22590,28968
2,95873,100419
2,161620,173701
//Storyboard Layer 0 (Background)
//Storyboard Layer 1 (Fail)
//Storyboard Layer 2 (Pass)
//Storyboard Layer 3 (Foreground)
Sprite,Foreground,Centre,"SB\Niva.png",320,240 M,0,15055,22383,120,391 F,0,22154,22383,1,0 F,0,29711,29940,0,1 F,0,29940,65666,1 F,0,65666,65895,1,0 F,0,101162,101620,0,1 F,0,101620,131849,1 F,0,131849,132078,1,0 F,0,174444,175360,0,1 F,0,175360,205360,1 F,0,205360,205589,1,0
Sprite,Foreground,Centre,"SB\Niva1.png",320,240 M,0,15055,,120,391 F,0,15055,15513,1,0
Sprite,Foreground,Centre,"SB\HellDawn.png",320,240 M,0,66353,,447,391 F,0,95666,95895,1,0 F,0,132307,161162,1 F,0,161162,161620,1,0 F,0,207421,208337,0,1 F,0,208337,244063,1 F,0,244063,245666,1,0
Sprite,Foreground,Centre,"SB\HellDawn1.png",320,240 M,0,66353,,447,389 F,0,66353,66811,1,0 F,0,132307,132765,1,0
//Storyboard Sound Samples
//Background Colour Transformations
3,100,163,162,255

[TimingPoints]
406,458.015267175573,4,2,0,50,1,0
22390,-100,4,1,0,50,0,0
36589,-100,4,1,0,40,0,0
37047,-100,4,1,0,50,0,0
66360,-100,4,1,0,50,0,1
95673,-100,4,1,0,50,0,0
102543,-100,4,1,0,40,0,0
103001,-100,4,1,0,50,0,0
132314,-100,4,1,0,50,0,1
161627,-100,4,1,0,15,0,0
176169,-100,4,1,0,50,0,0
176398,-100,4,2,0,50,0,0
181665,-100,4,1,0,50,0,0
183955,-100,4,2,0,50,0,0
188993,-100,4,1,0,50,0,0
190940,-100,4,2,0,50,0,0
198268,-100,4,1,0,50,0,0
207428,-100,4,1,0,15,0,0
209260,-100,4,1,0,50,0,1
238573,-100,4,1,0,50,0,0
245673,-100,4,1,0,15,0,0

[Colours]
Combo1 : 94,94,255
Combo2 : 0,82,164
Combo3 : 200,200,200
SliderBorder : 0,0,0

[HitObjects]
40,344,15062,2,0,B|78:266|167:291,1,150,0|2
165,290,15520,2,0,B|180:184,1,100,0|2
208,96,15978,2,0,B|236:100|256:112|256:112|276:100|308:96,1,100,0|2
332,136,16322,2,0,B|324:184|360:232,1,100,0|2
388,324,16780,1,0
388,324,16894,6,0,B|344:324|344:324|288:292|288:292|228:292,1,150,0|2
246,292,17352,2,0,B|248:236|208:200,1,100,0|2
80,146,17810,2,0,B|78:202|116:236,1,100,0|2
116,236,18154,2,0,B|90:288|33:291,1,100,0|2
180,192,18612,1,0
180,192,18726,6,0,B|232:124|328:168,1,150,0|2
313,163,19184,2,0,B|352:72,1,100,0|2
408,152,19642,2,0,B|360:256,1,100,0|2
366,242,19986,1,0
312,328,20215,1,2
216,296,20444,1,0
216,296,20558,2,0,B|180:272|144:296|144:296|104:320|72:296,1,150,0|2
74,298,21016,2,0,B|56:200,1,100,0|2
256,192,21474,12,4,22390
452,52,29718,6,0,B|472:116|472:116|432:144|448:192,1,150,4|2
446,188,30176,1,8
488,280,30406,1,2
396,324,30635,1,0
300,304,30864,2,0,B|287:352,1,50,2|8
224,248,31207,2,0,B|216:320,1,50,0|2
120,324,31551,6,0,B|28:300|44:200,1,150,0|2
42,213,32009,2,0,B|93:191|105:141,1,100,8|2
200,172,32467,1,0
276,108,32696,2,0,B|300:106|323:117,1,50,2|8
396,188,33039,2,0,B|420:193|444:186,1,50,0|2
492,276,33383,6,0,B|488:312|468:352|468:352|436:340|396:356,1,150,0|2
399,354,33841,1,8
304,320,34070,1,2
208,344,34299,1,0
140,272,34528,2,0,B|124:248|128:220,1,50,2|8
164,132,34871,2,0,B|176:104|176:76,1,50,0|2
256,192,35215,12,0,36589
384,256,37047,5,0
384,256,37276,2,0,B|352:304|296:284,1,100,0|10
216,224,37734,1,0
128,268,37963,2,0,B|80:296|72:348,2,100,0|2|8
120,168,38650,1,2
64,84,38879,5,2
256,24,39337,1,8
448,84,39795,1,0
404,280,40253,1,8
324,340,40482,5,2
232,300,40711,2,0,B|192:272|136:288,1,100,2|0
36,272,41169,1,10
4,176,41398,1,0
76,108,41627,1,0
168,144,41856,2,2,B|206:170|288:164|308:104|294:52,1,200
295,56,42543,5,2
392,232,43001,1,8
220,336,43459,1,0
120,164,43917,1,8
172,76,44146,5,2
268,100,44375,1,2
360,64,44604,2,0,B|416:56|440:11,2,100,0|10|0
268,100,45291,1,0
232,192,45520,1,2
268,284,45749,1,8
360,320,45978,1,2
360,320,46207,5,2
172,384,46665,1,8
36,240,47123,1,0
84,44,47581,1,8
176,84,47810,5,2
272,60,48039,2,0,B|304:60|304:60|336:80|336:80|368:80,1,100,2|0
412,168,48497,1,10
508,188,48726,1,0
412,168,48955,1,0
364,256,49184,1,2
304,336,49413,2,0,B|256:368|208:336,1,100,8|2
148,256,49871,5,2
84,68,50329,1,8
256,172,50787,1,0
428,68,51245,1,8
364,256,51703,1,4
256,192,51818,12,2,53535
116,308,53993,6,0,B|12:308,2,100,10|2|0
192,244,54680,1,2
268,312,54909,2,0,B|340:336|408:280|396:208,1,200,8|2
336,128,55596,1,0
408,60,55825,6,0,B|440:16|496:16,1,100,8|2
284,212,56283,2,0,B|252:256|196:256,1,100
108,212,56741,1,10
108,212,57199,6,0,B|88:164,1,50,2|0
184,140,57543,2,0,B|176:88,1,50,0|8
256,28,57886,1,2
335,90,58115,2,0,B|328:140,1,50
423,165,58459,2,0,B|404:212,1,50,2|8
460,296,58802,1,2
256,192,59031,12,2,60864
360,156,61322,6,0,B|384:112|384:112|360:68,2,100,10|2|0
400,248,62009,1,2
344,328,62238,2,0,B|292:332|256:368|256:368|216:332|164:328,1,200,8|2
64,340,62925,1,0
24,248,63154,6,0,B|4:200|4:200|20:156,1,100,8|2
212,94,63612,2,0,B|232:142|232:142|216:188,1,100
116,176,64070,1,10
116,176,64528,6,0,B|132:200|136:232,1,50,2|0
116,320,64871,2,0,B|140:316|168:336,1,50,0|8
252,376,65215,1,2
348,332,65444,2,0,B|372:316|396:320,1,50
377,222,65787,2,0,B|380:200|396:176,1,50
256,32,66360,6,0,B|252:84|200:112,1,100,6|0
84,116,66818,1,8
40,228,67047,1,2
116,324,67276,2,2,B|235:396|290:235,1,200,2|8
388,320,67963,2,2,B|340:196|476:168,1,200,2|2
508,60,68650,1,8
404,4,68879,1,0
296,60,69108,2,0,B|224:60|224:60|172:100|172:100|100:100,2,200,2|10|6
384,139,70253,6,0,B|404:92|393:41,2,100,0|8|0
312,236,70940,2,0,B|284:192|296:128,2,100,2|0|8
384,332,71627,1,2
384,332,72085,2,2,B|344:393|227:413|162:311|180:237,1,300,2|2
220,156,73001,5,0
180,64,73230,2,2,B|139:30|78:29|36:72|37:128,1,200,10|6
72,220,73917,1,0
36,312,74146,1,10
144,376,74375,1,2
144,376,74604,2,2,B|192:368|224:320|224:320|272:348|328:336,1,200,2|8
412,260,75291,1,2
412,260,75749,6,0,B|414:200|357:166,1,100,2|8
177,238,76207,2,0,B|226:269|272:244,1,100,0|2
311,44,76665,2,0,B|260:71|260:124,1,100,0|8
259,123,77352,5,6
144,100,77581,1,0
48,172,77810,1,8
76,288,78039,1,0
188,336,78268,2,2,B|236:304|280:336|280:336|324:368|376:336,1,200,2|10
468,368,78955,2,2,B|558:294|501:186,1,200
460,96,79642,5,8
340,96,79871,1,0
256,180,80100,1,0
172,96,80329,1,0
52,96,80558,1,8
52,96,81016,6,0,B|16:144|56:188,1,100,6|0
68,308,81474,1,8
188,288,81703,1,0
288,352,81932,2,0,B|336:376|384:344,1,100,2|0
356,228,82390,1,8
456,160,82619,1,0
352,100,82848,6,2,B|304:76|256:68|256:68|208:76|160:100,2,200,2|8|2
456,160,83993,1,0
488,276,84222,1,8
432,380,84451,1,0
432,380,84680,5,6
200,324,85138,2,2,B|-12:324,1,200,10|2
72,32,86283,5,2
272,32,86741,2,2,B|484:32,1,200
384,212,87657,6,0,B|436:232|484:204,2,100,0|8|0
284,204,88344,2,2,B|165:162|128:284,1,200,6|8
56,212,89031,1,0
120,136,89260,2,2,B|204:72|328:124,1,200,2|8
348,208,89947,1,0
436,160,90176,2,2,B|481:225|468:320|396:372|304:344,1,300,2|0
212,312,91093,1,2
212,312,91551,6,0,B|220:284|212:256|212:256|174:180|174:180|168:152|172:120,2,200,8|6|8
212,312,92925,1,2
296,72,93612,6,2,B|288:100|296:128|296:128|334:204|334:204|340:232|336:264,2,200
184,32,94757,1,0
68,64,94986,1,0
32,176,95215,1,8
32,176,95673,5,4
256,192,101169,12,0,102543
256,256,103001,5,6
256,256,103230,1,0
352,280,103459,1,10
436,228,103688,1,0
432,128,103917,1,0
356,64,104146,2,0,B|316:32|260:44,1,100,2|8
180,100,104604,2,2,B|124:108|83:75,1,100
76,276,105291,5,8
256,360,105749,1,0
436,276,106207,1,8
468,180,106436,5,2
420,92,106665,1,2
328,52,106894,1,0
236,88,107123,2,0,B|188:116|136:88,1,100,10|0
52,44,107581,1,0
64,144,107810,1,2
0,224,108039,2,2,B|-27:261|-24:343|35:365|87:353,1,200,8|2
276,296,108955,5,8
472,328,109413,1,0
512,132,109871,1,8
316,92,110329,5,2
220,124,110558,1,2
124,104,110787,2,0,B|64:108|40:152|40:152|80:192|80:244,1,200,8|0
72,340,111474,1,2
164,380,111703,2,2,B|216:368|232:312|232:312|332:304,1,200,10|2
496,192,112619,5,8
356,52,113077,1,0
156,52,113535,1,8
0,196,113993,1,2
88,240,114222,6,2,B|128:268|131:338|86:389|33:381,1,200,2|0
0,288,114909,1,0
0,288,115138,2,2,B|60:300|120:344|196:356,1,200
288,376,115825,5,2
484,348,116283,1,8
448,152,116741,1,0
248,176,117199,1,8
48,200,117657,1,4
256,192,117772,12,2,119489
416,124,119947,6,0,B|404:80|404:80|416:52|416:20,2,100,10|2|0
456,216,120635,1,2
364,256,120864,1,8
364,256,121322,6,0,B|332:292|332:292|332:332|364:356,1,100,2|0
148,256,121780,2,0,B|180:292|180:292|180:332|148:356,1,100,8|2
256,380,122238,1,0
256,380,122696,6,0,B|256:276,1,100,10|0
308,196,123154,1,2
308,196,123268,1,0
368,116,123497,2,0,B|344:96|336:68,1,50,0|8
256,20,123841,1,2
173,76,124070,2,0,B|168:96|144:116,1,50,0|0
204,196,124413,1,2
204,196,124528,1,8
256,284,124757,1,2
256,192,124986,12,2,126818
128,300,127276,6,0,B|72:284|24:316,2,100,10|2|0
224,324,127963,1,2
320,352,128192,2,0,B|370:402|428:341|416:261|342:270,1,200,8|2
276,200,128879,2,0,B|236:155|254:97,1,100,0|8
308,24,129337,1,2
404,4,129566,1,0
496,48,129795,1,0
508,148,130024,1,10
508,148,130482,6,0,B|499:162|467:180,1,50,2|0
412,260,130825,2,0,B|380:252|344:256,1,50,0|8
256,192,131169,1,2
149,254,131398,2,0,B|132:252|100:260,1,50
42,179,131741,2,0,B|12:162|4:148,1,50
172,40,132314,5,6
288,76,132543,1,0
400,36,132772,2,2,B|453:15|509:50|520:110|476:152,1,200,10|2
380,228,133459,1,0
368,348,133688,1,8
252,316,133917,2,2,B|203:296|155:322|155:322|102:300|90:241,1,200
152,144,134604,6,0,B|156:92|116:52,1,100,8|0
256,112,135062,2,0,B|256:4,1,100,2|0
360,144,135520,2,0,B|356:92|396:52,1,100,8|0
472,148,135978,5,6
508,264,136207,1,0
408,332,136436,1,8
320,248,136665,1,0
208,292,136894,2,2,B|132:292|132:292|108:364|20:356,1,200,2|10
20,240,137581,1,2
20,240,138039,5,2
60,128,138268,1,8
180,136,138497,1,0
296,108,138726,2,0,B|336:92|336:92|344:60|372:44,2,100,0|0|10
456,284,139642,5,6
336,264,139871,1,0
228,316,140100,2,2,B|182:349|122:339|88:289|92:235,1,200,10|2
124,120,140787,1,0
232,68,141016,1,8
336,132,141245,2,2,B|368:168|428:160|428:160|452:108|508:116,2,200
232,68,142390,1,2
124,120,142619,2,0,B|76:148|28:120,1,100,0|8
112,344,143306,6,0,B|212:344,1,100,6|0
331,344,143764,1,8
180,248,143993,2,0,B|280:248,1,100,0|2
399,248,144451,1,0
336,148,144680,2,0,B|304:100|340:52,1,100,8|2
100,40,145367,5,2
180,128,145596,1,8
60,116,145825,1,0
112,224,146054,1,0
4,176,146283,1,0
20,296,146512,1,8
20,296,146970,6,0,B|36:352|92:364,1,100,6|0
204,328,147428,1,8
320,356,147657,1,0
392,260,147886,2,0,B|392:204|438:175,1,100,2|0
368,80,148344,1,8
252,104,148573,1,0
140,64,148802,6,2,B|66:28|-28:84|-39:189|19:243,1,300,2|0
116,304,149718,2,2,B|164:336|212:304|212:304|256:280|308:312,1,200,2|8
420,100,150635,6,2,B|516:168|472:280,2,200,6|10|2
92,284,152238,2,2,B|-4:216|40:104,2,200
256,108,153612,5,0
312,212,153841,1,8
420,264,154070,1,0
308,304,154299,2,2,B|256:324|240:376|240:376|200:348|148:348,1,200,6|8
32,372,154986,1,0
4,256,155215,6,0,B|-16:136,1,100,2|0
97,84,155673,2,0,B|104:184,1,100,8|0
212,124,156131,2,0,B|216:4,1,100,2|0
342,0,156589,2,0,B|324:100,1,100,8|0
300,216,157047,1,2
356,324,157276,1,0
476,336,157505,1,8
476,336,157963,5,6
444,100,158421,2,10,B|400:212|520:260,1,200,10|2
36,48,159566,5,2
68,284,160024,2,0,B|112:172|-8:124,2,200,2|2|0
256,192,174451,12,0,175825
64,280,176283,6,0,B|156:268|184:352,1,150,4|2
182,346,176741,2,0,B|284:348,1,100,0|2
376,380,177199,2,0,B|388:280,1,100,0|2
484,308,177657,2,0,B|468:192,1,100,0|2
380,168,178115,6,0,B|304:116|348:24,1,150,0|2
342,36,178573,2,0,B|244:24,1,100,0|2
152,68,179031,2,0,B|92:68|64:120,1,100,0|2
0,188,179489,2,0,B|23:233|83:233,1,100,0|2
112,328,179947,6,0,B|152:256|244:280,1,150,0|2
240,279,180406,2,2,B|256:180,1,100
276,84,180864,2,0,B|320:64|320:64|372:64,1,100,0|2
452,120,181322,2,0,B|408:140|408:140|356:140,1,100,0|2
356,240,181780,6,0,B|356:304,7,50
116,352,183612,6,0,B|120:268|36:232,1,150,4|2
40,234,184070,2,0,B|76:140,1,100,0|2
132,56,184528,2,0,B|180:32|232:56,1,100,0|2
320,92,184986,2,0,B|368:114|416:90,1,100,0|2
492,156,185444,6,0,B|448:228|516:296,1,150,0|2
512,292,185902,2,0,B|412:336,1,100,0|2
332,384,186360,2,0,B|312:336|256:320,1,100,0|2
220,228,186818,2,0,B|200:276|140:288,1,100,0|2
68,352,187276,6,0,B|0:308|4:220,1,150,0|2
3,224,187734,2,0,B|96:184,1,100,0|2
108,84,188192,2,0,B|160:84|160:84|208:104,1,100,0|2
307,102,188650,2,0,B|352:84|352:84|404:84,1,100,0|2
256,276,189108,6,0,B|256:196,2,66.6666666666667
256,308,189566,2,0,B|256:360,3,50
256,192,190024,12,4,190940
128,112,191398,6,0,B|84:112|84:112|52:104|32:64,2,100,0|2|8
320,56,192314,1,0
420,40,192543,1,2
484,120,192772,2,0,B|532:192|480:272,1,150,0|2
486,261,193230,2,0,B|428:248|392:288,1,100,0|2
324,356,193688,1,8
236,308,193917,2,0,B|212:296|184:296,1,50,0|8
100,344,194260,2,0,B|76:352|48:348,1,50,0|8
20,252,194604,6,0,B|16:212|-8:180|-8:180|16:148|20:108,1,150,0|2
19,113,195062,2,0,B|72:136|120:104,1,100,0|2
188,36,195520,2,0,B|312:8|340:136,1,200,8|0
348,228,196207,1,2
348,228,196665,6,0,B|448:228,1,100
312,320,197123,2,0,B|424:320,1,100,0|2
200,320,197581,2,0,B|88:320,1,100,0|2
164,228,198039,2,2,B|64:228,1,100,2|0
28,84,198612,5,0
28,84,198726,2,0,B|68:48|124:60,1,100,8|0
216,84,199184,1,2
312,112,199413,1,0
412,100,199642,1,10
500,56,199871,1,2
500,56,200100,6,8,B|500:108|540:148|540:148|496:184,1,150,0|0
503,178,200558,2,0,B|472:228|504:284,1,100,8|0
460,364,201016,1,2
360,380,201245,1,0
268,344,201474,2,0,B|244:328|220:328,2,50,10|0|0
332,268,201932,6,0,B|376:196|312:128,1,150,2|0
314,130,202390,2,0,B|216:120,1,100,8|2
32,164,202848,2,0,B|132:176,2,100,0|2|8
132,176,203535,1,2
256,192,203764,12,4,205596
256,192,207428,12,6,208802
116,252,209260,5,4
116,252,209489,2,0,B|132:308|80:352,2,100,0|8|0
80,136,210176,1,2
144,36,210406,1,0
264,48,210635,1,8
372,96,210864,2,2,B|496:128|548:0,2,200
304,196,212009,1,10
340,312,212238,1,0
456,340,212467,1,8
456,340,212925,6,0,B|480:292|456:240,1,100,6|0
404,136,213383,1,8
284,116,213612,1,0
180,176,213841,2,2,B|80:256|-12:148,1,200,2|10
16,44,214528,1,2
16,44,214986,5,2
136,56,215215,1,8
220,144,215444,1,0
292,240,215673,1,0
376,328,215902,1,0
496,340,216131,1,10
496,340,216589,6,0,B|532:300|516:240,1,100,6|0
404,212,217047,2,0,B|365:167|380:117,1,100,8|0
312,20,217505,2,2,B|192:0|148:104,1,200,2|10
180,216,218192,1,2
180,216,218650,6,0,B|168:268|168:268|148:280|136:308,1,100,0|8
256,284,219108,2,0,B|256:388,1,100,0|2
332,216,219566,2,0,B|344:268|344:268|364:280|376:308,1,100,0|8
460,80,220253,5,6
348,44,220482,2,0,B|232:8|176:112,1,200
104,200,221169,2,2,B|108:244|152:288|152:288|160:340|128:384,1,200,2|10
248,364,221856,1,2
248,364,222314,6,0,B|284:328|340:336,1,100,2|8
456,360,222772,1,0
492,244,223001,2,0,B|516:200|492:140,2,100,0|0|8
332,64,223917,6,0,B|224:64,1,100,6|0
120,20,224375,2,0,B|88:68|120:116,1,100,8|0
64,220,224833,1,2
124,324,225062,1,0
240,300,225291,2,0,B|296:292|336:328,1,100,8|0
444,372,225749,2,2,B|538:300|487:185,1,200,2|8
432,88,226436,1,0
320,136,226665,2,2,B|228:204|124:140,1,200,2|8
312,304,227581,6,2,B|372:320|400:272|400:272|448:248|492:292,2,200,6|10|2
200,80,229184,2,2,B|140:64|112:112|112:112|64:136|20:92,2,200
436,48,230558,5,0
492,156,230787,1,8
464,272,231016,1,0
348,304,231245,6,0,B|304:332|252:300,1,100,6|0
152,236,231703,1,8
60,316,231932,1,0
152,236,232161,1,2
120,120,232390,1,0
232,76,232619,2,0,B|268:120|328:104,1,100,8|0
440,84,233077,6,2,B|512:160|516:292|408:344,1,300,2|0
304,296,233993,2,2,B|232:296|232:296|176:332|176:332|108:332,1,200,2|8
0,120,234909,5,6
204,244,235367,2,2,B|196:356|76:384,1,200,8|2
512,264,236512,5,2
308,140,236970,2,0,B|316:28|436:0,2,200,2|2|0
284,256,238115,1,8
352,356,238344,1,0
472,364,238573,5,6
488,216,238917,2,0,B|484:188|472:160,1,50,0|10
416,88,239260,1,0
328,136,239489,1,2
240,92,239718,2,0,B|224:80|180:84,1,50,0|2
104,136,240062,2,0,B|76:152|44:152,1,50,0|2
20,244,240406,6,2,B|8:336|96:368,1,150,2|0
86,364,240864,2,0,B|112:312|176:320,1,100,10|0
268,336,241322,1,2
368,356,241551,2,0,B|396:364|424:360,1,50,0|2
484,284,241894,2,0,B|460:272|432:280,1,50,0|2
348,232,242238,6,2,B|305:160|345:88,1,150,2|0
344,89,242696,2,0,B|252:48,1,100,10|0
160,84,243154,1,2
60,80,243383,2,0,B|44:104|40:136,1,50,0|2
12,220,243726,2,0,B|16:256|51:292,1,50,0|2
256,192,244070,12,4,245673
