osu file format v12

[General]
AudioFilename: Hair.mp3
AudioLeadIn: 0
PreviewTime: 55899
Countdown: 0
SampleSet: None
StackLeniency: 0.7
Mode: 0
LetterboxInBreaks: 0
EpilepsyWarning: 1
WidescreenStoryboard: 0

[Editor]
DistanceSpacing: 1.5
BeatDivisor: 4
GridSize: 4

[Metadata]
Title:Hair
TitleUnicode:Hair
Artist:Lady Gaga
ArtistUnicode:Lady Gaga
Creator:HellDawn
Version:Insane
Source:
Tags:
BeatmapID:286048
BeatmapSetID:109618

[Difficulty]
HPDrainRate:7
CircleSize:4
OverallDifficulty:8
ApproachRate:8
SliderMultiplier:1.4
SliderTickRate:1

[Events]
//Background and Video events
0,0,"Background.jpg",0,0
//Break Periods
2,86110,99382
2,185665,198938
//Storyboard Layer 0 (Background)
//Storyboard Layer 1 (Fail)
//Storyboard Layer 2 (Pass)
//Storyboard Layer 3 (Foreground)
//Storyboard Sound Samples
//Background Colour Transformations
3,100,255,255,255

[TimingPoints]
14799,444.444444444444,4,2,0,65,1,0
43243,-66.6666666666667,4,1,0,65,0,0
55687,-133.333333333333,4,1,0,65,0,0
55798,-133.333333333333,4,2,0,20,0,0
56576,-133.333333333333,4,2,0,65,0,0
57465,-66.6666666666667,4,1,0,65,0,1
85910,-66.6666666666667,4,1,0,65,0,0
100132,-100,4,1,0,65,0,0
101910,-133.333333333333,4,1,0,65,0,0
102354,-100,4,1,0,65,0,0
105465,-133.333333333333,4,1,0,65,0,0
105910,-100,4,1,0,65,0,0
109021,-133.333333333333,4,1,0,65,0,0
109465,-100,4,1,0,65,0,0
114354,-66.6666666666667,4,1,0,65,0,0
145910,-100,4,1,0,65,0,0
146132,-66.6666666666667,4,1,0,65,0,0
153465,-100,4,1,0,65,0,0
153910,-66.6666666666667,4,1,0,65,0,0
155243,-100,4,1,0,65,0,0
155354,-66.6666666666667,4,2,0,65,0,0
157021,-66.6666666666667,4,1,0,65,0,1
185465,-66.6666666666667,4,1,0,65,0,0
199687,-100,4,1,0,65,0,0
201465,-133.333333333333,4,1,0,65,0,0
201910,-100,4,1,0,65,0,0
205021,-133.333333333333,4,1,0,65,0,0
205465,-100,4,1,0,65,0,0
208576,-133.333333333333,4,1,0,65,0,0
209021,-100,4,1,0,65,0,0
213910,-66.6666666666667,4,1,0,65,0,0
256576,-133.333333333333,4,1,0,65,0,0
270798,-66.6666666666667,4,1,0,65,0,1
298798,-66.6666666666667,4,1,0,30,0,0
299132,-66.6666666666667,4,1,0,30,0,1
299243,-66.6666666666667,4,1,0,30,0,0

[Colours]
Combo1 : 235,215,255
Combo2 : 255,255,164
Combo3 : 255,202,228
Combo4 : 255,217,198
SliderBorder : 210,210,210

[HitObjects]
162,195,14799,2,0,P|110:236|111:308,1,140,2|0,0:0|0:0,0:0:0:0:
32,336,15465,2,0,P|36:200|140:113,1,280
200,44,16576,2,0,B|220:68|256:84|256:84|296:68|316:40,1,140,4|0,0:0|0:0,0:0:0:0:
320,136,17243,1,0,0:0:0:0:
320,136,17465,2,0,P|256:164|192:136,1,140
80,128,18354,6,0,B|108:176|108:176|132:212|180:232,1,140,2|0,0:0|0:0,0:0:0:0:
256,248,19021,1,0,0:0:0:0:
339,228,19243,2,0,B|380:212|404:176|404:176|432:128,1,140
488,200,20132,2,0,L|452:264,2,70,2|0|0,0:0|0:0|0:0,0:0:0:0:
464,336,21021,2,0,P|408:324|376:248,1,140
320,192,21688,1,0,0:0:0:0:
375,254,21910,6,0,P|406:192|378:132,1,140,2|0,0:0|0:0,0:0:0:0:
432,68,22576,2,0,P|488:192|432:316,1,280
328,328,23688,2,0,L|188:328,1,140,2|0,0:0|0:0,0:0:0:0:
188,244,24576,2,0,L|332:244,2,140
80,184,26132,53,0,0:0:0:0:
112,104,26354,1,0,0:0:0:0:
256,40,27021,1,0,0:0:0:0:
256,124,27243,1,0,0:0:0:0:
400,104,27910,1,0,0:0:0:0:
432,184,28132,1,0,0:0:0:0:
316,292,29021,6,0,P|256:264|192:292,1,140,0|0,1:0|0:0,0:0:0:0:
140,220,29688,2,0,P|128:184|128:144,1,70,0|0,0:0|1:0,0:0:0:0:
192,291,30132,2,0,P|208:328|212:360,1,70
124,348,30576,1,0,0:0:0:0:
124,348,30799,2,0,P|56:328|8:268,1,140,0|0,1:0|0:0,0:0:0:0:
120,232,31465,1,0,1:0:0:0:
12,277,31688,2,0,P|20:237|16:203,1,70,0|0,1:0|0:0,0:0:0:0:
120,232,32132,2,0,B|84:188|96:148|96:148|112:96,1,140,0|0,1:0|0:0,0:0:0:0:
401,101,33021,6,0,B|416:148|416:148|428:188|392:232,1,140,0|0,0:0|1:0,0:0:0:0:
256,264,33799,1,0,0:0:0:0:
120,232,34132,1,0,0:0:0:0:
196,320,34354,2,0,P|256:352|316:324,1,140,0|0,1:0|0:0,0:0:0:0:
316,212,35243,2,0,P|256:180|196:208,2,140,0|0|0,0:0|1:0|0:0,0:0:0:0:
256,56,36465,5,0,0:0:0:0:
195,208,36799,1,0,0:0:0:0:
112,196,37021,54,0,B|104:252|160:304|208:292|208:292|264:276,1,210,0|0,1:0|0:0,0:0:0:0:
276,360,37910,2,0,L|344:340,1,70,0|0,1:0|0:0,0:0:0:0:
260,188,38354,2,0,L|184:212,1,70
276,24,38799,2,0,L|344:44,2,70,0|0|0,1:0|0:0|1:0,0:0:0:0:
152,228,39688,6,0,B|128:156|236:88|292:184,1,210
356,156,40576,2,0,B|376:232|272:292|220:208,1,210
236,360,41465,1,0,0:0:0:0:
256,192,41576,12,0,43021,0:0:0:0:
48,232,43243,22,0,P|48:144|152:108,1,210.000008010865,4|0,0:0|0:0,0:0:0:0:
216,160,43910,2,0,P|176:188|120:188,1,105.000004005432
256,340,44354,1,0,0:0:0:0:
372,272,44576,2,0,P|329:246|304:196,1,105.000004005432
396,184,45021,2,0,P|460:276|412:352,1,210.000008010865
372,272,45688,2,0,L|328:312,2,52.5000020027161
424,92,46132,1,0,0:0:0:0:
240,52,46354,1,0,0:0:0:0:
192,212,46576,1,0,0:0:0:0:
160,68,46799,38,0,P|104:44|48:68,1,105.000004005432
104,128,47243,2,0,P|164:152|240:48,1,210.000008010865
160,68,47910,1,0,0:0:0:0:
104,128,48132,2,0,B|64:144|52:176|52:176|40:208,1,105.000004005432
124,204,48576,2,0,B|108:248|108:248|100:280|116:304,1,105.000004005432
184,264,49021,2,0,P|264:324|348:268,2,210.000008010865
52,352,50132,1,0,0:0:0:0:
96,256,50354,22,0,B|104:200|160:164|216:184|216:184|240:160|260:152,1,210.000008010865
264,80,51021,1,0,0:0:0:0:
264,80,51243,2,0,P|320:112|332:152,1,105.000004005432
256,156,51688,2,0,P|200:144|148:164,1,105.000004005432
208,220,52132,2,0,P|180:268|184:320,1,105.000004005432
260,288,52576,2,0,P|308:300|364:288,1,105.000004005432
380,280,52910,1,0,0:0:0:0:
392,268,53021,2,0,P|420:224|424:172,2,105.000004005432
348,80,53688,1,0,0:0:0:0:
200,76,53910,6,0,L|128:156|128:156,1,105.000004005432
220,184,54354,2,0,L|144:268,1,105.000004005432
432,340,54799,1,0,0:0:0:0:
256,280,55132,1,0,0:0:0:0:
80,340,55465,1,0,0:0:0:0:
168,228,55688,6,0,P|256:180|344:232,1,210.000008010865
416,88,56799,1,0,0:0:0:0:
272,28,57021,1,0,0:0:0:0:
212,160,57243,1,0,0:0:0:0:
88,52,57465,6,0,P|72:108|92:164,1,105.000004005432
84,151,57799,1,0,0:0:0:0:
84,151,57910,2,0,L|56:252,1,105.000004005432
128,312,58354,2,0,L|156:200,1,105.000004005432
358,210,58799,2,0,L|384:312,1,105.000004005432
255,360,59243,6,0,B|252:336|252:336|260:296|260:296|256:256,1,105.000004005432
248,240,59576,1,0,0:0:0:0:
240,224,59688,1,0,0:0:0:0:
392,108,59910,1,0,0:0:0:0:
256,156,60132,1,0,0:0:0:0:
120,108,60354,1,0,0:0:0:0:
168,16,60576,2,0,B|188:56|256:88|320:56|346:17,1,210.000008010865
392,108,61243,37,0,0:0:0:0:
256,168,61465,1,0,0:0:0:0:
200,352,61688,1,0,0:0:0:0:
348,244,61910,1,0,0:0:0:0:
164,244,62132,1,0,0:0:0:0:
312,352,62354,1,0,0:0:0:0:
256,168,62576,1,0,0:0:0:0:
120,108,62799,1,0,0:0:0:0:
64,340,63021,1,0,0:0:0:0:
448,340,63243,1,0,0:0:0:0:
392,108,63465,1,0,0:0:0:0:
128,24,63688,6,0,P|184:48|204:88,1,105.000004005432
308,85,64132,2,0,P|328:48|384:24,1,105.000004005432
308,240,64576,6,0,P|256:268|204:240,1,105.000004005432
204,244,64910,1,0,0:0:0:0:
192,236,65021,2,0,P|148:216|88:236,1,105.000004005432
140,292,65465,2,0,P|92:308|40:288,1,105.000004005432
372,292,65910,2,0,P|420:308|472:288,1,105.000004005432
332,104,66354,6,0,B|300:104|272:88|256:44|256:44|240:88|212:104|176:104,1,210.000008010865
176,24,67021,1,0,0:0:0:0:
92,88,67243,2,0,P|108:160|228:180,1,210.000008010865
312,296,68132,38,0,B|320:244|320:244|360:208,1,105.000004005432
200,88,68576,2,0,B|192:140|192:140|152:176,1,105.000004005432
144,184,68910,1,0,0:0:0:0:
136,192,69021,2,0,B|92:228|92:228|92:280,1,105.000004005432
176,296,69465,1,0,0:0:0:0:
264,308,69688,1,0,0:0:0:0:
264,308,69910,2,0,P|364:280|368:184,1,210.000008010865
168,24,70799,5,0,0:0:0:0:
440,148,71021,1,0,0:0:0:0:
336,24,71243,1,0,0:0:0:0:
64,148,71465,1,0,0:0:0:0:
328,148,71688,2,0,P|256:212|184:148,1,210.000008010865,4|0,0:0|0:0,0:0:0:0:
256,64,72354,1,0,0:0:0:0:
444,260,72576,5,0,0:0:0:0:
68,260,72798,1,0,0:0:0:0:
328,344,73020,1,0,0:0:0:0:
180,344,73242,1,0,0:0:0:0:
180,268,73465,2,0,B|240:272|256:328|256:328|272:272|336:268,1,210.000008010865
360,176,74132,1,0,0:0:0:0:
360,176,74354,2,0,L|256:204,1,105.000004005432
152,92,74799,2,0,L|256:120,1,105.000004005432
344,68,75243,6,0,P|420:12|504:72,1,210.000008010865
424,96,75910,2,0,L|424:204,1,105.000004005432
336,328,76354,2,0,L|336:220,1,105.000004005432
244,124,76799,2,0,L|244:232,1,105.000004005432
244,229,77465,1,0,0:0:0:0:
92,108,77910,38,0,P|32:192|92:272,1,210.000008010865
116,192,78576,1,0,0:0:0:0:
196,128,78799,5,0,0:0:0:0:
196,252,79021,1,0,0:0:0:0:
312,128,79243,1,0,0:0:0:0:
312,252,79465,1,0,0:0:0:0:
388,192,79688,5,0,0:0:0:0:
312,252,79910,1,0,0:0:0:0:
256,328,80132,1,0,0:0:0:0:
196,252,80354,1,0,0:0:0:0:
124,192,80576,5,0,0:0:0:0:
200,136,80798,1,0,0:0:0:0:
256,56,81020,1,0,0:0:0:0:
316,132,81242,1,0,0:0:0:0:
464,256,81465,37,0,0:0:0:0:
336,328,81688,1,0,0:0:0:0:
176,328,81910,1,0,0:0:0:0:
48,256,82132,1,0,0:0:0:0:
256,328,82354,2,0,P|240:280|196:252,1,105.000004005432
256,328,82799,2,0,P|268:280|312:248,1,105.000004005432
144,216,83243,2,0,P|188:184|200:136,1,105.000004005432
372,212,83688,2,0,P|328:184|312:136,1,105.000004005432
256,60,84132,1,0,0:0:0:0:
256,192,84243,12,4,85910,0:0:0:0:
388,272,100132,38,0,P|352:212|320:196,1,105
322,196,100576,2,0,L|296:128,1,70
232,196,101021,2,0,L|256:264,1,70
148,208,101465,2,0,L|124:136,1,70
136,304,101910,2,0,P|81:284|53:233,1,105.000004005432
256,36,102799,6,0,B|260:72|260:72|252:104|252:104|260:140,2,105
172,80,103688,2,0,L|160:156,1,70
344,92,104132,2,0,L|356:16,1,70
412,148,104576,1,0,0:0:0:0:
424,300,104910,1,0,0:0:0:0:
320,192,105243,1,0,0:0:0:0:
332,280,105465,2,0,B|296:276|264:300|216:296,1,105.000004005432
220,220,106132,1,0,0:0:0:0:
220,220,106354,2,0,B|140:228|120:344|208:372,1,210
154,144,107243,6,0,P|190:204|222:220,1,105
219,219,107687,2,0,L|245:287,1,70
312,220,108132,2,0,L|288:152,1,70
396,208,108576,2,0,L|420:280,1,70
408,116,109021,2,0,P|464:148|484:192,1,105.000004005432
256,248,109910,22,0,B|252:284|252:284|260:316|260:316|252:352,2,105
340,264,110799,2,0,L|352:188,1,70
168,252,111243,2,0,L|156:328,1,70
100,196,111687,1,0,0:0:0:0:
88,44,112021,1,0,0:0:0:0:
192,152,112354,1,0,0:0:0:0:
172,52,112576,37,0,0:0:0:0:
216,40,112688,1,0,0:0:0:0:
256,48,112799,1,0,0:0:0:0:
288,68,112910,1,0,0:0:0:0:
300,108,113021,1,0,0:0:0:0:
284,148,113132,1,0,0:0:0:0:
264,180,113243,1,0,0:0:0:0:
260,216,113354,1,0,0:0:0:0:
284,252,113465,1,0,0:0:0:0:
312,276,113576,1,0,0:0:0:0:
356,272,113688,1,0,0:0:0:0:
392,260,113799,1,0,0:0:0:0:
416,228,113910,1,0,0:0:0:0:
420,192,114021,1,0,0:0:0:0:
408,160,114132,1,0,0:0:0:0:
384,128,114243,1,0,0:0:0:0:
352,116,114354,38,0,L|412:20,1,105.000004005432
420,192,114799,2,0,L|364:288,1,105.000004005432
256,340,115243,2,0,B|272:288|240:232|256:184,2,157.500006008148
144,282,116132,2,0,L|92:192,1,105.000004005432
104,26,116577,2,0,L|160:116,1,105.000004005432
244,52,117021,2,0,P|332:96|432:56,2,210.000008010865
256,192,118021,12,0,121021,0:0:0:0:
120,248,121465,6,0,P|180:284|268:284,1,157.500006008148
265,284,121910,2,0,L|324:376,1,105.000004005432
392,300,122354,2,0,L|336:208,1,105.000004005432
304,112,122799,2,0,P|256:96|204:116,2,105.000004005432
256,192,123465,5,0,0:0:0:0:
206,113,123688,1,0,0:0:0:0:
256,32,123910,1,0,0:0:0:0:
304,112,124132,2,0,P|352:128|380:176,1,105.000004005432
208,272,124576,2,0,P|160:256|132:208,1,105.000004005432
206,113,125021,1,0,0:0:0:0:
256,192,125132,12,0,128132,0:0:0:0:
172,112,128576,6,0,P|256:60|344:112,1,210.000008010865
256,152,129243,2,0,L|188:232,1,105.000004005432
304,240,129688,2,0,L|372:156,1,105.000004005432
388,280,130132,2,0,P|304:336|220:280,1,210.000008010865
160,224,130799,1,0,0:0:0:0:
96,164,131021,1,0,0:0:0:0:
160,104,131243,2,0,B|188:52|232:36|232:36|252:88|316:96,1,210.000008010865
368,156,131910,1,0,0:0:0:0:
316,224,132132,1,0,0:0:0:0:
256,192,132243,12,0,135243,0:0:0:0:
188,212,135688,6,0,P|236:164|328:144,1,157.500006008148
321,143,136132,2,0,L|368:244,1,105.000004005432
264,256,136576,2,0,L|312:360,1,105.000004005432
440,160,137021,2,0,L|392:64,1,105.000004005432
208,24,137465,2,0,B|148:32|132:84|132:84|88:44|32:68,1,210.000008010865
72,140,138132,1,0,0:0:0:0:
72,140,138354,2,0,L|48:248,1,105.000004005432
152,212,138799,2,0,L|128:316,1,105.000004005432
256,192,139243,12,0,140576,0:0:0:0:
256,328,140799,5,0,0:0:0:0:
256,192,141021,1,0,0:0:0:0:
251,194,141132,1,0,0:0:0:0:
246,193,141243,1,0,0:0:0:0:
242,189,141354,1,0,0:0:0:0:
246,184,141465,1,0,0:0:0:0:
250,180,141576,1,0,0:0:0:0:
255,179,141688,1,0,0:0:0:0:
260,182,141799,1,0,0:0:0:0:
261,187,141910,1,0,0:0:0:0:
256,192,142021,12,0,142799,0:0:0:0:
384,316,143021,21,0,0:0:0:0:
408,216,143243,2,0,P|344:180|324:152,1,105.000004005432
272,224,143688,2,0,P|244:168|244:124,1,105.000004005432
152,144,144132,2,0,P|180:76|208:48,1,105.000004005432
328,64,144576,2,0,B|372:32|428:40|428:40|464:84|452:140,1,210.000008010865
348,188,145243,5,0,0:0:0:0:
340,220,145354,1,0,0:0:0:0:
332,252,145465,1,0,0:0:0:0:
256,332,145688,1,0,0:0:0:0:
180,252,145910,2,0,L|160:180,1,70
208,68,146354,6,0,B|256:84|256:84|308:68,1,105.000004005432
304,216,146799,2,0,B|256:200|256:200|204:216,2,105.000004005432
256,336,147465,1,0,0:0:0:0:
124,308,147688,2,0,P|92:272|92:212,1,105.000004005432
32,172,148132,2,0,P|116:148|160:244,1,210.000008010865
256,160,148799,1,0,0:0:0:0:
352,244,149021,2,0,P|396:148|480:172,1,210.000008010865
424,220,149688,1,0,0:0:0:0:
424,220,149910,6,0,L|492:300,2,105.000004005432
304,96,150576,1,0,0:0:0:0:
256,96,150688,1,0,0:0:0:0:
208,96,150799,1,0,0:0:0:0:
88,220,151021,2,0,L|20:300,2,105.000004005432
204,188,151688,38,0,L|312:188,1,105.000004005432
308,280,152132,2,0,L|200:280,1,105.000004005432
200,368,152576,2,0,L|312:368,2,105.000004005432
112,352,153243,1,0,0:0:0:0:
112,352,153465,2,0,P|84:288|88:216,1,140
48,48,154354,5,0,0:0:0:0:
256,96,154688,1,0,0:0:0:0:
464,48,155021,1,0,0:0:0:0:
424,219,155243,2,0,P|440:284|400:360,1,140
140,152,156132,38,2,L|168:44,1,105.000004005432
345,50,156576,2,2,L|372:152,1,105.000004005432
360,260,157021,6,0,P|324:304|272:320,1,105.000004005432
256,324,157354,1,0,0:0:0:0:
232,320,157465,2,0,P|187:304|151:260,1,105.000004005432
168,124,157910,6,0,L|232:216,1,105.000004005432
295,126,158354,2,0,L|236:40,1,105.000004005432
340,216,158799,2,0,P|376:160|412:136,1,105.000004005432
406,138,159132,1,0,0:0:0:0:
406,138,159243,2,0,L|440:28,1,105.000004005432
496,132,159688,2,0,L|468:240,1,105.000004005432
356,328,160132,1,0,0:0:0:0:
156,328,160354,1,0,0:0:0:0:
42,233,160576,38,0,L|16:132,1,105.000004005432
74,37,161021,2,0,L|105:138,1,105.000004005432
105,138,161354,1,0,0:0:0:0:
105,138,161465,2,0,P|136:160|172:216,1,105.000004005432
176,48,161910,2,0,B|224:52|256:108|256:108|288:52|344:48,1,210.000008010865
308,168,162576,1,0,0:0:0:0:
308,168,162799,2,0,P|256:184|204:168,1,105.000004005432
156,232,163243,2,0,P|256:264|356:232,1,210.000008010865
456,140,164132,5,0,0:0:0:0:
376,304,164354,1,0,0:0:0:0:
344,128,164576,1,0,0:0:0:0:
472,248,164799,1,0,0:0:0:0:
296,224,165021,1,0,0:0:0:0:
256,344,165243,1,0,0:0:0:0:
216,224,165465,1,0,0:0:0:0:
40,248,165687,1,0,0:0:0:0:
168,128,165910,1,0,0:0:0:0:
136,304,166132,1,0,0:0:0:0:
56,140,166354,1,0,0:0:0:0:
256,64,166576,1,0,0:0:0:0:
256,64,166799,2,0,L|256:276,1,210.000008010865
416,100,167688,6,0,P|360:128|344:168,1,105.000004005432
424,180,168132,2,0,P|392:232|264:192,1,210.000008010865
184,224,168799,1,0,0:0:0:0:
184,224,169021,2,0,P|248:304|356:336,2,210.000008010865
328,224,170354,2,0,P|264:304|164:336,1,210.000008010865
80,288,171021,1,0,0:0:0:0:
164,336,171243,6,0,P|176:280|156:236,1,105.000004005432,4|0,0:0|0:0,0:0:0:0:
80,288,171688,2,0,P|32:312|-24:312,1,105.000004005432
158,238,172132,2,0,P|118:202|66:202,2,105.000004005432
236,204,172799,1,0,0:0:0:0:
236,204,173021,2,0,P|148:124|60:116,1,210.000008010865
299,46,173688,6,0,P|332:80|340:136,2,105.000004005432
256,120,174355,1,0,0:0:0:0:
212,46,174577,2,0,P|180:80|172:136,2,105.000004005432
172,136,175243,1,0,0:0:0:0:
256,216,175465,1,0,0:0:0:0:
340,136,175688,2,0,P|416:152|440:172,1,105.000004005432
360,224,176132,2,0,P|412:256|424:304,1,105.000004005432
344,304,176576,2,0,P|240:328|140:304,1,210.000008010865
96,216,177465,5,0,0:0:0:0:
104,64,177688,1,0,0:0:0:0:
184,196,177910,1,0,0:0:0:0:
40,136,178132,1,0,0:0:0:0:
192,104,178354,1,0,0:0:0:0:
344,128,178576,1,0,0:0:0:0:
320,280,178799,1,0,0:0:0:0:
168,256,179021,1,0,0:0:0:0:
224,44,179243,5,0,0:0:0:0:
404,160,179465,1,0,0:0:0:0:
288,340,179688,1,0,0:0:0:0:
108,224,179910,1,0,0:0:0:0:
276,8,180132,5,0,0:0:0:0:
440,212,180354,1,0,0:0:0:0:
236,376,180576,1,0,0:0:0:0:
72,172,180799,1,0,0:0:0:0:
320,76,181021,37,0,0:0:0:0:
440,212,181243,1,0,0:0:0:0:
268,164,181465,1,0,0:0:0:0:
428,100,181688,1,0,0:0:0:0:
336,252,181910,2,0,L|284:348,1,105.000004005432
176,364,182354,2,0,L|228:268,1,105.000004005432
176,188,182799,2,0,L|120:288,1,105.000004005432
16,300,183243,2,0,L|68:208,1,105.000004005432
116,120,183688,1,0,0:0:0:0:
256,192,183799,12,6,185465,0:0:0:0:
124,140,199688,38,0,P|160:200|192:216,1,105
190,216,200132,2,0,L|216:284,1,70
280,216,200577,2,0,L|256:148,1,70
364,204,201021,2,0,L|388:276,1,70
376,112,201466,2,0,P|432:144|452:188,1,105.000004005432
256,340,202355,6,0,B|252:304|252:304|260:272|260:272|252:236,2,105
340,304,203244,2,0,L|352:228,1,70
168,292,203688,2,0,L|156:368,1,70
100,236,204132,1,0,0:0:0:0:
88,84,204466,1,0,0:0:0:0:
192,192,204799,1,0,0:0:0:0:
180,104,205021,2,0,B|216:108|248:84|296:88,1,105.000004005432
292,164,205688,1,0,0:0:0:0:
292,164,205910,2,0,B|372:156|392:40|304:12,1,210
356,240,206799,6,0,P|320:180|288:164,1,105
291,165,207243,2,0,L|265:97,1,70
200,164,207688,2,0,L|224:232,1,70
116,176,208132,2,0,L|92:104,1,70
104,268,208577,2,0,P|48:236|28:192,1,105.000004005432
256,136,209466,22,0,B|260:100|260:100|252:68|252:68|260:32,2,105
172,120,210355,2,0,L|160:196,1,70
344,132,210799,2,0,L|356:56,1,70
412,188,211243,1,0,0:0:0:0:
424,340,211577,1,0,0:0:0:0:
288,360,211910,1,0,0:0:0:0:
196,332,212132,37,0,0:0:0:0:
218,292,212244,1,0,0:0:0:0:
221,251,212355,1,0,0:0:0:0:
210,215,212466,1,0,0:0:0:0:
175,193,212577,1,0,0:0:0:0:
131,198,212688,1,0,0:0:0:0:
96,209,212799,1,0,0:0:0:0:
60,204,212910,1,0,0:0:0:0:
31,171,213021,1,0,0:0:0:0:
15,137,213132,1,0,0:0:0:0:
30,96,213244,1,0,0:0:0:0:
51,64,213355,1,0,0:0:0:0:
88,53,213466,1,0,0:0:0:0:
123,59,213577,1,0,0:0:0:0:
151,79,213688,1,0,0:0:0:0:
368,60,213910,6,0,B|408:96|388:172|312:188|312:188|300:228,1,210.000008010865
308,104,214576,2,0,B|252:124|252:124|236:168,1,105.000004005432
376,252,215243,2,0,L|344:364,1,105.000004005432
280,288,215688,2,0,P|236:344|144:348,1,157.500006008148
154,352,216132,2,0,P|88:320|40:320,2,105.000004005432
188,260,216799,1,0,0:0:0:0:
48,216,217021,6,0,L|60:156,1,52.5000020027161
152,112,217354,2,0,L|128:64,1,52.5000020027161
256,24,217799,1,0,0:0:0:0:
384,64,218132,1,0,0:0:0:0:
383,65,218354,2,0,L|360:112,1,52.5000020027161
453,164,218688,2,0,L|464:216,1,52.5000020027161
383,318,219021,1,0,0:0:0:0:
368,208,219243,2,0,B|308:292|204:292|152:212|172:112|216:56|284:56|356:112|360:212|308:292|204:292|144:208,1,630.000024032594
128,318,220799,1,0,0:0:0:0:
72,236,221021,6,0,P|36:192|64:100,1,157.500006008148
61,102,221465,1,0,0:0:0:0:
176,96,221688,1,0,0:0:0:0:
292,92,221910,1,0,0:0:0:0:
408,88,222132,1,0,0:0:0:0:
450,281,222354,38,0,L|568:276,2,105.000004005432
336,288,223021,1,0,0:0:0:0:
220,292,223243,1,0,0:0:0:0:
104,296,223465,2,0,P|52:204|60:104,1,210.000008010865
136,136,224132,2,0,P|136:192|160:236,1,105.000004005432
353,234,224576,2,0,P|376:192|376:136,1,105.000004005432
375,135,224910,1,0,0:0:0:0:
375,135,225021,2,0,L|280:80,1,105.000004005432
288,188,225465,2,0,L|184:128,1,105.000004005432
108,188,225910,2,0,L|204:244,2,105.000004005432
256,192,226465,12,0,227688,0:0:0:0:
108,188,227910,5,0,0:0:0:0:
116,264,228132,2,0,P|168:236|172:144,1,157.500006008148
172,145,228576,2,0,L|196:32,1,105.000004005432
318,42,229021,2,0,L|339:145,1,105.000004005432
420,140,229465,6,0,P|360:224|272:192,1,210.000008010865
308,332,230132,1,0,0:0:0:0:
368,200,230354,1,0,0:0:0:0:
240,272,230576,1,0,0:0:0:0:
392,284,230799,2,0,L|500:320,2,105.000004005432
276,192,231465,2,0,L|168:156,1,105.000004005432
20,208,231910,1,0,0:0:0:0:
116,80,232132,1,0,0:0:0:0:
112,240,232354,1,0,0:0:0:0:
24,116,232576,1,0,0:0:0:0:
172,308,233021,6,0,P|256:336|360:284,1,210.000008010865
256,192,233576,12,0,234799,0:0:0:0:
360,284,235021,37,0,0:0:0:0:
304,212,235243,2,0,P|356:196|404:208,1,105.000004005432
460,140,235688,2,0,P|360:112|256:136,1,210.000008010865
164,212,236354,5,0,0:0:0:0:
200,320,236576,1,0,0:0:0:0:
312,320,236799,1,0,0:0:0:0:
348,212,237021,2,0,L|320:108,1,105.000004005432
191,110,237465,2,0,L|164:212,1,105.000004005432
88,160,237910,2,0,B|108:96|108:96|120:56|160:8|216:32,1,210.000008010865
191,110,238576,1,0,0:0:0:0:
216,32,238799,2,0,L|312:72,1,105.000004005432
190,111,239243,2,0,L|286:151,2,105.000004005432
332,168,239910,5,0,0:0:0:0:
156,260,240132,1,0,0:0:0:0:
256,376,240354,1,0,0:0:0:0:
356,260,240576,1,0,0:0:0:0:
180,168,240799,1,0,0:0:0:0:
320,112,241021,1,0,0:0:0:0:
492,24,241243,1,0,0:0:0:0:
408,196,241465,1,0,0:0:0:0:
372,12,241688,1,0,0:0:0:0:
512,136,241910,1,0,0:0:0:0:
396,340,242132,1,0,0:0:0:0:
116,340,242354,37,0,0:0:0:0:
0,136,242576,1,0,0:0:0:0:
140,12,242798,1,0,0:0:0:0:
104,196,243021,1,0,0:0:0:0:
20,24,243243,1,0,0:0:0:0:
192,112,243465,1,0,0:0:0:0:
320,244,243688,5,0,0:0:0:0:
296,327,243911,2,0,L|192:304,1,105.000004005432
320,244,244355,2,0,L|216:220,2,105.000004005432
300,148,245021,2,0,L|412:176,1,105.000004005432
364,72,245465,2,0,L|472:100,1,105.000004005432
465,98,245910,1,0,0:0:0:0:
256,192,246021,12,0,247243,0:0:0:0:
152,100,247465,37,0,0:0:0:0:
208,172,247687,2,0,P|156:188|108:176,1,105.000004005432
52,244,248132,2,0,P|152:272|256:248,1,210.000008010865
348,172,248798,5,0,0:0:0:0:
312,64,249020,1,0,0:0:0:0:
200,64,249243,1,0,0:0:0:0:
164,172,249465,6,0,L|192:276,1,105.000004005432
321,274,249909,2,0,L|348:172,1,105.000004005432
424,224,250354,2,0,B|404:288|404:288|392:328|352:376|288:352,1,210.000008010865
321,274,251020,1,0,0:0:0:0:
296,355,251243,6,0,L|192:332,1,105.000004005432
321,274,251687,2,0,L|217:250,2,105.000004005432
180,216,252354,1,0,0:0:0:0:
356,124,252576,1,0,0:0:0:0:
256,8,252798,1,0,0:0:0:0:
156,124,253020,1,0,0:0:0:0:
332,216,253243,1,0,0:0:0:0:
192,272,253465,1,0,0:0:0:0:
20,360,253687,1,0,0:0:0:0:
104,188,253909,1,0,0:0:0:0:
140,372,254132,1,0,0:0:0:0:
0,248,254354,1,0,0:0:0:0:
116,44,254576,1,0,0:0:0:0:
396,44,254799,5,0,0:0:0:0:
420,64,254910,1,0,0:0:0:0:
436,92,255021,1,0,0:0:0:0:
436,124,255132,1,0,0:0:0:0:
424,152,255243,1,0,0:0:0:0:
404,180,255354,1,0,0:0:0:0:
376,196,255465,1,0,0:0:0:0:
344,196,255576,1,0,0:0:0:0:
312,180,255688,1,0,0:0:0:0:
284,164,255799,1,0,0:0:0:0:
252,152,255910,1,0,0:0:0:0:
220,140,256021,1,0,0:0:0:0:
188,136,256132,1,0,0:0:0:0:
152,144,256243,1,0,0:0:0:0:
128,164,256354,1,0,0:0:0:0:
108,192,256465,1,0,0:0:0:0:
104,224,256576,6,0,P|148:292|224:288,1,157.500006008148
184,220,257465,2,0,P|236:212|280:240,1,105.000004005432
280,328,258132,1,0,0:0:0:0:
352,372,258354,2,0,P|368:324|344:272,1,105.000004005432
276,240,259021,1,0,0:0:0:0:
352,188,259243,2,0,L|400:148,1,52.5000020027161
404,144,259576,1,0,0:0:0:0:
416,132,259688,1,0,1:0:0:0:
296,96,260132,6,0,P|232:136|164:104,1,157.500006008148
228,56,261021,2,0,P|196:32|156:28,2,78.7500030040742
228,168,261910,2,0,P|128:188|80:104,1,210.000008010865
164,112,263021,1,0,0:0:0:0:
256,100,263243,1,0,1:0:0:0:
348,112,263465,1,0,0:0:0:0:
432,106,263688,6,0,P|384:188|284:168,1,210.000008010865
168,296,264799,1,0,0:0:0:0:
256,232,265021,1,0,0:0:0:0:
344,296,265243,1,0,0:0:0:0:
248,100,265465,2,0,P|163:120|83:116,1,157.500006008148
93,117,266243,1,0,0:0:0:0:
94,118,266354,2,0,P|58:170|46:226,1,105.000004005432,0|0,0:0|1:0,0:0:0:0:
164,304,267243,22,0,P|124:240|156:172,1,157.500006008148
204,236,268132,2,0,P|228:204|232:164,2,78.7500030040742
164,304,269021,2,0,P|248:368|352:380,1,210.000008010865
68,260,270132,1,0,0:0:0:0:
172,384,270354,1,0,0:0:0:0:
444,260,270576,1,0,0:0:0:0:
328,236,270799,70,0,P|256:172|184:236,1,210.000008010865,4|0,0:0|0:0,0:0:0:0:
256,320,271465,1,0,0:0:0:0:
444,124,271687,53,0,0:0:0:0:
68,124,271909,1,0,0:0:0:0:
328,40,272131,1,0,0:0:0:0:
180,40,272353,1,0,0:0:0:0:
180,116,272576,2,0,B|232:112|256:56|256:56|272:112|336:116,1,210.000008010865
360,208,273243,1,0,0:0:0:0:
360,208,273465,2,0,L|256:180,1,105.000004005432
152,292,273910,2,0,L|256:264,1,105.000004005432
344,316,274354,6,0,P|420:372|504:312,1,210.000008010865
424,288,275021,2,0,L|424:180,1,105.000004005432
336,56,275465,2,0,L|336:164,1,105.000004005432
244,260,275910,2,0,L|244:152,1,105.000004005432
244,155,276576,1,0,0:0:0:0:
92,276,277021,70,0,P|32:192|92:112,1,210.000008010865
116,192,277687,1,0,0:0:0:0:
196,256,277910,5,0,0:0:0:0:
196,132,278132,1,0,0:0:0:0:
312,256,278354,1,0,0:0:0:0:
312,132,278576,1,0,0:0:0:0:
388,192,278799,5,0,0:0:0:0:
312,132,279021,1,0,0:0:0:0:
256,56,279243,1,0,0:0:0:0:
196,132,279465,1,0,0:0:0:0:
124,192,279687,53,0,0:0:0:0:
200,248,279909,1,0,0:0:0:0:
256,328,280131,1,0,0:0:0:0:
316,252,280353,1,0,0:0:0:0:
464,128,280576,5,0,0:0:0:0:
336,56,280799,1,0,0:0:0:0:
176,56,281021,1,0,0:0:0:0:
48,128,281243,1,0,0:0:0:0:
256,56,281465,2,0,P|240:104|196:132,1,105.000004005432
256,56,281910,2,0,P|268:104|312:136,1,105.000004005432
144,168,282354,2,0,P|188:200|200:248,1,105.000004005432
372,172,282799,2,0,P|328:200|312:248,1,105.000004005432
256,324,283243,1,0,0:0:0:0:
256,192,283354,12,0,285021,0:0:0:0:
256,192,285243,5,0,0:0:0:0:
192,92,285465,2,0,L|128:176,1,105.000004005432
16,176,285910,2,0,L|84:92,2,105.000004005432
76,256,286576,1,0,0:0:0:0:
76,256,286799,2,0,P|136:328|256:320,1,210.000008010865
200,248,287465,2,0,L|312:212,1,105.000004005432
256,132,287910,2,0,L|360:96,1,105.000004005432
380,184,288354,1,0,0:0:0:0:
460,228,288576,22,0,P|452:132|356:96,1,210.000008010865
256,192,289243,1,0,0:0:0:0:
256,288,289465,1,0,0:0:0:0:
256,384,289688,1,0,0:0:0:0:
256,288,289910,1,0,0:0:0:0:
256,192,290132,1,0,0:0:0:0:
160,104,290354,2,0,P|256:68|352:104,1,210.000008010865
256,192,291021,1,0,0:0:0:0:
140,192,291243,6,0,P|164:244|151:287,1,105.000004005432
68,244,291688,2,0,P|48:192|64:148,1,105.000004005432
196,124,292132,2,0,B|196:92|224:60|256:44|256:44|288:60|312:92|312:128,1,210.000008010865,4|0,0:0|0:0,0:0:0:0:
444,144,292799,1,0,0:0:0:0:
444,144,293021,2,0,P|458:194|440:242,1,105.000004005432
360,287,293466,2,0,P|348:244|372:192,1,105.000004005432
304,72,293910,6,0,B|256:48|256:48|204:72,1,105.000004005432
208,168,294354,2,0,B|256:192|256:192|308:168,2,105.000004005432
160,252,295021,1,0,0:0:0:0:
160,252,295243,2,0,B|256:296|256:296|352:252,1,210.000008010865
256,192,295799,12,0,298799,0:0:0:0:
256,192,299243,5,4,0:0:0:0:
