osu file format v9

[General]
AudioFilename: Eh, Eh (Nothing Else I Can Say).mp3
AudioLeadIn: 500
PreviewTime: 48633
Countdown: 0
SampleSet: Soft
StackLeniency: 0.7
Mode: 0
LetterboxInBreaks: 1

[Editor]
Bookmarks: 76719,122677
DistanceSpacing: 1
BeatDivisor: 4
GridSize: 4

[Metadata]
Title:Eh, Eh (Nothing Else I Can Say)
Artist:Lady Gaga
Creator:Ylinestra44
Version:Normal
Source:
Tags:The Fame

[Difficulty]
HPDrainRate:4
CircleSize:4
OverallDifficulty:4
ApproachRate:5
SliderMultiplier:1.3
SliderTickRate:2

[Events]
//Background and Video events
0,0,"Nothing-Else-I-Can-Say.jpg"
//Break Periods
2,69259,75518
2,115216,121476
//Storyboard Layer 0 (Background)
//Storyboard Layer 1 (Fail)
//Storyboard Layer 2 (Pass)
//Storyboard Layer 3 (Foreground)
//Storyboard Sound Samples
//Background Colour Transformations
3,100,163,162,255

[TimingPoints]
123,638.297872340426,4,2,1,80,1,0
9697,-100,4,2,2,80,0,0
10016,-100,4,2,1,80,0,0
23102,-100,4,2,1,60,0,0
38421,-100,4,2,1,40,0,0
38740,-100,4,2,1,80,0,0
48634,-100,4,2,1,60,0,1
48953,-100,4,1,1,50,0,1
69060,-100,4,2,1,40,0,0
76718,-100,4,2,1,60,0,0
84379,-100,4,2,1,50,0,0
94592,-100,4,2,1,60,0,1
94911,-100,4,1,1,50,0,1
115017,-100,4,2,1,40,0,0
122995,-100,4,2,1,60,0,0
132889,-100,4,2,1,30,0,0
133208,-100,4,2,1,60,0,0
143102,-100,4,2,1,40,0,0
143420,-100,4,2,1,80,0,0
148208,-100,4,2,1,40,0,0
148527,-100,4,2,1,80,0,0
153315,-100,4,2,1,60,0,1
153634,-100,4,1,1,50,0,1
168634,-100,4,2,1,40,0,0
169271,-100,4,2,1,80,0,0
171187,-100,4,2,1,60,0,0
173740,-100,4,2,1,5,0,0

[Colours]
Combo1 : 239,239,105
Combo2 : 255,169,128

[HitObjects]
108,120,2676,2,0,B|72:120|52:92,2,65,0|2|8
168,236,3952,2,0,B|140:259|107:250,2,65,0|2|8
288,284,5229,2,0,B|281:319|250:334,2,65,0|2|8
412,244,6505,2,0,B|429:275|415:306,2,65,0|2|8
444,116,7782,5,0
328,56,8420,1,8
200,64,9059,1,0
136,80,9378,2,0,B|64:94|42:160,1,130,2|2
36,224,10335,1,0
112,328,10974,1,8
240,348,11612,2,0,B|272:348|300:368,2,65,0|2|8
176,236,12888,6,0,B|176:204|200:176,1,65,0|2
252,136,13527,2,0,B|280:112|312:112,1,65,8|2
376,112,14165,1,0
480,188,14803,1,8
400,288,15442,2,0,B|366:278|354:244,1,65,0|2
394,191,16080,2,0,B|365:171|331:183,1,65,8|2
272,206,16718,2,0,B|238:218|228:251,1,65,0|2
292,272,17357,2,0,B|304:305|284:334,1,65,8|2
224,360,17995,5,0
104,316,18633,1,8
44,200,19271,2,0,B|8:208|-8:240,2,65,0|2|8
168,164,20548,2,0,B|168:132|200:112,1,65,0|2
264,92,21186,1,8
392,116,21825,2,0,B|428:124|444:152,1,65,0|2
464,216,22463,1,8
392,324,23101,6,0,B|332:360|268:344,1,130,0|8
208,312,24059,1,2
168,260,24378,2,0,B|144:196|76:176,1,130,0|8
152,72,25654,2,0,B|184:84|204:108,1,65,0|2
236,168,26293,2,0,B|244:200|280:212,2,65,8|2|0
348,100,27569,6,0,B|380:104|404:128,1,65,8|2
440,184,28208,2,0,B|448:252|396:300,1,130,0|8
344,264,29165,1,2
280,248,29484,2,0,B|212:248|164:296,1,130,0|8
88,192,30761,6,0,B|56:204|40:232,2,65,0|2|8
216,164,32037,2,0,B|284:164|332:116,1,130,0|8
464,128,33314,2,0,B|488:104|488:68,2,65,0|2|8
412,168,34271,1,2
352,192,34591,2,0,B|288:212|264:280,1,130,0|8
200,288,35548,1,2
136,304,35867,6,0,B|80:264|84:192,1,130,0|8
104,128,36825,1,2
156,88,37144,1,0
284,88,37782,1,8
404,136,38420,5,4
456,176,38740,1,2
416,228,39059,1,8
296,276,39697,2,0,B|304:308|332:328,2,65,0|2|8
168,268,40974,1,0
92,164,41612,1,8
144,44,42250,5,0
200,76,42569,1,2
232,132,42888,1,8
348,68,43527,2,0,B|380:84|384:120,1,65,0|2
380,184,44165,2,0,B|356:252|292:272,1,130,8|0
164,252,45442,1,8
116,296,45761,5,2
156,348,46080,2,0,B|216:380|284:364,1,130,0|8
408,328,47357,2,0,B|436:312|472:324,2,65,0|2|8
344,320,48314,1,2
288,284,48633,6,0,B|232:240|232:172,1,130,4|8
168,184,49591,1,0
104,188,49910,2,0,B|89:257|133:309,1,130,0|8
192,336,50867,1,0
256,344,51186,6,0,B|324:336|356:272,1,130,0|8
408,152,52463,1,0
360,108,52782,1,0
296,88,53101,2,0,B|264:76|232:76,1,65,8|0
168,88,53740,6,0,B|108:120|96:192,1,130,4|8
100,256,54697,1,0
136,308,55016,2,0,B|128:344|92:348,2,65,0|8|8
192,272,55974,1,0
256,260,56293,2,0,B|256:232|236:200,2,65,0|8|8
376,308,57569,1,0
472,220,58208,1,8
412,104,58846,6,0,B|428:80|468:76,2,65,4|8|8
372,156,59803,1,0
316,192,60123,2,0,B|256:236|196:192,1,130,0|8
140,156,61080,1,0
100,104,61399,2,0,B|84:80|44:76,2,65,0|8|8
60,228,62676,1,0
120,344,63314,1,8
248,344,63952,6,0,B|316:324|340:260,1,130,4|8
396,224,64910,1,0
340,192,65229,2,0,B|328:128|264:92,1,130,0|8
312,48,66186,1,0
376,40,66505,6,0,B|440:56|484:108,1,130,0|8
464,236,67782,1,0
344,288,68420,1,8
256,192,69059,1,4
280,256,76718,6,0,B|340:300|400:256,1,130,0|8
436,200,77676,1,2
412,140,77995,2,0,B|396:112|360:100,1,65,0|2
344,164,78633,2,0,B|310:152|294:124,1,65,8|2
232,108,79271,2,0,B|244:40|316:20,2,130,0|8|0
172,136,80867,2,0,B|140:128|128:92,2,65,2|8|2
228,172,81825,6,0,B|288:216|288:284,1,130,0|8
232,316,82782,1,2
200,260,83101,2,0,B|140:216|140:148,1,130,0|8
264,112,84378,6,0,B|332:120|380:164,1,130,4|8
404,224,85335,2,0,B|416:256|404:288,1,65,2|0
356,332,85974,1,2
292,340,86293,1,8
176,284,86931,6,0,B|112:288|72:352,2,130,0|8|0
232,252,88527,1,2
256,192,88846,1,8
144,124,89484,6,0,B|156:96|192:84,1,65,0|2
256,72,90123,2,0,B|324:72|376:32,2,130,8|0|8
200,108,91718,1,0
256,140,92037,2,0,B|320:160|384:140,1,130,0|8
444,256,93314,1,0
332,316,93952,1,8
268,320,94271,1,2
204,304,94591,5,4
156,260,94910,2,0,B|120:260|100:232,1,65,8|8
68,176,95548,1,0
64,112,95867,2,0,B|40:88|4:88,2,65,0|8|8
120,80,96825,1,0
184,76,97144,6,0,B|192:108|176:140,2,65,0|8|8
312,100,98420,1,0
432,52,99059,1,8
416,180,99697,5,4
388,240,100016,2,0,B|368:268|332:272,1,65,8|8
212,224,100974,2,0,B|156:264|148:332,1,130,0|8
44,252,102250,2,0,B|56:184|112:144,1,130,0|8
236,116,103527,1,0
300,124,103846,1,0
360,100,104165,2,0,B|384:84|420:80,1,65,8|0
480,108,104803,6,0,B|512:172|480:232,1,130,4|8
432,276,105761,1,0
368,276,106080,2,0,B|300:264|256:324,1,130,0|8
204,284,107037,1,0
148,320,107357,6,0,B|100:276|100:204,1,130,0|8
228,192,108633,1,0
152,84,109271,1,8
212,56,109591,1,0
276,48,109910,6,0,B|344:40|396:84,1,130,4|8
428,144,110867,1,0
464,196,111186,2,0,B|500:196|520:168,2,65,0|8|8
448,260,112144,1,0
392,292,112463,6,0,B|344:244|276:244,1,130,0|8
148,264,113740,1,0
140,136,114378,1,8
256,192,115016,1,4
320,232,122676,6,0,B|280:288|208:288,1,130,4|8
88,236,123952,1,0
100,172,124271,1,2
136,116,124591,1,8
264,84,125229,2,0,B|332:84|384:124,1,130,0|8
428,172,126186,1,2
464,228,126505,6,0,B|496:224|516:192,2,65,0|2|8
400,248,127463,1,2
348,288,127782,2,8,B|360:320|396:324,2,65,0|2|8
256,196,129059,1,0
164,288,129697,1,8
108,252,130016,5,0
84,192,130335,2,0,B|88:124|140:80,1,130,0|8
204,96,131293,1,2
256,136,131612,1,0
371,79,132250,1,8
440,192,132888,6,0,B|452:264|400:308,1,130,4|2
336,320,133846,1,2
312,260,134165,2,0,B|288:224|224:224|200:260,1,130,0|2
176,320,135123,1,2
112,308,135442,6,0,B|60:264|72:192,1,130,0|0
96,132,136399,1,2
140,84,136718,2,0,B|208:64|256:120,1,130,0|0
264,184,137676,1,2
312,228,137995,5,0
440,248,138633,1,2
392,124,139271,1,0
264,104,139910,1,2
156,32,140548,6,0,B|96:68|88:136,1,130,0|2
124,192,141505,1,2
100,252,141825,2,0,B|150:299|219:288,1,130,0|2
256,236,142782,1,2
308,196,143101,6,0,B|360:152|428:156,1,130,4|2
484,188,144059,1,2
460,248,144378,2,0,B|468:280|500:296,2,65,0|2|2
400,272,145335,1,2
356,320,145654,2,0,B|304:368|236:348,1,130,0|2
132,268,146931,1,0
116,140,147569,1,2
236,188,148208,6,0,B|268:200|280:232,2,65,4|2|8
288,148,149165,1,2
324,96,149484,2,0,B|308:68|272:60,2,65,0|2|8
384,72,150442,1,2
448,76,150761,2,0,B|480:72|500:40,2,65,0|2|8
440,204,152037,1,0
344,292,152676,1,8
280,308,152995,1,2
216,296,153314,5,4
168,252,153633,2,0,B|144:232|108:232,1,65,8|8
44,220,154271,2,0,B|16:192|44:164,1,65
108,152,154910,2,0,B|144:152|168:132,1,65,8|8
216,176,155548,2,0,B|248:160|256:128,1,65
292,76,156186,2,0,B|316:52|352:52,1,65,8|8
428,156,157144,1,0
388,280,157782,1,8
264,316,158420,6,0,B|190:319|157:257,1,130,4|8
100,292,159378,1,0
36,300,159697,2,0,B|9:239|34:174,1,130,0|8
100,184,160654,1,0
164,192,160974,2,0,B|232:176|272:124,1,130,0|8
392,76,162250,1,0
448,192,162888,1,8
348,276,163527,6,0,B|336:312|348:340,2,65,4|8|8
292,244,164484,1,0
256,192,164803,2,0,B|256:128,2,65,0|8|8
220,244,165761,1,0
164,276,166080,2,0,B|176:312|164:340,2,65,0|8|8
100,268,167037,1,0
52,224,167357,1,0
32,160,167676,2,0,B|32:132|60:104,1,65,0|8
192,96,168633,5,4
320,96,169271,1,2
372,132,169591,1,0
384,196,169910,2,0,B|380:264|320:304,1,130,0|2
256,320,170867,1,0
192,304,171186,2,0,B|132:264|128:196,1,130,0|2
256,192,172463,8,0,173740
