osu file format v9

[General]
AudioFilename: Eh, Eh (Nothing Else I Can Say).mp3
AudioLeadIn: 500
PreviewTime: 48633
Countdown: 0
SampleSet: Soft
StackLeniency: 0.7
Mode: 0
LetterboxInBreaks: 1

[Editor]
Bookmarks: 76719,122677
DistanceSpacing: 1
BeatDivisor: 4
GridSize: 4

[Metadata]
Title:Eh, Eh (Nothing Else I Can Say)
Artist:Lady Gaga
Creator:Ylinestra44
Version:Hard
Source:
Tags:The Fame

[Difficulty]
HPDrainRate:6
CircleSize:4
OverallDifficulty:6
ApproachRate:7
SliderMultiplier:1.8
SliderTickRate:2

[Events]
//Background and Video events
0,0,"Nothing-Else-I-Can-Say.jpg"
//Break Periods
2,69259,75818
2,115216,121457
//Storyboard Layer 0 (Background)
//Storyboard Layer 1 (Fail)
//Storyboard Layer 2 (Pass)
//Storyboard Layer 3 (Foreground)
//Storyboard Sound Samples
//Background Colour Transformations
3,100,163,162,255

[TimingPoints]
123,638.297872340426,4,2,1,80,1,0
9697,-100,4,2,2,80,0,0
10016,-100,4,2,1,80,0,0
10335,-100,4,1,2,80,0,0
10654,-100,4,2,1,80,0,0
23102,-100,4,2,1,60,0,0
38421,-100,4,2,1,40,0,0
38740,-100,4,2,1,80,0,0
48634,-100,4,2,1,60,0,1
48953,-100,4,1,1,50,0,1
66825,-100,4,1,1,45,0,1
67144,-100,4,1,1,50,0,1
69060,-100,4,2,1,40,0,0
76718,-100,4,2,1,60,0,0
84379,-100,4,2,1,40,0,0
84697,-100,4,2,1,80,0,0
94592,-100,4,2,1,60,0,1
94911,-100,4,1,1,50,0,1
112782,-100,4,1,1,45,0,1
113101,-100,4,1,1,50,0,1
115017,-100,4,2,1,40,0,0
122995,-100,4,2,1,60,0,0
132889,-100,4,2,1,30,0,0
133208,-100,4,2,1,60,0,0
138314,-100,4,1,2,60,0,0
138633,-100,4,2,1,60,0,0
139591,-100,4,1,2,60,0,0
139910,-100,4,2,1,60,0,0
140867,-100,4,1,2,60,0,0
141186,-100,4,2,1,60,0,0
143102,-100,4,2,1,40,0,0
143420,-100,4,2,1,80,0,0
148208,-100,4,2,1,40,0,0
148527,-100,4,2,1,80,0,0
153315,-100,4,2,1,60,0,1
153634,-100,4,1,1,50,0,1
168634,-100,4,2,1,40,0,0
169271,-100,4,2,1,80,0,0
171187,-100,4,2,1,60,0,0
173740,-100,4,2,1,5,0,0

[Colours]
Combo1 : 239,239,105
Combo2 : 255,169,128

[HitObjects]
256,152,2676,2,0,B|284:184|336:184,1,90,0|2
416,228,3314,2,0,B|388:260|336:260,1,90,8|2
256,304,3952,2,0,B|256:348,2,45,0|0|2
177,260,4591,2,0,B|123:259|95:227,1,90,8|2
172,184,5229,2,0,B|225:183|253:151,1,90,0|2
184,96,5867,1,8
264,56,6186,2,0,B|308:48,1,45,2|0
352,56,6505,2,0,B|392:72,1,45,2|0
428,104,6825,1,2
468,184,7144,2,0,B|468:232|428:264,1,90,8|2
480,336,7782,6,0,B|440:360|392:344,1,90,0|2
304,348,8420,2,0,B|304:300|341:269,1,90,8|2
256,244,9059,1,0
188,184,9378,2,0,B|100:212|68:308,2,180,2|2|2
276,172,10974,2,0,B|272:128|226:101,1,90,8|2
140,124,11612,2,0,B|128:80|160:40,1,90,0|2
248,16,12250,2,0,B|292:32|320:68,1,90,8|2
408,56,12888,6,0,B|420:104|380:136,1,90,0|2
287,147,13527,2,0,B|296:196|338:218,1,90,8|2
395,288,14165,2,0,B|436:264|428:210,1,90,0|2
380,136,14803,2,0,B|371:87|329:64,1,90,8|2
240,64,15442,1,0
160,104,15761,1,2
120,184,16080,1,8
144,272,16399,1,2
220,316,16718,1,0
308,312,17037,1,2
384,264,17357,1,8
404,176,17676,1,2
380,88,17995,6,0,B|304:140,1,90,0|2
264,60,18633,2,0,B|220:140,1,90,8|2
140,100,19271,2,0,B|140:188,1,90,0|2
52,204,19910,2,0,B|104:276,1,90,8|2
36,332,20548,2,0,B|120:360,1,90,0|2
212,356,21186,1,8
284,304,21505,1,2
320,220,21825,1,0
388,160,22144,1,2
468,124,22463,1,8
508,44,22782,1,2
420,48,23101,6,0,B|388:100|340:60|308:112,1,135,0|0
280,148,23740,1,8
192,168,24059,1,2
104,160,24378,2,0,B|56:160|28:120,1,90,0|2
20,32,25016,2,0,B|68:32|96:72,1,90,8|2
104,160,25654,2,0,B|132:200|180:200,1,90,0|2
272,200,26293,2,0,B|320:200|348:240,1,90,8|2
276,292,26931,1,0
452,248,27569,5,8
424,164,27888,1,2
355,102,28208,2,0,B|272:36|187:80,1,180,0|8
256,192,29165,1,2
156,280,29484,2,0,B|240:348|324:304,1,180,0|8
388,244,30442,5,2
420,160,30761,2,0,B|440:116|484:100,2,90,0|2|8
332,148,31718,1,2
256,192,32037,2,0,B|228:140|268:64|336:60,1,180,0|8
332,148,32995,1,2
256,192,33314,2,0,B|224:242|139:245|101:188,1,180,0|8
179,148,34272,1,2
256,192,34591,2,0,B|315:193|360:266|330:327,1,180,0|8
256,279,35549,1,2
212,356,35867,6,0,B|120:352|52:284,1,180,0|8
156,136,36825,1,2
300,28,37144,2,0,B|392:32|460:100,1,180,0|8
444,188,38101,2,0,B|424:228,1,45,2|0
404,268,38420,1,4
356,344,38740,6,0,B|312:312|315:267,1,90,2|8
300,180,39378,1,2
256,192,39537,1,0
212,204,39697,1,0
196,117,40016,2,0,B|200:72|156:40,1,90,2|8
108,116,40654,6,0,B|64:124,2,45,2|0|0
156,192,41293,2,0,B|124:224,1,45,2|0
96,260,41612,2,0,B|128:292,1,45,8|0
164,320,41931,2,0,B|196:288,1,45,2|0
228,256,42250,2,0,B|312:200|396:256,1,180,0|8
460,192,43208,6,0,B|444:152,1,45,2|0
409,121,43527,2,0,B|336:60|244:60,1,180,0|8
212,192,44484,1,2
118,94,44803,2,0,B|101:188|147:268,1,180,0|8
280,232,45761,1,2
240,360,46080,2,0,B|330:327|372:244,1,180,0|8
280,232,47037,6,0,B|257:271|209:287,1,90,2|0
168,296,47516,1,0
124,292,47676,1,2
48,244,47995,1,8
40,156,48314,1,2
96,84,48633,6,0,B|128:48|176:48,1,90,4|8
168,136,49271,1,8
260,136,49591,2,0,B|308:136|340:100,1,90,0|0
268,48,50229,1,8
260,136,50548,1,8
300,216,50867,2,0,B|328:248|381:248,1,90
372,160,51505,1,8
300,216,51825,1,8
276,304,52144,6,0,B|260:352|208:356,1,90,0|0
164,356,52623,1,0
120,340,52782,2,0,B|80:312|80:264,1,90,8|8
132,192,53420,1,0
220,212,53740,6,0,B|228:164|196:128,1,90,4|8
284,104,54378,1,8
356,52,54697,2,0,B|384:92|368:137,1,90
300,196,55335,2,0,B|328:232|380:228,1,90,8|8
464,260,55974,2,0,B|476:212|452:172,2,90,0|0|8
444,300,56771,5,0
408,328,56931,2,0,B|368:348|320:348,1,90,8|0
276,344,57410,2,0,B|224:340|192:312,1,90
156,288,57888,2,0,B|116:304,2,45,8|0|8
240,252,58527,1,0
168,200,58846,5,4
80,212,59165,2,0,B|76:164|112:131,1,90,8|8
48,68,59803,2,0,B|84:40|133:43,1,90
220,24,60442,2,0,B|232:72|197:106,1,90,8|8
202,196,61080,2,0,B|248:196|274:151,1,90
308,68,61718,1,8
364,140,62037,1,8
444,100,62357,6,0,B|464:144|440:186,1,90
408,220,62835,1,0
364,232,62995,1,8
280,204,63314,2,0,B|264:248|292:289,1,90,8|0
376,324,63952,6,0,B|356:372|307:376,1,90,4|8
224,352,64591,1,8
172,280,64910,2,0,B|152:236|103:227,1,90
92,316,65548,1,8
20,264,65867,1,8
28,176,66186,1,0
80,100,66505,6,0,B|152:48|248:44,1,180,0|8
366,92,67463,1,0
402,215,67782,1,0
327,321,68101,1,8
200,329,68420,1,8
114,235,68740,1,0
133,109,69059,1,4
140,160,76718,6,0,B|140:72,1,90,0|2
216,120,77357,2,0,B|244:36,1,90,8|2
304,100,77995,2,0,B|364:32,1,90,0|2
392,116,78633,2,0,B|472:76,1,90,8|2
372,224,79271,6,0,B|372:312,1,90,0|2
296,264,79910,2,0,B|268:348,1,90,8|2
208,284,80548,2,0,B|148:352,1,90,0|2
120,268,81186,2,0,B|40:308,1,90,8|2
40,220,81825,6,0,B|100:144|200:164,1,180,2|8
336,88,82782,1,2
472,164,83101,2,0,B|412:240|312:220,1,180,2|8
276,304,84059,2,0,B|232:300,1,45,2|0
188,296,84378,5,4
240,224,84697,2,0,B|196:196|154:214,1,90,2|8
100,284,85335,1,2
72,248,85495,1,0
68,204,85654,1,0
48,116,85974,2,0,B|96:108|132:140,1,90,2|8
212,100,86612,6,0,B|176:68,2,45,2|0|0
300,100,87250,2,0,B|344:88,1,45,2|0
388,80,87569,2,0,B|400:124,1,45,8|0
412,168,87888,2,0,B|368:180,1,45,2|0
324,192,88208,2,0,B|236:220|204:316,1,180,0|8
112,316,89165,6,0,B|96:276,1,45,2|0
84,232,89484,2,0,B|84:132|168:84,1,180,0|8
284,156,90442,1,2
307,23,90761,2,0,B|393:73|393:169,1,180,0|8
273,234,91718,1,2
376,320,92037,2,0,B|290:370|206:322,1,180,0|8
263,252,92995,6,0,B|304:272|348:240,1,90,2|0
384,212,93474,1,0
400,172,93633,1,2
376,84,93952,1,8
296,40,94271,1,2
208,60,94591,5,4
208,148,94910,2,0,B|160:144|132:104,1,90,8|8
64,48,95548,2,0,B|32:88|46:132,1,90
132,104,96186,2,0,B|148:148|117:190,1,90,8|8
32,216,96825,2,0,B|44:264|93:275,1,90
184,276,97463,1,8
256,224,97782,1,8
264,312,98101,6,0,B|300:344|348:344,1,90,0|0
392,336,98580,1,0
432,312,98740,1,8
488,245,99059,2,0,B|452:216|404:228,1,90,8|0
316,252,99697,5,4
252,188,100016,2,0,B|293:155|336:164,1,90,8|8
420,136,100654,2,0,B|408:92|356:80,1,90
264,84,101293,1,8
188,132,101612,1,8
111,88,101931,2,0,B|136:44|184:44,2,90,0|0|8
84,124,102729,5,0
52,156,102888,2,0,B|28:204|56:248,1,90,8|0
76,280,103367,2,0,B|100:316|152:324,1,90
196,332,103846,2,0,B|192:376,2,45,8|0|8
284,324,104484,1,0
356,268,104803,5,4
296,200,105123,2,0,B|336:168|380:181,1,90,8|8
467,167,105761,2,0,B|484:208|444:248,1,90
413,330,106399,2,0,B|364:316|356:268,1,90,8|8
380,180,107037,2,0,B|372:132|322:117,1,90,0|0
268,44,107676,1,8
232,128,107995,1,8
148,164,108314,6,0,B|100:172|80:216,1,90
68,260,108793,2,0,B|84:304,1,45,0|8
168,332,109271,2,0,B|212:344|256:332,1,90,8|0
344,332,109910,5,4
432,344,110229,2,0,B|436:296|399:263,1,90,8|8
472,212,110867,2,0,B|440:172|393:176,1,90
308,196,111505,1,8
240,252,111825,1,8
152,264,112144,1,0
68,228,112463,6,0,B|68:132|160:80,1,180,0|8
279,45,113420,1,0
384,117,113740,1,0
393,247,114059,1,8
299,333,114378,1,8
173,314,114697,1,0
108,204,115016,1,4
377,283,122357,6,0,B|420:268,2,45,0|0|4
328,356,122995,2,0,B|288:328|287:279,1,90,2|8
336,204,123633,1,2
292,192,123793,1,0
248,200,123952,1,0
196,272,124271,2,0,B|156:240|159:193,1,90,2|8
72,180,124910,6,0,B|56:220,2,45,2|0|0
124,108,125548,2,0,B|156:76,1,45,2|0
192,48,125867,2,0,B|232:32,1,45,8|0
280,32,126186,2,0,B|321:48,1,45,2|0
360,72,126505,2,0,B|431:123|435:227,1,180,0|8
436,320,127463,6,0,B|392:332,1,45,2|0
348,340,127782,2,0,B|288:336|232:296|220:232,1,180,0|8
124,328,128740,1,2
81,197,129059,2,0,B|115:147|177:119|239:140,1,180,0|8
204,9,130016,1,2
338,38,130335,2,0,B|364:92|358:160|308:203,1,180,0|8
400,212,131293,6,0,B|380:260|340:276,1,90,2|0
300,296,131771,1,0
256,304,131931,1,2
168,304,132250,1,8
112,232,132569,1,2
164,156,132888,6,0,B|172:108|220:92,1,90,4|2
348,228,133527,2,0,B|340:276|292:292,1,90,2|2
164,228,134165,2,0,B|172:276|220:292,1,90,0|2
348,156,134803,2,0,B|340:108|292:92,1,90,2|2
212,144,135442,2,0,B|168:160|128:128,1,90,0|2
300,240,136080,2,0,B|344:224|384:256,1,90,0|2
212,240,136718,2,0,B|228:284|196:324,1,90,0|2
300,144,137357,2,0,B|284:100|316:60,1,90,0|2
392,112,137995,6,0,B|464:192|392:272,1,180,2|0
304,276,138952,1,2
336,192,139271,2,0,B|256:120|176:192,1,180,2|0
208,276,140229,1,2
116,272,140548,2,0,B|44:192|116:112,1,180,2|0
36,72,141505,6,0,B|60:28|108:24,1,90,2|0
152,28,141984,1,0
188,52,142144,1,2
264,100,142463,2,0,B|312:100|348:72,1,90,2|2
420,124,143101,6,0,B|420:176|364:236|296:236,1,180,4|2
368,356,144059,1,2
232,368,144378,2,0,B|187:342|163:263|197:204,1,180,0|2
57,206,145336,1,2
115,83,145654,2,0,B|160:57|240:76|274:135,1,180,0|2
292,44,146612,5,2
328,72,146771,2,0,B|344:112|384:144,1,90
420,168,147250,2,0,B|464:176,2,45,2|0|2
344,216,147888,1,2
408,280,148208,5,4
344,344,148527,1,2
280,280,148846,1,8
256,192,149165,1,2
232,104,149484,1,0
168,40,149803,1,2
104,104,150122,1,8
168,168,150442,1,2
256,192,150761,5,0
344,168,151080,1,2
408,104,151400,1,8
344,40,151719,1,2
280,104,152038,1,0
264,148,152197,1,0
256,192,152357,1,2
232,280,152676,1,8
168,344,152995,1,2
104,280,153314,5,4
168,216,153633,2,0,B|124:184|83:194,1,90,8|8
341,224,154271,2,0,B|358:276|396:291,1,90,0|0
205,115,154910,2,0,B|222:63|200:29,1,90,8|8
251,283,155548,2,0,B|207:315|205:356,1,90,0|0
313,120,156186,2,0,B|367:120|393:88,1,90,8|8
464,148,156825,5,0
476,192,156984,2,0,B|468:240|424:260,1,90
384,280,157463,2,0,B|392:328,2,45,8|0|8
296,272,158101,1,0
256,192,158420,5,4
168,184,158740,2,0,B|148:232|100:244,1,90,8|8
212,112,159378,2,0,B|168:132|168:184,1,90
300,112,160016,2,0,B|256:100|212:112,1,90,8|8
344,184,160654,2,0,B|344:132|300:112,1,90
407,242,161293,2,0,B|364:232|344:184,1,90,8|8
428,156,161931,6,0,B|471:166|491:214,1,90,0|0
496,260,162410,1,0
476,300,162569,1,8
392,328,162888,1,8
312,284,163208,1,0
256,212,163527,5,4
200,284,163846,1,8
200,284,164165,1,8
76,152,164484,1,0
76,152,164803,1,0
256,136,165123,1,8
256,136,165442,1,8
436,152,165761,1,0
436,152,166080,1,0
312,284,166399,1,8
312,284,166718,1,8
248,348,167037,6,0,B|212:324,1,45,8|0
176,296,167357,2,0,B|156:248,1,45,8|0
144,212,167676,1,0
368,172,167995,1,8
352,84,168314,1,0
270,49,168633,6,0,B|169:43|125:133,1,180,4|2
192,192,169591,1,0
125,250,169910,2,0,B|170:340|270:334,1,180,0|2
288,247,170867,1,0
372,276,171186,2,0,B|428:192|372:108,1,180,0|2
288,136,172144,1,0
256,192,172463,8,0,173740
