osu file format v9

[General]
AudioFilename: Eh, Eh (Nothing Else I Can Say).mp3
AudioLeadIn: 500
PreviewTime: 48633
Countdown: 0
SampleSet: Soft
StackLeniency: 0.7
Mode: 0
LetterboxInBreaks: 1

[Editor]
Bookmarks: 76719,122677
DistanceSpacing: 1
BeatDivisor: 2
GridSize: 4

[Metadata]
Title:Eh, Eh (Nothing Else I Can Say)
Artist:Lady Gaga
Creator:Ylinestra44
Version:Easy
Source:
Tags:The Fame

[Difficulty]
HPDrainRate:2
CircleSize:3
OverallDifficulty:2
ApproachRate:2
SliderMultiplier:1
SliderTickRate:2

[Events]
//Background and Video events
0,0,"Nothing-Else-I-Can-Say.jpg"
//Break Periods
2,69259,75158
2,115216,121116
//Storyboard Layer 0 (Background)
//Storyboard Layer 1 (Fail)
//Storyboard Layer 2 (Pass)
//Storyboard Layer 3 (Foreground)
//Storyboard Sound Samples
//Background Colour Transformations
3,100,163,162,255

[TimingPoints]
123,638.297872340426,4,2,1,80,1,0
23102,-100,4,2,1,60,0,0
38421,-100,4,2,1,40,0,0
38740,-100,4,2,1,80,0,0
48634,-100,4,2,1,60,0,1
48953,-100,4,1,1,50,0,1
69060,-100,4,2,1,40,0,0
76718,-100,4,2,1,60,0,0
84379,-100,4,2,1,40,0,0
85016,-100,4,2,1,80,0,0
94592,-100,4,2,1,60,0,1
94911,-100,4,1,1,50,0,1
115017,-100,4,2,1,40,0,0
123314,-100,4,2,1,60,0,0
132889,-100,4,2,1,30,0,0
133208,-100,4,2,1,60,0,0
143102,-100,4,2,1,40,0,0
143740,-100,4,2,1,70,0,0
148208,-100,4,2,1,40,0,0
148527,-100,4,2,1,80,0,0
153315,-100,4,2,1,60,0,1
153634,-100,4,1,1,50,0,1
168634,-100,4,2,1,40,0,0
169271,-100,4,2,1,80,0,0
171187,-100,4,2,1,60,0,0
173740,-100,4,2,1,5,0,0

[Colours]
Combo1 : 239,239,105
Combo2 : 255,169,128

[HitObjects]
28,232,2677,1,0
124,208,3315,1,8
224,224,3953,1,0
308,276,4591,1,8
408,276,5230,6,0,B|404:224|360:192,1,100,0|8
444,140,6506,2,0,B|412:96|360:92,1,100,0|8
260,108,7783,5,0
160,96,8421,1,8
64,68,9059,2,0,B|16:92|16:148,1,100,0|8
16,248,10336,6,0,B|36:296|96:296,1,100,0|8
100,196,11613,1,0
176,128,12251,1,8
276,144,12889,6,0,B|296:192|276:240,1,100,0|8
328,328,14166,2,0,B|372:296|372:240,1,100,0|8
472,236,15442,6,0,B|466:181|419:155,1,100,0|8
432,56,16719,2,0,B|377:52|343:93,1,100,0|8
256,140,17996,5,0
156,156,18634,1,8
64,192,19272,2,0,B|64:248|112:272,1,100,0|8
212,276,20549,5,0
308,252,21187,1,8
308,152,21825,2,0,B|260:132|212:132,1,100,0|8
152,52,23102,6,0,B|116:88|111:141,1,100,0|8
112,240,24379,2,0,B|64:256,2,50,0|2|8
200,288,25655,5,0
300,304,26294,1,8
396,280,26932,2,0,B|384:228|332:208,1,100,0|8
240,168,28208,6,0,B|196:136|196:84,1,100,0|8
96,76,29485,2,0,B|84:128|108:176,1,100,0|8
164,256,30762,5,0
256,300,31400,1,8
356,304,32038,2,0,B|408:300|444:264,1,100,0|8
364,204,33315,6,0,B|400:167|452:163,1,100,0|8
424,68,34591,1,0
332,104,35230,1,8
256,168,35868,6,0,B|256:216,2,50,0|2|8
180,104,37145,1,0
88,68,37783,1,8
104,168,38421,6,0,B|84:216|104:264,1,100,4|8
184,328,39698,2,0,B|156:368,2,50,0|2|8
256,260,40974,5,0
352,240,41613,1,8
440,192,42251,2,0,B|476:224,2,50,0|2|8
404,96,43528,6,0,B|372:56|316:56,1,100,0|8
324,156,44804,1,0
236,112,45442,1,8
136,100,46081,6,0,B|104:140|104:192,1,100,0|8
120,292,47357,1,0
204,344,47996,1,8
304,356,48634,6,0,B|352:360,2,50,4|8|8
304,256,49911,2,0,B|256:240,2,50,0|8|8
400,224,51186,6,0,B|408:272,2,50,0|8|8
376,128,52463,1,0
304,60,53101,1,8
208,40,53740,5,4
108,60,54379,1,8
12,88,55017,2,0,B|24:144|76:156,1,100,0|8
172,184,56294,6,0,B|160:240|107:252,1,100,0|8
60,340,57570,1,0
160,348,58208,1,8
256,316,58847,5,4
352,348,59485,1,8
452,340,60123,2,0,B|448:288|399:259,1,100,0|8
372,164,61400,6,0,B|316:178|304:230,1,100,0|8
208,252,62677,1,0
112,220,63315,1,8
48,144,63953,6,0,B|2:160,2,50,4|8|8
122,78,65230,2,0,B|105:32,2,50,0|8|8
187,152,66506,6,0,B|232:135,2,50,0|8|8
113,218,67783,2,0,B|129:263,2,50,0|8|8
84,120,69059,1,4
116,96,76718,6,0,B|92:140|100:192,1,100,0|8
196,160,77995,2,0,B|188:209|213:256,1,100,0|8
292,192,79271,5,0
388,168,79910,1,8
488,180,80548,2,0,B|516:140,2,50,0|2|8
472,280,81825,5,0
392,340,82463,1,8
292,348,83101,2,0,B|292:292|332:259,1,100,0|8
272,180,84378,5,4
180,140,85016,1,8
80,132,85654,2,0,B|40:104,2,50,0|2|8
124,224,86931,5,0
212,272,87569,1,8
312,276,88208,2,0,B|360:268,2,50,0|2|8
264,188,89484,6,0,B|260:136|211:107,1,100,0|8
164,196,90761,1,0
224,276,91399,1,8
316,316,92037,6,0,B|364:336|412:316,1,100,0|8
452,224,93314,1,0
432,128,93952,1,8
344,80,94591,6,0,B|364:36,2,50,4|8|8
296,168,95867,2,0,B|264:212|212:212,1,100,0|8
212,112,97144,6,0,B|158:112|128:156,1,100,0|8
36,200,98420,1,0
80,292,99059,1,8
172,248,99697,6,0,B|228:264|236:316,1,100,4|8
336,316,100974,2,0,B|388:308|404:252,1,100,0|8
484,192,102250,6,0,B|452:152|396:152,1,100,0|8
344,68,103527,1,0
248,96,104165,1,8
200,184,104803,6,0,B|160:220|108:212,1,100,4|8
20,164,106080,2,0,B|44:116|99:112,1,100,0|8
164,36,107357,6,0,B|206:67|200:123,1,100,0|8
164,216,108633,1,0
72,256,109271,1,8
112,348,109910,5,4
204,312,110548,1,8
256,224,111186,2,0,B|256:176,2,50,0|8|8
308,312,112463,6,0,B|292:360,2,50,0|8|8
388,252,113740,1,0
352,160,114378,1,8
256,192,115016,1,4
408,276,122676,5,4
324,332,123314,1,8
224,324,123952,2,0,B|200:368,2,50,0|2|8
144,260,125229,5,0
112,164,125867,1,8
212,184,126505,2,0,B|260:172,2,50,0|2|8
180,88,127782,6,0,B|224:56|276:68,1,100,0|8
360,120,129059,1,0
456,88,129697,1,8
436,184,130335,6,0,B|436:236|392:268,1,100,0|8
296,296,131612,2,0,B|304:344,2,50,0|2|8
204,256,132888,6,0,B|152:256|120:300,2,100,4|2|0
164,164,134803,1,2
168,64,135442,6,0,B|220:68|250:113,1,100,0|2
320,184,136718,1,0
412,220,137357,1,2
476,296,137995,5,0
400,360,138633,1,2
336,284,139271,2,0,B|296:248|244:248,1,100,0|2
260,348,140548,6,0,B|208:348|168:312,1,100,0|2
88,252,141825,2,0,B|44:272,2,50,0|2|2
140,168,143101,5,4
232,124,143740,1,2
308,188,144378,2,0,B|344:148|327:95,1,100,0|2
400,28,145654,6,0,B|436:72|428:120,1,100,0|2
408,220,146931,1,0
328,280,147569,1,2
228,292,148208,6,0,B|232:340,2,50,4|2|8
128,280,149484,2,0,B|136:228|182:200,1,100,0|8
100,144,150761,6,0,B|136:108|192:108,1,100,0|8
288,120,152037,1,0
356,192,152676,1,8
368,292,153314,6,0,B|416:284,2,50,4|8|8
268,304,154591,2,0,B|216:304|176:272,1,100,0|8
96,212,155867,6,0,B|60:244,2,50,0|8|8
168,144,157144,1,0
264,116,157782,1,8
240,212,158420,5,4
336,184,159059,1,8
361,88,159697,2,0,B|416:104|432:152,1,100,0|8
416,252,160974,6,0,B|377:293|327:285,1,100,0|8
232,252,162250,1,0
148,304,162888,1,8
64,252,163527,6,0,B|28:284,2,50,4|8|8
104,160,164803,2,0,B|56:144,2,50,0|8|8
204,172,166080,6,0,B|200:124,2,50,0|8|8
244,264,167357,2,0,B|288:244,2,50,0|8|8
312,336,168633,5,4
396,284,169271,1,2
484,236,169910,2,0,B|456:188|403:183,1,100,0|2
364,92,171186,2,0,B|312:112|304:165,1,100,0|2
256,192,172463,8,0,173740
