osu file format v14

[General]
AudioFilename: Lady Gaga - Christmas Tree.mp3
AudioLeadIn: 0
PreviewTime: 57449
Countdown: 0
SampleSet: Soft
StackLeniency: 0.7
Mode: 0
LetterboxInBreaks: 0
EpilepsyWarning: 1
WidescreenStoryboard: 1

[Editor]
Bookmarks: 9146
DistanceSpacing: 1.2
BeatDivisor: 4
GridSize: 4
TimelineZoom: 1

[Metadata]
Title:Christmas Tree
TitleUnicode:Christmas Tree
Artist:Lady Gaga
ArtistUnicode:Lady Gaga
Creator:Marianna
Version:Light
Source:
Tags:MkGuh Xmas X-mas Merry Snow Synthpop CherryTree Records HappyRocket88 Space Cowboy
BeatmapID:1129682
BeatmapSetID:533217

[Difficulty]
HPDrainRate:4
CircleSize:3.5
OverallDifficulty:4
ApproachRate:5
SliderMultiplier:1.3
SliderTickRate:1

[Events]
//Background and Video events
0,0,"Lady-Gaga-Christmas-Album-HD-Wallpaper.jpg",0,0
//Break Periods
2,97219,104827
//Storyboard Layer 0 (Background)
//Storyboard Layer 1 (Fail)
//Storyboard Layer 2 (Pass)
//Storyboard Layer 3 (Foreground)
//Storyboard Sound Samples

[TimingPoints]
339,550.45871559633,4,2,0,70,1,0
9146,-100,4,2,0,65,0,0
57586,-100,4,1,0,65,0,1
66394,-100,4,2,0,65,0,0
88412,-100,4,1,0,65,0,1
97219,-100,4,2,0,65,0,0
119238,-100,4,1,0,65,0,1
136852,-100,4,2,0,65,0,0
137403,-100,4,2,0,5,0,0

[Colours]
Combo1 : 0,128,0
Combo2 : 255,0,0

[HitObjects]
76,96,9146,6,0,P|136:68|196:84,1,130,0|8,1:0|0:0,0:0:0:0:
256,132,9972,1,0,1:0:0:0:
316,83,10247,2,0,P|350:69|388:68,2,65,0|0|2,1:0|1:0|0:1,0:0:0:0:
256,228,11348,6,0,B|264:268|264:268|248:320|248:320|256:360,1,130,0|8,1:0|0:0,0:0:0:0:
180,372,12173,1,0,1:0:0:0:
116,324,12449,2,0,P|88:312|52:312,2,65,0|0|2,1:0|1:0|0:1,0:0:0:0:
200,192,13550,6,0,B|232:192|256:168|256:168|280:192|320:192,1,130,0|8,1:0|0:0,0:0:0:0:
384,152,14375,1,0,1:0:0:0:
384,228,14650,2,0,L|384:300,2,65,0|0|2,1:0|1:0|0:1,0:0:0:0:
428,80,15751,6,0,P|384:48|308:56,1,130,0|8,1:0|0:0,0:0:0:0:
256,112,16577,1,0,1:0:0:0:
200,60,16852,2,0,L|136:68,2,65,0|0|2,1:0|1:0|0:1,0:0:0:0:
316,164,17953,6,0,B|256:188|256:188|196:164,1,130,4|8,0:0|0:0,0:0:0:0:
132,116,18779,1,0,1:0:0:0:
68,160,19054,2,0,L|68:224,1,65,0|0,1:0|1:0,0:0:0:0:
116,284,19605,2,0,L|116:348,1,65,2|0,0:1|0:0,0:0:0:0:
192,344,20155,6,0,B|192:296|192:296|192:248|236:224,1,130,0|8,1:0|0:0,0:0:0:0:
272,298,20981,1,0,0:0:0:0:
308,228,21256,2,0,L|372:236,2,65,0|0|2,1:0|1:0|0:1,0:0:0:0:
204,112,22357,6,0,L|72:128,2,130,4|8|0,0:0|0:0|1:0,0:0:0:0:
256,52,23733,1,0,1:0:0:0:
308,112,24008,2,0,L|376:120,1,65,2|0,0:1|0:0,0:0:0:0:
424,64,24559,6,0,P|448:124|416:184,1,130,0|8,1:0|0:0,0:0:0:0:
340,312,25660,2,0,P|316:252|348:192,1,130,0|2,1:0|0:1,0:0:0:0:
421,179,26485,1,0,0:0:0:0:
368,124,26761,6,0,L|356:60,2,65,4|0|8,1:2|0:0|0:0,0:0:0:0:
436,264,27861,2,0,L|424:328,2,65,0|0|2,1:0|1:0|0:1,0:0:0:0:
456,188,28687,1,0,0:0:0:0:
380,212,28962,6,0,P|320:228|256:204,1,130,0|8,1:0|0:0,0:0:0:0:
136,112,30063,2,0,L|72:120,2,65,0|0|2,1:0|1:0|0:1,0:0:0:0:
192,56,30889,1,0,0:0:0:0:
236,120,31164,6,0,P|260:176|236:240,1,130,0|8,1:0|0:0,0:0:0:0:
100,312,32265,2,0,L|28:296,2,65,0|0|2,1:0|1:0|1:0,0:0:0:0:
172,280,33091,1,0,0:0:0:0:
236,324,33366,6,0,P|300:336|352:304,1,130,0|8,1:0|0:0,0:0:0:0:
412,160,34467,2,0,L|432:88,2,65,0|0|2,1:0|1:0|0:1,0:0:0:0:
256,192,35568,12,0,37770,1:0:0:0:
256,92,38871,6,0,L|256:24,2,65,0|0|0,1:0|1:0|1:0,0:0:0:0:
256,192,39972,12,0,42173,1:0:0:0:
256,292,43274,6,0,L|256:360,2,65,0|0|0,1:0|1:0|1:0,0:0:0:0:
308,144,44375,6,0,P|364:128|428:160,2,130,4|8|2,0:0|0:0|0:0,0:0:0:0:
256,200,45751,1,0,0:0:0:0:
200,144,46027,2,0,P|160:136|128:148,1,65,2|0,0:1|0:0,0:0:0:0:
84,200,46577,6,0,P|60:156|96:76,2,130,2|8|2,0:0|0:0|0:0,0:0:0:0:
204,300,48228,1,2,1:0:0:0:
256,244,48504,1,0,0:0:0:0:
308,300,48779,6,0,B|376:300|376:300|424:252,2,130,2|8|2,0:0|0:0|0:0,0:0:0:0:
256,152,50430,1,2,0:1:0:0:
204,300,50981,6,0,B|136:300|136:300|88:252,2,130,2|8|2,0:0|0:0|0:0,0:0:0:0:
256,152,52632,1,2,0:1:0:0:
308,300,53183,6,0,P|372:300|412:244,1,130,0|8,1:0|0:0,0:0:0:0:
357,102,54283,2,0,P|295:102|256:151,1,130,2|2,0:0|0:1,0:0:0:0:
204,300,55384,6,0,P|140:300|100:244,1,130,2|8,0:0|0:0,0:0:0:0:
154,103,56485,2,0,P|218:103|256:152,1,130,2|2,0:0|0:1,0:0:0:0:
308,300,57586,6,0,B|364:300|364:300|404:300|424:264,1,130,4|8,0:0|0:0,0:0:0:0:
396,192,58412,1,0,0:0:0:0:
432,124,58687,2,0,L|432:60,2,65,2|0|2,0:0|0:0|0:1,0:0:0:0:
288,180,59788,6,0,B|256:192|256:192|224:180,1,65,2|0,0:0|0:0,0:0:0:0:
196,108,60338,2,0,P|256:84|316:108,2,130,8|2|2,0:0|0:0|0:1,0:0:0:0:
192,264,61990,6,0,P|252:288|312:264,2,130,0|8|2,1:0|0:0|0:0,0:0:0:0:
164,192,63366,1,0,0:0:0:0:
208,128,63641,2,0,L|208:60,1,65,2|0,0:1|0:0,0:0:0:0:
284,40,64192,6,0,B|340:40|340:40|376:40|412:72,2,130,2|8|2,0:0|0:0|0:0,0:0:0:0:
256,192,65843,1,2,0:1:0:0:
256,192,66394,12,0,68595,1:0:0:0:
172,64,69696,6,0,P|152:36|120:24,2,65,0|0|0,1:0|1:0|1:0,0:0:0:0:
256,192,70797,12,0,72999,1:0:0:0:
340,64,74100,6,0,P|360:36|392:24,2,65,0|0|0,1:0|1:0|1:0,0:0:0:0:
256,196,75201,6,0,L|256:328,2,130,4|8|2,0:0|0:0|0:0,0:0:0:0:
180,172,76577,2,0,P|196:144|223:123,1,65,0|2,0:0|0:1,0:0:0:0:
300,128,77127,1,0,0:0:0:0:
256,196,77403,6,0,P|304:208|372:160,2,130,2|8|2,0:0|0:0|0:0,0:0:0:0:
108,140,79054,2,0,L|44:156,1,65,2|0,0:1|0:0,0:0:0:0:
48,232,79605,6,0,L|112:248,1,65,4|0,0:0|0:0,0:0:0:0:
168,192,80155,2,0,L|232:192,1,65,8|0,0:0|0:0,0:0:0:0:
284,132,80705,2,0,P|312:192|288:252,1,130,2|2,0:0|0:1,0:0:0:0:
168,344,81806,6,0,L|104:328,1,65,2|0,0:0|0:0,0:0:0:0:
140,256,82357,2,0,L|76:240,1,65,8|0,0:0|0:0,0:0:0:0:
8,276,82907,2,0,P|4:216|64:164,1,130,2|2,0:0|0:1,0:0:0:0:
204,148,84008,6,0,P|216:88|188:24,2,130,4|8|2,0:0|0:0|0:0,0:0:0:0:
256,296,85660,1,2,0:1:0:0:
308,148,86210,6,0,P|296:88|324:24,2,130,2|8|2,0:0|0:0|0:0,0:0:0:0:
256,296,87861,1,2,0:1:0:0:
140,192,88412,6,0,L|72:200,1,65,4|0,0:0|0:0,0:0:0:0:
60,276,88962,2,0,L|124:268,1,65,8|0,0:0|0:0,0:0:0:0:
200,244,89513,2,0,P|236:256|256:276,2,65,2|0|2,1:0|1:0|0:0,0:0:0:0:
124,108,90614,6,0,P|152:48|212:28,1,130,2|8,0:0|0:0,0:0:0:0:
256,92,91439,1,0,0:0:0:0:
304,28,91715,2,0,P|363:50|388:108,1,130,2|2,0:0|0:0,0:0:0:0:
312,244,92816,6,0,P|296:280|296:312,1,65,4|0,3:0|0:0,0:0:0:0:
216,304,93366,2,0,P|213:271|198:242,1,65,8|0,0:0|0:0,0:0:0:0:
224,168,93916,2,0,P|255:173|288:168,2,65,2|0|2,0:0|0:0|0:0,0:0:0:0:
112,60,95017,6,0,P|56:92|36:164,1,130,2|8,0:0|0:0,0:0:0:0:
100,192,95843,1,0,0:0:0:0:
32,232,96118,2,0,P|54:292|110:324,1,130,2|2,0:0|0:0,0:0:0:0:
216,44,106027,6,0,L|208:108,1,65,4|0,0:1|0:0,0:0:0:0:
256,168,106577,2,0,L|248:232,1,65,8|0,0:0|0:0,0:0:0:0:
192,284,107127,2,0,P|236:308|308:280,1,130,0|2,1:0|0:1,0:0:0:0:
392,152,108228,6,0,L|456:168,2,65,0|0|8,1:0|0:0|0:0,0:0:0:0:
352,80,109054,1,0,0:0:0:0:
292,32,109329,2,0,P|276:84|316:148,1,130,0|2,1:0|0:1,0:0:0:0:
256,292,110430,6,0,L|256:360,2,65,0|0|8,1:0|0:0|0:0,0:0:0:0:
208,232,111256,1,0,0:0:0:0:
252,168,111531,2,0,P|180:160|136:204,1,130,0|2,1:0|0:1,0:0:0:0:
56,328,112632,6,0,L|44:264,1,65,0|0,1:0|0:0,0:0:0:0:
64,188,113183,2,0,L|52:124,1,65,8|0,0:0|0:0,0:0:0:0:
44,48,113733,2,0,B|84:48|108:72|108:72|168:72,1,130,0|2,1:0|0:1,0:0:0:0:
308,144,114834,6,0,L|440:144,2,130,2|2|2,0:0|0:0|0:0,0:0:0:0:
256,292,116485,1,2,0:1:0:0:
204,144,117036,6,0,L|72:144,2,130,2|2|2,0:0|0:0|0:0,0:0:0:0:
256,292,118687,1,2,0:1:0:0:
376,192,119238,6,0,L|360:124,1,65,4|0,0:0|0:0,0:0:0:0:
288,100,119788,2,0,L|272:168,1,65,8|0,0:0|0:0,0:0:0:0:
224,224,120338,2,0,P|172:232|116:184,1,130,2|2,0:0|0:0,0:0:0:0:
188,156,121164,1,0,0:0:0:0:
128,108,121439,6,0,P|64:132|40:188,2,130,2|8|2,0:0|0:0|0:0,0:0:0:0:
256,196,123091,1,2,0:0:0:0:
384,108,123641,6,0,P|448:132|472:188,2,130,2|8|2,0:0|0:0|0:0,0:0:0:0:
256,196,125293,2,0,L|256:264,1,65,2|0,0:0|0:0,0:0:0:0:
312,316,125843,6,0,P|344:320|376:316,1,65,2|0,0:0|0:0,0:0:0:0:
428,256,126394,2,0,P|452:296|432:372,2,130,8|2|2,0:0|0:0|0:0,0:0:0:0:
284,192,128045,6,0,P|260:152|280:76,2,130,0|8|0,0:0|0:0|0:0,0:0:0:0:
336,132,129421,2,0,L|404:132,1,65,0|2,0:0|0:0,0:0:0:0:
336,276,130247,6,0,L|204:276,2,130,0|8|0,0:0|0:0|0:0,0:0:0:0:
384,212,131623,1,0,0:0:0:0:
328,160,131898,2,0,B|312:132|312:132|328:104,1,65,2|0,0:0|0:0,0:0:0:0:
384,48,132449,6,0,P|320:24|260:60,1,130,0|8,0:0|0:0,0:0:0:0:
168,168,133550,2,0,P|104:192|44:156,1,130,0|2,0:0|0:0,0:0:0:0:
112,116,134375,6,0,L|104:52,2,65
248,192,135476,2,0,L|240:256,2,65,0|0|0,0:0|0:0|0:0,0:0:0:0:
304,136,136302,2,0,P|336:128|368:136,1,65,2|0,0:0|0:0,0:0:0:0:
420,192,136852,5,0,0:0:0:0:
256,192,137403,12,0,140293,0:0:0:0:
