osu file format v9

[General]
AudioFilename: Brown Eyes.mp3
AudioLeadIn: 2000
PreviewTime: 55810
Countdown: 0
SampleSet: Soft
StackLeniency: 0.7
Mode: 0
LetterboxInBreaks: 0

[Editor]
Bookmarks: 90367,240115
DistanceSpacing: 1
BeatDivisor: 4
GridSize: 4

[Metadata]
Title:Brown Eyes
Artist:Lady Gaga
Creator:Ylinestra44
Version:Hard
Source:
Tags:The Fame

[Difficulty]
HPDrainRate:6
CircleSize:4
OverallDifficulty:6
ApproachRate:7
SliderMultiplier:1.2
SliderTickRate:1

[Events]
//Background and Video events
0,0,"bg.jpg"
//Break Periods
2,82889,89467
2,157763,172021
//Storyboard Layer 0 (Background)
//Storyboard Layer 1 (Fail)
//Storyboard Layer 2 (Pass)
//Storyboard Layer 3 (Foreground)
//Storyboard Sound Samples
//Background Colour Transformations
3,100,163,162,255

[TimingPoints]
135,479.961603071754,4,2,1,35,1,0
7814,-100,4,2,1,60,0,0
55810,-80,4,2,1,60,0,1
57010,-80,4,2,1,30,0,1
57730,-80,4,2,1,60,0,1
60850,-80,4,2,1,30,0,1
61570,-80,4,2,1,60,0,1
64689,-80,4,2,1,30,0,1
65409,-80,4,2,1,60,0,1
68529,-80,4,2,1,30,0,1
69249,-80,4,2,1,60,0,1
70929,-80,4,2,1,60,0,0
71169,-80,4,2,1,60,0,1
72369,-80,4,2,1,30,0,1
73089,-80,4,2,1,60,0,1
76208,-80,4,2,1,30,0,1
76928,-80,4,2,1,60,0,1
80048,-80,4,2,1,30,0,1
80768,-80,4,2,1,60,0,1
82688,-100,4,2,1,35,0,0
90367,-100,4,2,1,60,0,0
130684,-80,4,2,1,60,0,1
131884,-80,4,2,1,30,0,1
132604,-80,4,2,1,60,0,1
135724,-80,4,2,1,30,0,1
136444,-80,4,2,1,60,0,1
139563,-80,4,2,1,30,0,1
140283,-80,4,2,1,60,0,1
143403,-80,4,2,1,30,0,1
144123,-80,4,2,1,60,0,1
145803,-80,4,2,1,50,0,0
146043,-80,4,2,1,60,0,1
147243,-80,4,2,1,30,0,1
147963,-80,4,2,1,60,0,1
151082,-80,4,2,1,30,0,1
151802,-80,4,2,1,60,0,1
154922,-80,4,2,1,30,0,1
155642,-80,4,2,1,60,0,1
157562,-80,4,2,1,35,0,0
172921,-80,4,2,1,60,0,1
174121,-80,4,2,1,30,0,1
174841,-80,4,2,1,60,0,1
177960,-80,4,2,1,30,0,1
178680,-80,4,2,1,60,0,1
181800,-80,4,2,1,30,0,1
182520,-80,4,2,1,60,0,1
185640,-80,4,2,1,30,0,1
186360,-80,4,2,1,60,0,1
193319,-80,4,2,1,30,0,1
194039,-80,4,2,1,60,0,1
195719,-80,4,2,1,60,0,0
195959,-80,4,2,1,60,0,1
197159,-80,4,2,1,30,0,1
197879,-80,4,2,1,60,0,1
200998,-80,4,2,1,30,0,1
201718,-80,4,2,1,60,0,1
203638,-100,4,2,1,60,0,0
235316,-100,4,2,1,30,0,0
236276,-100,4,2,1,15,0,0
236516,-100,4,2,1,5,0,0
239155,-100,4,2,1,30,0,0
240115,-100,4,2,1,15,0,0

[Colours]
Combo1 : 255,255,191
Combo2 : 157,79,0
Combo3 : 164,146,113

[HitObjects]
188,74,135,1,2
188,74,614,1,0
324,74,1095,1,8
324,74,1575,1,0
120,192,2055,5,2
120,192,2535,1,0
392,192,3015,1,8
392,192,3495,1,0
188,309,3975,5,2
188,309,4455,1,0
324,309,4935,1,8
324,309,5415,1,0
364,136,5895,5,2
256,192,6375,1,0
148,136,6855,1,8
256,348,7814,6,0,B|364:344|404:268|408:196,1,240,2|8
396,136,9015,1,0
364,84,9255,1,0
316,48,9495,1,0
256,36,9734,2,0,B|148:40|108:116|104:188,1,240,2|8
116,248,10935,1,0
148,300,11175,1,0
196,336,11415,1,0
256,348,11655,6,0,B|320:352|364:308,2,120,2|0|8
200,240,13093,2,0,B|256:276|312:240,1,120,2|0
256,136,14053,1,0
356,72,14533,1,8
304,40,14773,1,0
256,76,15013,1,0
208,40,15253,1,0
156,72,15493,6,0,B|156:160|260:160|260:160|344:160,1,240,2|8
404,160,16693,1,0
452,192,16933,1,0
404,224,17173,1,0
345,224,17413,2,0,B|260:224|260:224|156:224|156:312,1,240,2|8
96,308,18613,1,0
64,256,18853,1,0
60,196,19093,1,0
68,136,19333,6,0,B|88:68|32:32,2,120,2|0|8
188,140,20773,2,0,B|136:192|188:244,1,120,2|0
296,192,21733,1,0
416,192,22213,1,8
392,308,22693,5,2
336,332,22933,1,0
280,336,23173,2,0,B|212:336|172:288,1,120,2|0
104,192,24133,1,8
136,76,24613,1,0
244,132,25093,1,2
268,252,25573,1,0
376,308,26053,1,8
408,192,26533,1,0
464,84,27013,6,0,B|408:48|352:84,1,120,2|0
320,32,27733,2,0,B|224:67|224:172,1,180,2|0
340,204,28933,1,2
252,284,29413,1,0
172,204,29893,1,8
60,168,30373,5,2
52,228,30613,1,0
68,284,30853,2,0,B|96:340|160:352,1,120,2|0
280,352,31813,1,8
384,292,32293,1,0
316,192,32773,1,2
196,192,33253,1,0
128,92,33733,1,8
232,32,34213,1,0
300,132,34693,6,0,B|356:116,2,60,2|0|0
184,160,35652,2,0,B|157:220|188:274,1,120,8|0
312,276,36613,1,2
396,192,37093,1,0
312,108,37573,1,2
196,72,38051,5,2
140,92,38291,1,0
96,132,38531,2,0,B|36:100|48:32,2,120,2|0|8
100,252,39971,1,0
200,316,40451,1,2
256,208,40931,1,0
312,316,41411,1,8
412,252,41891,1,0
424,192,42131,1,0
412,132,42371,6,0,B|408:88|352:68,1,89.9999999999999,2|0
264,60,43091,2,0,B|164:72|160:184,1,180,2|0
112,296,44291,1,2
196,212,44771,1,0
316,212,45251,1,8
400,296,45731,1,0
440,252,45971,1,0
452,192,46211,6,0,B|452:128|400:88,1,120,2|0
348,60,46931,1,0
288,48,47171,1,8
228,48,47411,2,0,B|128:40|76:124,1,180,2|2
192,156,48611,1,0
220,272,49091,1,8
124,200,49571,1,0
92,252,49811,1,0
104,308,50051,6,0,B|132:344|184:344,1,89.9999999999999,2|2
216,260,50771,2,0,B|256:224|296:260,1,89.9999999999999,2|2
356,328,51491,2,0,B|412:364|468:328,1,120,2|4
412,224,52451,1,0
256,192,52931,12,8,54851
256,192,55571,5,0
224,260,55811,2,0,B|152:224|80:260,2,149.999997764826,4|0|8
284,304,57011,1,0
360,300,57251,1,0
420,256,57491,1,0
444,184,57731,2,0,B|452:100|404:44,1,149.999997764826
252,44,58691,2,0,B|244:128|292:184,1,149.999997764826,8|0
368,188,59411,1,0
332,124,59651,6,0,B|248:116|192:164,1,149.999997764826,0|0
152,228,60371,1,0
76,236,60611,1,8
24,180,60851,1,0
36,104,61091,1,0
96,60,61331,1,0
168,88,61571,2,0,B|309:104|203:280|344:296,1,299.999995529652,0|8
452,192,63009,1,0
312,140,63489,6,0,B|332:64|416:44,2,149.999997764826,4|0|8
316,216,64689,1,0
256,260,64929,1,0
196,216,65169,1,0
200,140,65409,2,0,B|180:64|96:44,2,149.999997764826,0|0|8
56,180,66849,1,0
132,192,67089,1,0
108,120,67329,6,0,B|156:64|244:64,2,149.999997764826,0|0|8
132,192,68529,1,0
196,232,68769,1,0
236,296,69009,1,0
304,332,69249,2,0,B|400:192|304:52,1,299.999995529652,0|8
64,232,71169,6,0,B|104:296,1,74.9999988824129,4|0
180,296,71649,2,0,B|220:232,1,74.9999988824129
296,232,72129,1,8
335,295,72369,1,0
412,296,72609,1,0
452,232,72849,1,0
388,192,73089,6,0,B|324:152,1,74.9999988824129
256,120,73569,1,0
188,152,73809,2,0,B|124:192,1,74.9999988824129,0|8
256,264,74529,1,0
356,152,75009,6,0,B|420:112,1,74.9999988824129
360,68,75489,2,0,B|296:32,1,74.9999988824129
217,31,75969,1,8
152,68,76209,1,0
92,112,76449,1,0
156,152,76689,1,0
124,220,76929,1,0
256,292,77409,1,0
256,216,77649,1,0
332,204,77889,6,0,B|368:276|452:280,2,149.999997764826,8|0|0
180,204,79328,2,0,B|144:276|60:280,1,149.999997764826,0|8
68,204,80049,1,0
108,140,80289,1,0
176,108,80529,1,0
252,112,80769,1,2
256,192,81249,12,4,82689
152,112,90367,6,0,B|220:4|256:244|292:4|360:112,1,240,2|8
380,168,91567,1,0
368,228,91807,2,0,B|331:224|315:201,1,60,0|0
256,192,92287,2,0,B|256:312,2,120,2|0|8
196,201,93487,2,0,B|180:224|144:228,1,60,0|0
132,168,93967,1,0
112,112,94207,6,0,B|168:76|224:112,1,120,2|0
256,228,95167,1,8
287,112,95647,2,0,B|344:76|400:112,1,120,0|2
344,216,96607,1,0
256,300,97087,1,8
144,348,97567,5,2
96,312,97807,1,0
84,252,98047,2,0,B|116:192|180:192,1,120,2|0
220,80,99007,1,8
336,104,99487,1,0
256,192,99967,1,2
176,280,100447,1,0
292,304,100927,1,8
408,336,101407,5,2
440,284,101647,1,0
448,224,101887,2,0,B|440:160|396:112,1,120,2|0
344,88,102607,2,0,B|200:104|312:280|168:296,1,300,2|2
108,192,104287,1,0
196,112,104767,1,8
312,84,105247,5,2
364,116,105487,1,0
400,164,105727,2,0,B|460:152|484:84,2,120,2|0|8
360,276,107167,1,0
256,336,107647,1,2
152,276,108127,1,0
256,216,108607,1,8
372,192,109087,6,0,B|416:152,1,60,2|0
396,96,109567,2,0,B|336:84,1,60,2|0
288,120,110047,2,0,B|244:104|212:164|256:192|256:192|300:220|268:288|224:264,1,240,2|0
120,328,111487,1,2
184,224,111967,2,0,B|168:180|228:148|256:192|256:192|284:236|352:204|328:160,1,240
368,280,113405,5,2
276,204,113885,1,0
256,320,114365,1,8
368,280,114845,1,0
440,184,115325,2,0,B|420:120|356:104,1,120,2|0
268,184,116285,2,0,B|204:168|184:104,1,120,8|2
128,80,117005,5,0
68,76,117245,2,0,B|36:132|72:192,1,120,2|2
116,228,117965,2,0,B|256:324|396:228,1,300,2|2
352,116,119645,1,0
256,44,120125,1,8
160,116,120605,1,0
124,164,120845,1,0
64,180,121085,6,0,B|60:248|116:280,1,120,2|2
148,332,121805,2,0,B|208:316,1,60,2|8
264,304,122285,1,0
324,288,122525,2,0,B|324:216|260:200,1,120,2|2
376,192,123485,1,0
376,72,123965,2,0,B|432:52,2,60,8|0|0
256,64,124925,6,0,B|200:88|184:156,1,120,2|0
128,172,125645,2,0,B|80:208,1,60,0|8
116,256,126124,1,0
168,288,126364,2,0,B|224:324|280:288,1,120,0|2
364,200,127325,1,0
256,192,127805,12,8,129725
256,192,130445,5,0
280,264,130685,6,0,B|344:300,1,74.9999988824129,4|0
364,228,131165,2,0,B|428:192,1,74.9999988824129
444,116,131645,1,8
396,60,131885,1,0
320,52,132125,1,0
260,96,132365,1,0
200,140,132604,6,0,B|152:84,1,74.9999988824129,0|0
84,48,133085,2,0,B|24:92,1,74.9999988824129
16,168,133565,2,0,B|32:240|116:272,1,149.999997764826,8|0
188,280,134285,1,0
244,332,134525,6,0,B|312:304,1,74.9999988824129,0|0
368,252,135005,2,0,B|304:216,1,74.9999988824129
240,176,135485,1,8
204,112,135725,1,0
144,68,135965,1,0
72,92,136205,1,0
32,156,136445,2,0,B|85:208|171:199,1,149.999997764826,2|0
216,140,137165,1,0
140,128,137405,2,0,B|92:190|106:269,1,149.999997764826,8|0
248,220,138363,6,0,B|328:236|384:176,1,149.999997764826,4|0
420,108,139083,1,0
364,60,139323,1,8
292,44,139563,1,0
220,60,139803,1,0
160,108,140043,1,0
116,168,140283,2,0,B|40:136|48:48,2,149.999997764826,0|0|8
208,288,141723,1,0
276,316,141963,1,0
328,260,142203,6,0,B|360:192|452:192,2,149.999997764826,0|0|8
280,204,143403,1,0
216,168,143643,1,0
192,96,143883,1,0
260,64,144123,2,0,B|340:56|396:112,2,149.999997764826,0|0|8
48,280,146043,6,0,B|88:216,1,74.9999988824129,4|0
160,192,146523,2,0,B|232:168,1,74.9999988824129
280,112,147003,1,8
352,100,147243,1,0
420,136,147483,1,0
448,204,147723,1,0
416,272,147963,6,0,B|352:312,1,74.9999988824129
284,340,148443,2,0,B|220:300,1,74.9999988824129
188,232,148923,2,0,B|176:152|96:124,1,149.999997764826,8|0
32,164,149643,1,0
96,204,149883,6,0,B|176:172|200:104,1,149.999997764826
252,48,150603,1,0
324,64,150843,1,8
380,116,151083,1,0
404,188,151323,1,0
364,252,151563,1,0
300,292,151803,2,0,B|236:240|160:264,1,149.999997764826
152,340,152523,1,0
224,328,152763,6,0,B|256:256|208:184,1,149.999997764826,8|0
136,180,153483,1,0
160,252,153723,2,0,B|240:276|300:224,2,149.999997764826,4|0|8
136,180,154923,1,0
156,108,155163,1,0
228,84,155403,1,0
288,128,155643,1,0
256,192,156123,12,4,157563
96,76,172921,6,0,B|112:148,1,74.9999988824129,4|0
152,212,173401,2,0,B|204:160,1,74.9999988824129
256,104,173881,1,8
308,160,174121,1,0
360,212,174361,1,0
400,148,174601,1,0
460,192,174841,6,0,B|448:268|372:308,1,149.999997764826
300,324,175561,1,0
260,260,175801,2,0,B|188:296|116:260,1,149.999997764826,8|0
80,192,176521,1,0
36,132,176761,6,0,B|80:72,1,74.9999988824129
136,120,177241,2,0,B|204:88,1,74.9999988824129
228,160,177721,2,0,B|304:160,1,74.9999988824129,8|0
280,232,178201,2,0,B|348:260,1,74.9999988824129
408,212,178681,2,0,B|448:272|408:328|368:332,2,149.999997764826,0|0|8
320,84,180121,1,0
216,192,180601,6,0,B|192:120,1,74.9999988824129,4|0
128,160,181081,2,0,B|104:232,1,74.9999988824129
140,296,181561,1,8
208,328,181801,1,0
280,316,182041,1,0
332,264,182281,1,0
360,196,182521,6,0,B|436:184,1,74.9999988824129
404,116,183001,2,0,B|344:72,1,74.9999988824129
272,56,183481,2,0,B|192:72|168:152,1,149.999997764826,8|0
216,212,184201,1,0
252,148,184441,6,0,B|212:76|140:56,1,149.999997764826
68,80,185161,1,0
44,152,185401,1,8
60,224,185641,1,0
96,292,185881,1,0
160,332,186121,1,0
236,332,186361,2,0,B|236:248|184:196,2,149.999997764826,0|0|8
380,292,187799,5,0
428,236,188039,1,0
420,160,188279,2,0,B|336:148|280:200,2,149.999997764826,4|0|8
292,80,189719,5,0
220,108,189959,1,0
168,164,190199,2,0,B|160:240|224:296,2,149.999997764826,4|0|8
56,264,191639,5,0
108,316,191879,1,0
180,332,192119,2,0,B|232:280|216:192,1,149.999997764826,4|0
184,124,192839,1,0
132,68,193079,1,8
56,72,193319,1,0
16,136,193559,1,0
56,200,193799,1,0
128,220,194039,2,0,B|164:288|128:364,2,149.999997764826,0|0|8
384,64,195959,6,0,B|260:192|508:192|384:320,1,299.999995529652,4|8
312,340,197159,1,0
236,332,197399,1,0
172,296,197639,1,0
136,228,197879,6,0,B|116:144|176:88,1,149.999997764826
244,64,198599,2,0,B|312:96,1,74.9999988824129,0|8
384,80,199079,1,0
440,128,199319,1,0
460,200,199559,1,0
384,212,199799,6,0,B|256:336|256:88|128:212,1,299.999995529652,4|8
80,268,200999,1,0
128,324,201239,1,0
204,324,201479,1,0
256,268,201719,1,0
256,116,202199,1,0
304,56,202439,1,0
372,92,202679,6,0,B|460:92|496:24,2,149.999997764826,12|0|4
436,192,204119,1,4
344,268,204599,2,0,B|336:224|256:144|176:224|168:268,1,240,8|2
76,192,206039,1,0
168,116,206518,2,0,B|176:160|256:240|336:160|344:116,1,240,8|2
256,36,207959,1,0
300,148,208439,6,0,B|328:212|256:244|256:244|184:212|212:148,2,240,8|2|8
412,192,210839,1,0
316,120,211319,1,4
196,120,211799,1,4
128,220,212279,6,0,B|128:284|196:308,3,120,8|4|2|4
316,308,214197,2,0,B|384:283|384:219,3,120,8|4|2|4
460,128,216117,1,8
364,56,216597,2,0,B|256:152|148:56,1,240
108,100,217797,1,0
124,156,218037,2,0,B|60:180|8:152,2,120,8|0|4
128,276,219477,5,0
180,248,219717,1,0
204,304,219957,2,0,B|256:356|308:304,1,120,8|0
332,248,220677,1,0
384,276,220917,2,0,B|468:192,1,120,2|0
440,140,221637,1,0
388,112,221877,6,0,B|360:172|292:180,1,120,8|0
256,132,222597,1,0
216,179,222837,2,0,B|152:172|124:112,1,120,2|0
72,140,223557,1,0
43,191,223797,2,0,B|128:276,1,120,8|0
224,344,224757,1,2
256,292,224997,6,0,B|256:232,2,60
288,344,225717,2,0,B|356:336|376:272,1,120,4|0
432,256,226437,2,0,B|408:156|304:152,1,180
228,248,227637,5,8
120,192,228117,1,0
200,100,228597,2,0,B|256:64|312:100,1,120,2|0
392,192,229557,1,8
284,248,230037,1,0
256,132,230517,2,0,B|208:80|304:80|256:28,2,120,2|0|8
368,176,231957,6,0,B|256:256|144:176,1,240
204,284,233397,1,8
256,312,233637,1,0
308,284,233877,1,0
256,192,234356,12,4,240116
