osu file format v9

[General]
AudioFilename: Brown Eyes.mp3
AudioLeadIn: 2000
PreviewTime: 55810
Countdown: 0
SampleSet: Soft
StackLeniency: 0.7
Mode: 0
LetterboxInBreaks: 0

[Editor]
Bookmarks: 90367,240115
DistanceSpacing: 1
BeatDivisor: 2
GridSize: 4

[Metadata]
Title:Brown Eyes
Artist:Lady Gaga
Creator:Ylinestra44
Version:Easy
Source:
Tags:The Fame

[Difficulty]
HPDrainRate:2
CircleSize:3
OverallDifficulty:2
ApproachRate:3
SliderMultiplier:0.55
SliderTickRate:1

[Events]
//Background and Video events
0,0,"bg.jpg"
//Break Periods
2,82889,88927
2,157763,171481
//Storyboard Layer 0 (Background)
//Storyboard Layer 1 (Fail)
//Storyboard Layer 2 (Pass)
//Storyboard Layer 3 (Foreground)
//Storyboard Sound Samples
//Background Colour Transformations
3,100,163,162,255

[TimingPoints]
135,479.961603071754,4,2,1,35,1,0
7814,-100,4,2,1,60,0,0
55810,-100,4,2,1,60,0,1
70929,-100,4,2,1,60,0,0
71169,-100,4,2,1,60,0,1
82688,-100,4,2,1,35,0,0
90367,-100,4,2,1,60,0,0
130684,-100,4,2,1,60,0,1
145803,-100,4,2,1,60,0,0
146043,-100,4,2,1,60,0,1
157562,-100,4,2,1,35,0,0
172921,-100,4,2,1,60,0,1
195719,-100,4,2,1,60,0,0
195959,-100,4,2,1,60,0,1
203638,-100,4,2,1,60,0,0
235316,-100,4,2,1,30,0,0
236276,-100,4,2,1,15,0,0
236516,-100,4,2,1,5,0,0
239155,-100,4,2,1,30,0,0
240115,-100,4,2,1,15,0,0

[Colours]
Combo1 : 255,255,191
Combo2 : 157,79,0
Combo3 : 164,146,113

[HitObjects]
120,140,135,1,0
216,192,1095,1,8
200,300,2055,5,0
312,300,3015,1,8
296,192,3975,5,0
392,140,4935,1,8
300,76,5895,5,0
256,112,6375,1,0
212,76,6855,1,8
108,112,7815,6,0,B|60:160|108:208,1,110,2|8
164,208,9255,1,0
136,256,9735,2,0,B|110:318|173:344,1,110,2|8
228,344,11175,1,0
276,320,11655,5,2
324,296,12135,2,0,B|328:267|360:259,2,55,0|8|0
356,340,13573,5,0
408,356,14053,1,0
464,364,14533,1,8
404,272,15493,6,0,B|452:224|404:176,1,110,2|8
348,176,16933,1,0
376,128,17413,2,0,B|402:66|339:40,1,110,2|8
284,40,18853,1,0
236,64,19333,5,2
188,88,19813,2,0,B|184:117|152:125,2,55,2|8|0
148,48,21253,5,0
92,40,21733,1,0
36,44,22213,1,8
32,152,23173,5,2
79,180,23653,2,0,B|72:220|84:260|132:264|192:284|212:196|196:148|132:140,1,275,2|8
228,84,27013,6,0,B|284:96|308:156,1,110,2|8
268,192,28453,1,0
308,232,28933,2,0,B|331:289|387:301,1,110,2|8
436,204,30853,5,2
468,160,31333,2,0,B|498:133|513:94|478:62|443:9|373:66|356:114|401:160,1,275,2|8
304,216,34693,6,0,B|328:192|304:168,2,55,2|0|8
256,244,36133,1,0
208,220,36613,1,2
208,164,37093,1,0
256,140,37572,1,2
352,192,38531,5,2
320,236,39011,2,0,B|296:296|216:296|192:236,1,165,0|2
160,192,40931,5,0
116,160,41411,1,8
72,192,41891,1,0
36,236,42371,6,0,B|44:292|100:320,1,110,2|8
156,320,43811,1,0
212,312,44291,5,2
256,280,44771,1,0
300,312,45251,1,8
356,320,45731,1,0
412,319,46211,6,0,B|468:292|476:236,1,110,2|8
440,192,47651,1,0
396,160,48131,5,2
352,192,48611,1,0
308,224,49091,1,8
264,192,49571,1,0
216,164,50051,6,0,B|164:124|116:164,1,110,2|8
116,220,51490,2,0,B|168:260|216:220,1,110,0|0
256,192,52931,12,8,54851
208,144,55811,6,0,B|160:192|208:240,1,109.999990463257,4|8
256,268,57251,1,0
304,240,57731,2,0,B|352:192|304:144,1,109.999990463257,0|8
256,116,59171,1,0
200,116,59651,6,0,B|172:112|160:84,2,54.9999952316285,2|0|8
172,164,61091,1,0
132,204,61571,2,0,B|132:260|68:228|68:284,1,109.999990463257,0|8
176,304,63489,6,0,B|220:264|220:208,1,110,4|8
256,164,64929,1,0
291,206,65409,2,0,B|292:264|336:304,1,110,0|8
400,212,67329,6,0,B|428:224|436:252,2,54.9999952316285,0|0|8
348,192,68769,1,0
300,168,69249,2,0,B|272:156|268:128,1,54.9999952316285
256,72,70209,1,8
152,108,71169,6,0,B|124:116|116:148,1,54.9999952316285,4|0
108,200,72129,1,8
116,256,72609,1,0
144,304,73089,6,0,B|156:330|189:332,1,54.9999952316285
244,340,74049,1,8
300,332,74529,1,0
352,320,75009,6,0,B|380:328|384:360,2,54.9999952316285,0|0|8
420,236,76929,1,2
372,136,77889,5,8
336,96,78369,1,0
284,76,78849,1,0
228,76,79329,2,0,B|164:84|140:140,1,109.999990463257
124,188,80769,1,2
256,192,81249,12,4,82689
208,136,90367,6,0,B|256:88|304:136,1,109.999990463257,2|8
312,192,91807,2,0,B|320:220|352:228,2,54.9999952316285,0|2|0
256,192,93247,2,0,B|212:224,1,55,8|0
156,232,94207,6,0,B|125:224|117:196,2,54.9999952316285,0|0|8
180,280,95647,2,0,B|256:336|332:280,1,164.999985694885,2|8
380,180,98047,5,2
344,140,98527,1,0
308,96,99007,2,0,B|256:68|204:96,1,109.999990463257,8|2
168,140,100447,5,0
132,180,100927,1,8
172,220,101407,1,0
208,260,101887,6,0,B|244:260|256:280|256:280|268:260|304:260,2,110,2|8|2
208,204,104287,1,0
256,180,104767,1,8
304,204,105247,1,0
360,204,105727,6,0,B|384:152|340:104,1,109.999990463257,2|8
284,116,107167,1,0
228,116,107647,5,2
172,103,108127,2,0,B|128:152|152:204,1,109.999990463257
116,244,109567,6,0,B|128:304|192:312,1,109.999990463257,2|8
228,268,111007,1,0
284,268,111487,5,2
320,311,111967,2,0,B|384:304|396:244,1,109.999990463257
416,192,113405,5,2
396,140,113885,2,0,B|381:81|317:77,1,109.999990463257,0|0
280,120,115325,5,2
232,144,115805,1,0
176,156,116285,1,8
120,160,116765,1,0
64,152,117245,6,0,B|24:160|24:224|64:232,1,109.999990463257,2|8
108,264,118685,1,0
160,272,119165,6,0,B|192:272|208:248,1,54.9999952316285,2|0
256,220,120125,1,8
256,276,120605,1,0
304,248,121085,6,0,B|320:272|352:272,1,54.9999952316285,2|0
408,276,122045,2,0,B|432:296|432:324,2,54.9999952316285,8|0|2
452,240,123485,5,0
480,192,123965,1,8
452,144,124445,1,0
408,108,124925,6,0,B|432:88|432:60,2,54.9999952316285,2|0|8
364,144,126365,2,0,B|316:192|364:240,1,109.999990463257
256,192,127805,12,0,129725
164,152,130685,6,0,B|113:174|104:239,1,109.999990463257,4|8
136,284,132125,1,0
188,304,132605,2,0,B|246:289|274:240,1,110,0|8
292,188,134045,1,0
328,148,134525,6,0,B|356:156|368:184,1,55
380,236,135485,2,0,B|368:264|340:280,1,55,8|0
316,324,136445,2,0,B|356:364|420:344,1,110,0|8
440,236,138363,6,0,B|460:184|420:132,1,109.999990463257,4|8
380,96,139803,1,0
328,84,140283,2,0,B|272:87|242:146,1,109.999990463257,0|8
220,196,141723,1,0
184,236,142203,6,0,B|156:228|144:200,1,55
132,148,143163,2,0,B|144:120|172:104,1,55,8|0
196,60,144123,2,0,B|156:20|92:40,1,110,0|8
36,132,146043,6,0,B|36:168|56:184,1,55,0|4
96,216,147003,1,8
148,240,147483,1,0
200,248,147963,6,0,B|200:280|176:300,2,55,0|0|8
256,256,149403,2,0,B|256:312,2,55,0|0|0
312,248,150843,2,0,B|312:280|336:300,2,55,8|0|0
364,240,152283,1,0
416,216,152763,5,8
458,182,153243,2,0,B|476:168|476:132,1,55,0|4
468,76,154203,2,0,B|416:48|364:76,1,110
320,112,155643,1,2
256,192,156123,12,4,157563
144,192,172921,6,0,B|144:164|120:144,2,55,4|0|8
200,192,174361,1,0
256,192,174841,6,0,B|256:248,2,55,0|0|8
312,192,176281,1,0
368,192,176761,6,0,B|368:164|392:144,2,55,0|0|8
404,236,178201,1,0
444,272,178681,2,0,B|452:336|388:352,1,110,0|8
284,316,180601,6,0,B|228:316,1,55,4|0
176,300,181561,1,8
132,268,182041,1,0
108,220,182521,6,0,B|80:224|60:244,2,55,0|0|8
96,164,183961,2,0,B|104:104|160:80,1,110
212,84,185401,1,8
256,116,185881,5,0
300,84,186361,1,0
352,80,186841,2,0,B|408:104|416:164,1,110
424,220,188279,6,0,B|416:248|384:260,1,55,4|0
336,272,189239,1,8
280,272,189719,1,0
228,260,190199,6,0,B|199:249|191:221,1,55,4|0
164,176,191159,1,8
112,160,191639,1,0
60,140,192119,6,0,B|44:120|48:88,1,55,4|0
80,44,193079,2,0,B|132:4|180:44,1,110,8|0
220,80,194519,1,0
248,128,194999,1,8
208,228,195959,6,0,B|256:276|304:228,1,110,4|8
344,192,197399,1,0
304,156,197879,2,0,B|256:108|208:156,1,110,0|8
168,192,199319,1,0
112,192,199799,6,0,B|88:244|132:292,1,110,4|8
180,316,201239,1,0
236,324,201719,1,0
292,320,202199,2,0,B|324:320|352:296,1,55,0|8
384,264,203159,1,0
404,212,203639,5,4
404,156,204119,1,0
380,104,204599,2,0,B|348:60|284:60,1,110,8|0
228,68,206039,1,0
184,100,206519,6,0,B|144:144|156:204,1,110,8|0
180,252,207959,1,0
156,300,208439,6,0,B|107:344|55:318,1,110,8|0
24,272,209879,1,0
24,216,210359,2,0,B|24:184|48:164,1,55,8|0
96,144,211319,5,4
148,132,211799,1,4
200,116,212279,6,0,B|208:88|188:64,2,55,8|0|0
256,116,213717,1,0
312,116,214197,6,0,B|304:88|324:64,2,55,8|0|0
364,132,215637,2,0,B|388:148|396:176,1,55,0|8
396,232,216597,2,0,B|368:292|312:292,1,110,0|0
256,292,218037,5,8
200,292,218517,2,0,B|172:284|156:256,1,55,0|4
136,208,219477,1,0
136,152,219957,5,8
160,104,220437,1,0
204,72,220917,2,0,B|256:44|308:72,1,110,0|8
352,104,222357,5,0
376,152,222837,2,0,B|388:204|348:256,1,110,0|8
308,292,224277,2,0,B|276:312|252:312,1,55
204,312,225237,5,0
148,304,225717,2,0,B|116:296|104:276,1,55,8|0
88,220,226677,1,0
84,164,227157,1,0
96,112,227637,6,0,B|68:104|60:76,2,55,8|0|0
148,96,229077,1,0
200,80,229557,6,0,B|184:56|188:28,2,55,8|0|0
256,84,230997,1,0
312,80,231477,1,8
364,96,231957,6,0,B|404:136|404:196,1,110
396,248,233397,2,0,B|384:276|340:284,1,55,8|0
256,192,234356,12,4,240116
