osu file format v14

[General]
AudioFilename: 102-lady_gaga-born_this_way.mp3
AudioLeadIn: 0
PreviewTime: 127171
Countdown: 1
SampleSet: Soft
StackLeniency: 0.2
Mode: 0
LetterboxInBreaks: 0
WidescreenStoryboard: 0

[Editor]
DistanceSpacing: 1
BeatDivisor: 3
GridSize: 4
TimelineZoom: 1

[Metadata]
Title:Born This Way
TitleUnicode:Born This Way
Artist:Lady Gaga
ArtistUnicode:Lady Gaga
Creator:Kareov
Version:Hard
Source:
Tags:bornthisway gero dj white shadow mother monster
BeatmapID:477401
BeatmapSetID:201655

[Difficulty]
HPDrainRate:6
CircleSize:4
OverallDifficulty:6
ApproachRate:8
SliderMultiplier:1.92
SliderTickRate:2

[Events]
//Background and Video events
0,0,"bg.jpg",0,0
//Break Periods
2,89395,94009
2,158864,165622
//Storyboard Layer 0 (Background)
//Storyboard Layer 1 (Fail)
//Storyboard Layer 2 (Pass)
//Storyboard Layer 3 (Foreground)
//Storyboard Sound Samples

[TimingPoints]
163,483.870967741935,4,1,1,70,1,0
27251,-100,4,2,1,50,0,0
56284,-200,4,2,1,50,0,0
58219,-100,4,1,1,50,0,1
65840,-100,4,1,1,50,0,0
65961,-100,4,1,1,50,0,1
72735,-100,4,1,1,50,0,0
73703,-100,4,1,1,50,0,1
81324,-100,4,1,1,50,0,0
81445,-100,4,1,1,50,0,1
89187,-100,4,1,1,50,0,0
96687,-100,4,2,1,50,0,0
124033,-100,4,2,1,20,0,0
124517,-100,4,2,1,30,0,0
125001,-100,4,2,1,40,0,0
125485,-100,4,2,1,50,0,0
127896,-100,4,1,1,50,0,1
135517,-100,4,1,1,50,0,0
135638,-100,4,1,1,50,0,1
142896,-100,4,1,1,50,0,0
143380,-100,4,1,1,50,0,1
151001,-100,4,1,1,50,0,0
151122,-100,4,1,1,50,0,1
158864,-100,4,1,1,50,0,0
166606,-100,4,1,20,30,0,0
181856,-100,4,1,1,50,0,0
195646,-100,4,1,1,80,0,0
197582,-100,4,1,1,80,0,1
205203,-100,4,1,1,80,0,0
205324,-100,4,1,1,80,0,1
212945,-100,4,1,1,80,0,0
213066,-100,4,1,1,80,0,1
220687,-100,4,1,1,80,0,0
220808,-100,4,1,1,80,0,1
228550,-100,4,1,1,80,0,0
228912,-100,4,2,1,80,0,0
243066,-100,4,2,1,5,0,0

[Colours]
Combo1 : 128,0,255
Combo2 : 128,128,128
Combo3 : 0,128,192

[HitObjects]
256,192,15646,12,0,19033,2:0:0:0:
203,47,19517,6,0,P|163:31|111:35,1,96,0|0,0:0|0:0,0:0:0:0:
55,115,20001,1,8,0:0:0:0:
112,196,20243,2,0,P|159:200|203:183,1,96,0|0,0:0|0:0,0:0:0:0:
292,144,20727,1,0,0:0:0:0:
400,252,20969,2,0,P|352:256|308:239,1,96,8|0,0:0|0:0,0:0:0:0:
188,252,21453,6,0,P|128:284|24:232,1,192,0|8,0:0|0:0,0:0:0:0:
56,116,22179,2,0,P|116:84|220:136,1,192,0|0,0:0|0:0,0:0:0:0:
320,56,22904,2,0,B|325:104|292:145,1,96,8|0,0:0|0:0,0:0:0:0:
320,236,23388,6,0,B|352:268|352:268|404:268,2,96,0|0|8,0:0|0:0|0:0,0:0:0:0:
256,308,24114,1,0,0:0:0:0:
192,236,24356,2,0,B|160:268|160:268|108:268,2,96,0|0|8,0:0|0:0|0:0,0:0:0:0:
164,144,25082,1,0,0:0:0:0:
164,47,25324,2,0,B|214:19|284:88|349:47,1,192,0|8,0:0|0:0,0:0:0:0:
444,56,26050,1,0,0:0:0:0:
444,56,26292,2,0,P|480:136|424:228,1,192,0|8,0:0|0:0,0:0:0:0:
256,292,27259,6,0,P|188:320|96:260,1,192,2|8,0:0|0:0,0:0:0:0:
52,172,27985,1,0,0:0:0:0:
120,100,28227,2,0,P|160:84|212:96,1,96
304,120,28711,1,8,0:0:0:0:
304,120,28953,2,0,P|395:142|483:109,1,192,2|0,0:0|0:0,0:0:0:0:
392,48,29679,1,8,0:0:0:0:
392,48,29921,2,0,L|396:240,1,192,2|0,0:0|0:0,0:0:0:0:
400,336,30646,2,0,L|304:324,1,96,8|0,0:0|0:0,0:0:0:0:
208,332,31130,6,0,P|164:308|116:316,1,96,2|0,0:0|0:0,0:0:0:0:
48,252,31614,1,8,0:0:0:0:
88,164,31856,2,0,P|132:188|180:180,1,96,0|0,0:0|0:0,0:0:0:0:
256,128,32340,1,0,0:0:0:0:
424,164,32582,2,0,P|380:188|332:180,1,96,8|0,0:0|0:0,0:0:0:0:
376,96,33066,6,0,P|440:88|508:184,1,192,0|8,0:0|0:0,0:0:0:0:
464,268,33792,1,0,0:0:0:0:
392,332,34033,2,0,B|336:296|280:336|280:336|216:284,1,192,0|8,0:0|0:0,0:0:0:0:
156,232,34759,1,0,0:0:0:0:
88,172,35001,6,0,B|64:128|72:80,1,96,2|0,0:0|0:0,0:0:0:0:
164,56,35485,2,0,B|188:100|180:148,1,96,8|0,0:0|0:0,0:0:0:0:
332,148,35969,2,0,B|324:100|348:56,1,96,0|0,0:0|0:0,0:0:0:0:
440,80,36453,2,0,B|448:128|424:172,1,96,8|0,0:0|0:0,0:0:0:0:
464,260,36937,6,0,B|416:260|384:308|384:308|352:260|304:260,1,192,0|8,0:0|0:0,0:0:0:0:
204,260,37662,2,0,B|160:260|128:308|128:308|96:260|48:260,1,192
88,172,38388,2,0,P|128:152|172:172,1,96,8|0,0:0|0:0,0:0:0:0:
256,128,38872,6,0,P|236:88|256:44,1,96,2|0,0:0|0:0,0:0:0:0:
344,88,39356,1,8,0:0:0:0:
428,44,39598,2,0,P|447:85|427:127,1,96,0|0,0:0|0:0,0:0:0:0:
388,256,40082,1,0,0:0:0:0:
388,256,40324,2,0,P|306:310|214:301,1,192,2|4,0:0|0:0,0:0:0:0:
120,292,41050,5,2,0:0:0:0:
120,292,41171,1,2,0:0:0:0:
40,192,41412,1,2,0:0:0:0:
120,92,41654,1,2,0:0:0:0:
120,92,41775,1,2,0:0:0:0:
256,40,42017,1,2,0:0:0:0:
256,152,42259,1,2,0:0:0:0:
392,92,42501,1,0,0:0:0:0:
408,108,42622,1,0,0:0:0:0:
424,124,42743,5,4,0:0:0:0:
460,212,42985,2,0,P|468:260|448:304,1,96,0|8,0:0|0:0,0:0:0:0:
344,256,43469,2,0,P|336:304|356:348,2,96,0|0|0,0:0|0:0|0:0,0:0:0:0:
256,220,44195,1,8,0:0:0:0:
168,256,44437,2,0,P|176:304|156:348,2,96,0|0|0,0:0|0:0|0:0,0:0:0:0:
80,216,45162,1,8,0:0:0:0:
124,132,45404,2,0,P|164:104|176:60,1,96
335,60,45888,2,0,P|349:105|388:132,1,96,0|8,0:0|0:0,0:0:0:0:
460,196,46372,1,0,0:0:0:0:
444,212,46493,1,0,0:0:0:0:
428,228,46614,5,0,0:0:0:0:
372,304,46856,2,0,L|444:368,2,96,0|8|0,0:0|0:0|0:0,0:0:0:0:
304,236,47582,1,0,0:0:0:0:
212,264,47824,2,0,P|156:248|108:268,2,96,0|8|0,0:0|0:0|0:0,0:0:0:0:
304,236,48550,6,0,P|316:188|304:144,1,96,0|0,0:0|0:0,0:0:0:0:
348,60,49033,2,0,P|300:48|256:60,1,96,8|0,0:0|0:0,0:0:0:0:
160,72,49517,1,0,0:0:0:0:
40,164,49759,2,0,P|88:176|132:164,1,96,0|8,0:0|0:0,0:0:0:0:
228,148,50243,1,0,0:0:0:0:
200,240,50485,6,0,B|188:288|136:304,2,96,2|0|8,0:0|0:0|0:0,0:0:0:0:
312,240,51211,2,0,B|324:288|376:304,2,96,0|0|0,0:0|0:0|0:0,0:0:0:0:
376,168,51937,1,8,0:0:0:0:
332,84,52179,2,0,P|300:56|244:60,1,96,0|0,0:0|0:0,0:0:0:0:
152,44,52662,2,0,L|108:64,1,48,0|0,0:0|0:0,0:0:0:0:
192,116,53025,2,0,L|148:136,1,48,0|0,0:0|0:0,0:0:0:0:
52,132,53388,2,0,P|38:175|41:227,2,96,0|0|8,0:0|0:0|0:0,0:0:0:0:
424,72,54356,6,0,P|456:104|456:152,1,96
404,232,54840,2,0,P|372:199|372:151,1,96,8|0,0:0|0:0,0:0:0:0:
308,80,55324,2,0,P|268:60|216:68,1,96,0|0,0:0|0:0,0:0:0:0:
124,76,55808,1,8,0:0:0:0:
124,76,56292,6,0,P|82:131|95:199,2,144,2|2|2,0:0|0:0|0:0,0:0:0:0:
312,116,58227,6,0,L|456:100,1,144,0|0,0:0|0:0,0:0:0:0:
468,120,58711,2,0,B|488:168|468:216,1,96,8|0,0:0|0:0,0:0:0:0:
384,256,59195,1,0,0:0:0:0:
320,328,59437,1,0,0:0:0:0:
312,312,59558,1,0,0:0:0:0:
300,300,59679,1,8,0:0:0:0:
192,328,59921,1,0,0:0:0:0:
200,312,60042,1,0,0:0:0:0:
212,300,60162,1,0,0:0:0:0:
216,204,60404,2,0,P|176:140|68:136,1,192,2|0,0:0|0:0,0:0:0:0:
116,220,61130,5,0,0:0:0:0:
212,52,61372,1,0,0:0:0:0:
388,128,61614,2,0,B|444:136|452:188,1,96,8|0,0:0|0:0,0:0:0:0:
444,284,62098,6,0,B|408:300|408:300|352:276,1,96
296,352,62582,2,0,B|268:352|256:331|256:331|244:352|216:352,1,96,8|0,0:0|0:0,0:0:0:0:
68,284,63066,2,0,B|104:300|104:300|160:276,1,96
176,183,63550,1,8,0:0:0:0:
139,94,63792,1,0,0:0:0:0:
139,94,63912,1,0,0:0:0:0:
139,94,64033,2,0,P|194:81|281:105,1,144,0|0,0:0|0:0,0:0:0:0:
277,102,64517,2,0,P|323:95|357:62,1,96,8|0,0:0|0:0,0:0:0:0:
440,112,65001,6,0,B|472:140|472:140|464:192,1,96
388,356,65485,2,0,B|356:328|356:328|364:276,1,96,8|0,0:0|0:0,0:0:0:0:
268,264,65969,6,0,P|220:256|168:268,1,96,4|0,0:0|0:0,0:0:0:0:
80,244,66453,1,8,0:0:0:0:
68,148,66695,2,0,P|52:80|152:44,1,192,0|0,0:0|0:0,0:0:0:0:
256,108,67421,1,8,0:0:0:0:
256,108,67662,1,0,0:0:0:0:
363,42,67904,6,0,P|449:60|444:148,1,192,0|8,0:0|0:0,0:0:0:0:
356,188,68630,1,0,0:0:0:0:
416,260,68872,2,0,P|432:304|416:352,1,96
254,198,69356,2,0,P|239:151|255:107,1,96,8|0,0:0|0:0,0:0:0:0:
344,76,69840,6,0,L|152:100,1,192,0|8,0:0|0:0,0:0:0:0:
72,48,70566,1,0,0:0:0:0:
72,48,70687,1,0,0:0:0:0:
72,48,70808,2,0,P|52:96|60:152,1,96
138,190,71292,2,0,P|158:142|150:86,1,96,8|0,0:0|0:0,0:0:0:0:
250,97,71775,2,0,P|336:73|443:212,1,288,2|0,0:0|0:0,0:0:0:0:
421,306,72743,1,2,0:0:0:0:
421,306,73711,6,0,L|316:312,1,96,4|0,0:0|0:0,0:0:0:0:
300,312,74074,1,0,0:0:0:0:
276,312,74195,1,2,0:0:0:0:
144,336,74437,2,0,P|132:288|152:240,1,96
160,148,74921,1,0,0:0:0:0:
160,148,75042,2,0,P|184:104|272:88,1,144,0|0,0:0|0:0,0:0:0:0:
364,64,75646,6,0,P|412:68|452:96,1,96,4|0,0:0|0:0,0:0:0:0:
436,188,76130,2,0,P|388:192|348:220,1,96,8|0,0:0|0:0,0:0:0:0:
348,316,76614,1,0,0:0:0:0:
256,344,76856,1,0,0:0:0:0:
256,344,76977,1,0,0:0:0:0:
164,316,77219,1,0,0:0:0:0:
164,316,77340,1,0,0:0:0:0:
96,248,77582,6,0,L|60:160,1,96
152,64,78066,2,0,L|188:152,1,96,8|0,0:0|0:0,0:0:0:0:
324,152,78550,2,0,L|360:64,1,96
452,160,79033,2,0,L|416:248,1,96,8|0,0:0|0:0,0:0:0:0:
408,344,79517,5,2,0:0:0:0:
256,344,79759,1,0,0:0:0:0:
264,336,79880,1,0,0:0:0:0:
272,328,80001,1,8,0:0:0:0:
256,232,80243,1,0,0:0:0:0:
264,224,80364,1,0,0:0:0:0:
272,216,80485,1,8,0:0:0:0:
256,120,80727,1,0,0:0:0:0:
264,112,80848,1,0,0:0:0:0:
272,104,80969,1,8,0:0:0:0:
280,96,81090,1,0,0:0:0:0:
288,88,81211,1,0,0:0:0:0:
296,80,81332,1,0,0:0:0:0:
304,72,81453,6,0,L|400:64,1,96,4|0,0:0|0:0,0:0:0:0:
396,160,81937,2,0,L|492:152,2,96,2|0|8,0:0|0:0|0:0,0:0:0:0:
388,256,82662,1,0,0:0:0:0:
388,256,82783,2,0,P|336:288|336:364,1,144
175,364,83388,5,2,0:0:0:0:
132,280,83630,1,0,0:0:0:0:
140,272,83751,1,0,0:0:0:0:
148,264,83872,1,8,0:0:0:0:
148,120,84114,1,0,0:0:0:0:
140,112,84235,1,0,0:0:0:0:
132,104,84356,1,0,0:0:0:0:
40,192,84598,2,0,L|88:192,1,48
40,192,85324,5,2,0:0:0:0:
40,192,85808,1,2,0:0:0:0:
40,192,86292,1,2,0:0:0:0:
86,306,86533,2,0,P|111:346|152:369,1,96,0|8,0:0|0:0,0:0:0:0:
182,175,87017,2,0,P|171:221|183:267,1,96,0|8,0:0|0:0,0:0:0:0:
340,150,87501,2,0,P|299:175|276:216,1,96,0|8,0:0|0:0,0:0:0:0:
472,246,87985,2,0,P|425:235|379:247,1,96,0|8,0:0|0:0,0:0:0:0:
388,344,88469,1,0,0:0:0:0:
388,344,88590,1,0,0:0:0:0:
388,344,88711,1,0,0:0:0:0:
380,248,88953,1,0,0:0:0:0:
340,152,89195,5,4,0:0:0:0:
148,88,94759,5,2,2:0:0:0:
148,88,95001,1,2,2:0:0:0:
364,88,95727,5,2,2:0:0:0:
364,88,95969,1,2,2:0:0:0:
256,292,96937,6,0,P|324:320|416:260,1,192,2|8,0:0|0:0,0:0:0:0:
460,172,97662,1,0,0:0:0:0:
392,100,97904,2,0,P|352:84|300:96,1,96
208,120,98388,1,8,0:0:0:0:
208,120,98630,2,0,P|117:142|29:109,1,192,2|0,0:0|0:0,0:0:0:0:
120,48,99356,1,8,0:0:0:0:
120,48,99598,2,0,L|116:240,1,192,2|0,0:0|0:0,0:0:0:0:
112,336,100324,2,0,L|208:324,1,96,8|0,0:0|0:0,0:0:0:0:
304,332,100808,6,0,P|348:308|396:316,1,96,2|0,0:0|0:0,0:0:0:0:
464,252,101292,1,8,0:0:0:0:
424,164,101533,2,0,P|380:188|332:180,1,96,0|0,0:0|0:0,0:0:0:0:
256,128,102017,1,0,0:0:0:0:
88,164,102259,2,0,P|132:188|180:180,1,96,8|0,0:0|0:0,0:0:0:0:
136,96,102743,6,0,P|72:88|4:184,1,192,0|8,0:0|0:0,0:0:0:0:
48,268,103469,1,0,0:0:0:0:
120,332,103711,2,0,B|176:296|232:336|232:336|296:284,1,192,0|8,0:0|0:0,0:0:0:0:
356,232,104437,1,0,0:0:0:0:
424,172,104679,6,0,B|448:128|440:80,1,96,4|0,0:0|0:0,0:0:0:0:
348,56,105162,2,0,B|324:100|332:148,1,96,8|0,0:0|0:0,0:0:0:0:
180,148,105646,2,0,B|188:100|164:56,1,96,0|0,0:0|0:0,0:0:0:0:
72,80,106130,2,0,B|64:128|88:172,1,96,8|0,0:0|0:0,0:0:0:0:
48,260,106614,1,2,0:0:0:0:
124,320,106856,1,0,0:0:0:0:
140,340,106977,1,2,0:0:0:0:
256,340,107219,1,2,0:0:0:0:
240,320,107340,1,0,0:0:0:0:
332,300,107582,2,0,P|380:288|432:304,2,96,0|0|8,0:0|0:0|0:0,0:0:0:0:
336,84,108429,5,0,0:0:0:0:
336,84,108550,2,0,P|312:56|256:48,1,96,4|0,0:0|0:0,0:0:0:0:
176,100,109033,2,0,P|200:128|256:136,1,96,8|0,0:0|0:0,0:0:0:0:
256,232,109517,1,0,0:0:0:0:
256,328,109759,1,0,0:0:0:0:
256,328,109880,1,0,0:0:0:0:
256,328,110001,1,8,0:0:0:0:
340,280,110243,1,0,0:0:0:0:
172,280,110485,6,0,P|144:264|104:264,1,64,0|0,1:0|1:0,1:0:0:0:
76,192,110808,1,0,1:0:0:0:
112,122,110969,2,0,P|144:119|172:104,1,64,0|0,1:0|1:0,0:0:0:0:
256,192,111211,12,4,112421,0:0:0:0:
169,85,112662,5,0,0:0:0:0:
93,145,112904,1,8,0:0:0:0:
93,241,113146,1,0,0:0:0:0:
169,301,113388,2,0,B|217:282|256:324|256:324|292:283|341:301,1,192,0|8,0:0|0:0,0:0:0:0:
352,204,114114,2,0,P|340:160|356:112,1,96,0|0,0:0|0:0,0:0:0:0:
232,40,114598,2,0,P|244:84|228:132,1,96,0|8,0:0|0:0,0:0:0:0:
200,224,115082,1,0,0:0:0:0:
136,48,115324,2,0,P|232:40|328:48,1,192,0|8,0:0|0:0,0:0:0:0:
412,96,116050,1,0,0:0:0:0:
444,188,116292,6,0,P|456:232|448:284,1,96,2|0,0:0|0:0,0:0:0:0:
388,356,116775,2,0,B|368:316|368:316|316:304,1,96,8|0,0:0|0:0,0:0:0:0:
256,232,117259,1,0,0:0:0:0:
193,304,117501,2,0,B|144:316|144:316|124:356,1,96,0|8,0:0|0:0,0:0:0:0:
62,281,117985,2,0,P|55:234|68:188,1,96,0|0,0:0|0:0,0:0:0:0:
60,92,118469,6,0,P|120:56|212:120,1,192,2|2,0:0|0:0,0:0:0:0:
452,92,119437,2,0,P|392:56|300:120,1,192,2|2,0:0|0:0,0:0:0:0:
324,212,120162,6,0,B|336:256|336:256|384:288,1,96,2|0,0:0|0:0,0:0:0:0:
304,348,120646,2,0,L|196:348,1,96,8|0,0:0|0:0,0:0:0:0:
134,283,121130,2,0,B|176:256|176:256|188:212,1,96
211,117,121614,2,0,P|143:56|60:92,1,192,8|0,0:0|0:0,0:0:0:0:
44,188,122340,2,0,L|40:236,1,48,2|2,0:0|0:0,0:0:0:0:
136,284,122703,2,0,L|132:332,1,48
256,372,123066,1,0,0:0:0:0:
380,332,123308,2,0,L|376:284,1,48,2|2,0:0|0:0,0:0:0:0:
468,188,123671,2,2,L|472:236,1,48
256,112,124033,5,8,0:0:0:0:
160,112,124275,1,8,0:0:0:0:
208,16,124517,1,8,0:0:0:0:
304,16,124759,1,8,0:0:0:0:
352,112,125001,1,2,0:0:0:0:
304,208,125243,1,2,0:0:0:0:
208,208,125485,1,8,0:0:0:0:
256,192,125969,12,0,127421,0:0:0:0:
200,268,127904,6,0,L|56:284,1,144,0|0,0:0|0:0,0:0:0:0:
44,264,128388,2,0,B|24:216|44:168,1,96,8|0,0:0|0:0,0:0:0:0:
128,128,128872,1,0,0:0:0:0:
192,56,129114,1,0,0:0:0:0:
200,72,129235,1,0,0:0:0:0:
212,84,129356,1,8,0:0:0:0:
320,56,129598,1,0,0:0:0:0:
312,72,129719,1,0,0:0:0:0:
300,84,129840,1,0,0:0:0:0:
296,180,130082,2,0,P|336:244|444:248,1,192,2|0,0:0|0:0,0:0:0:0:
396,164,130808,5,0,0:0:0:0:
300,332,131050,1,0,0:0:0:0:
124,256,131292,2,0,B|68:248|60:196,1,96
68,100,131775,6,0,B|104:84|104:84|160:108,1,96,4|0,0:0|0:0,0:0:0:0:
216,32,132259,2,0,B|244:32|256:53|256:53|268:32|296:32,1,96,8|0,0:0|0:0,0:0:0:0:
444,100,132743,2,0,B|408:84|408:84|352:108,1,96
336,201,133227,1,8,0:0:0:0:
373,290,133469,1,0,0:0:0:0:
373,290,133590,1,0,0:0:0:0:
373,290,133711,2,0,P|318:303|231:279,1,144,0|0,0:0|0:0,0:0:0:0:
235,282,134195,2,0,P|189:289|155:322,1,96,8|0,0:0|0:0,0:0:0:0:
72,272,134679,6,0,B|40:244|40:244|48:192,1,96
124,28,135162,2,0,B|156:56|156:56|148:108,1,96,8|0,0:0|0:0,0:0:0:0:
244,120,135646,6,0,P|292:128|344:116,1,96,4|0,0:0|0:0,0:0:0:0:
432,140,136130,1,8,0:0:0:0:
444,236,136372,2,0,P|460:304|360:340,1,192,0|0,0:0|0:0,0:0:0:0:
256,276,137098,1,8,0:0:0:0:
256,276,137340,1,0,0:0:0:0:
149,342,137582,6,0,P|63:324|68:236,1,192,0|8,0:0|0:0,0:0:0:0:
156,196,138308,1,0,0:0:0:0:
96,124,138550,2,0,P|80:80|96:32,1,96
258,186,139033,2,0,P|273:233|257:277,1,96,8|0,0:0|0:0,0:0:0:0:
168,308,139517,6,0,L|360:284,1,192,4|8,0:0|0:0,0:0:0:0:
440,336,140243,1,0,0:0:0:0:
440,336,140364,1,0,0:0:0:0:
440,336,140485,2,0,P|460:288|452:232,1,96
374,194,140969,2,0,P|354:242|362:298,1,96,8|0,0:0|0:0,0:0:0:0:
256,192,141453,12,0,142904,0:0:0:0:
376,108,143388,6,0,P|420:116|463:146,1,96,4|0,0:0|0:0,0:0:0:0:
468,162,143751,1,0,0:0:0:0:
475,179,143872,1,8,0:0:0:0:
432,320,144114,2,0,P|404:281|395:234,1,96,0|0,0:0|0:0,0:0:0:0:
424,328,144598,2,0,P|400:332|368:328,1,48
300,268,144961,1,0,0:0:0:0:
300,268,145082,1,0,0:0:0:0:
136,108,145324,6,0,P|92:116|49:146,1,96
44,162,145687,1,0,0:0:0:0:
37,179,145808,1,8,0:0:0:0:
80,320,146050,2,0,P|108:281|117:234,1,96,0|0,0:0|0:0,0:0:0:0:
88,328,146533,2,0,P|112:332|144:328,1,48
212,268,146896,1,0,0:0:0:0:
212,268,147017,1,0,0:0:0:0:
216,171,147259,6,2,P|256:148|295:171,1,96
216,74,147743,2,2,P|256:52|296:76,1,96
416,160,148227,2,0,B|456:228|411:296,1,144,2|2,0:0|0:0,0:0:0:0:
412,320,148711,2,0,L|312:336,1,96,8|0,0:0|0:0,0:0:0:0:
194,335,149195,6,0,L|100:320,1,96
32,252,149679,1,8,0:0:0:0:
212,212,149921,2,0,L|117:196,1,96
60,120,150404,1,8,0:0:0:0:
64,92,150525,1,0,0:0:0:0:
81,69,150646,1,8,0:0:0:0:
104,52,150767,1,0,0:0:0:0:
132,47,150888,1,8,0:0:0:0:
176,132,151130,6,0,L|276:112,1,96,4|0,0:0|0:0,0:0:0:0:
384,172,151614,2,0,L|289:190,1,96,8|0,0:0|0:0,0:0:0:0:
208,288,152098,2,0,L|308:268,1,96,0|0,0:0|0:0,0:0:0:0:
328,288,152461,2,0,B|380:276|420:308,1,96
432,332,152824,2,0,L|452:236,1,96,0|4,0:0|0:0,0:0:0:0:
460,144,153308,5,0,0:0:0:0:
460,144,153429,1,0,0:0:0:0:
460,144,153550,1,8,0:0:0:0:
392,76,153792,1,0,0:0:0:0:
300,108,154033,2,0,P|248:104|224:72,1,96,0|0,0:0|0:0,0:0:0:0:
223,71,154396,1,0,0:0:0:0:
80,92,154759,1,0,0:0:0:0:
48,184,155001,6,0,B|148:192|184:304,1,192,2|0,0:0|0:0,0:0:0:0:
328,81,155848,1,2,0:0:0:0:
328,81,155969,2,0,B|364:192|464:200,1,192,2|8,0:0|0:0,0:0:0:0:
256,192,156937,12,0,158388,0:0:0:0:
408,92,166372,5,0,0:0:0:0:
324,48,166614,2,0,P|304:80|248:92,1,96,2|0,0:0|0:0,0:0:0:0:
176,136,167098,2,0,P|196:104|252:92,1,96,2|0,0:0|0:0,0:0:0:0:
256,188,167582,1,2,0:0:0:0:
256,188,167703,2,0,P|232:236|140:228,1,144
80,176,168308,1,0,0:0:0:0:
96,80,168550,6,0,P|150:43|225:50,2,144,2|0|0,0:0|0:0|0:0,0:0:0:0:
80,176,169517,2,0,P|64:224|72:288,1,96,2|0,0:0|0:0,0:0:0:0:
80,316,169880,1,0,0:0:0:0:
224,332,170243,5,0,0:0:0:0:
312,296,170485,2,0,P|352:284|404:296,1,96,2|0,0:0|0:0,0:0:0:0:
472,192,170969,2,0,P|432:204|380:192,1,96,2|0,0:0|0:0,0:0:0:0:
312,88,171453,2,0,P|352:100|404:88,1,96,2|0,0:0|0:0,0:0:0:0:
403,88,171816,1,0,0:0:0:0:
109,88,172179,1,8,0:0:0:0:
56,168,172421,6,0,P|32:220|48:288,1,96,2|0,0:0|0:0,0:0:0:0:
68,292,172783,1,0,0:0:0:0:
156,332,173025,1,0,0:0:0:0:
156,332,173146,1,0,0:0:0:0:
196,244,173388,2,0,P|232:220|296:224,1,96,2|0,0:0|0:0,0:0:0:0:
304,260,173751,1,0,0:0:0:0:
376,324,173993,1,0,0:0:0:0:
376,324,174114,1,0,0:0:0:0:
396,228,174356,5,0,0:0:0:0:
420,136,174598,2,0,P|400:84|368:48,1,96,0|8,0:0|0:0,0:0:0:0:
296,112,175082,1,0,0:0:0:0:
208,72,175324,1,0,0:0:0:0:
208,72,175445,1,0,0:0:0:0:
128,124,175687,1,0,0:0:0:0:
68,292,176050,5,0,0:0:0:0:
172,348,176292,2,0,P|220:348|256:320,1,96
340,208,176775,2,0,P|292:208|256:236,1,96,8|0,0:0|0:0,0:0:0:0:
444,292,177259,1,0,0:0:0:0:
444,292,177380,2,0,B|484:232|452:152,1,144,0|8,0:0|0:0,0:0:0:0:
384,84,177985,1,0,0:0:0:0:
292,108,178227,6,0,B|240:116|200:72,2,96,0|0|8,0:0|0:0|0:0,0:0:0:0:
152,196,178953,2,0,B|204:188|244:232,1,96,0|0,0:0|0:0,0:0:0:0:
200,316,179437,1,0,0:0:0:0:
200,316,179558,2,0,P|144:328|76:264,1,144,0|0,0:0|0:0,0:0:0:0:
108,100,180162,1,2,0:0:0:0:
426,306,182098,6,0,P|401:346|360:369,1,96,0|0,0:0|1:0,0:0:0:0:
330,175,182582,2,0,P|341:221|329:267,1,96,0|0,0:0|1:0,0:0:0:0:
172,150,183066,2,0,P|213:175|236:216,1,96,0|0,0:0|1:0,0:0:0:0:
40,246,183550,2,0,P|87:235|133:247,1,96,0|0,0:0|1:0,0:0:0:0:
132,344,184033,5,0,0:0:0:0:
132,248,184275,1,0,1:0:0:0:
96,160,184517,2,0,P|100:116|140:84,1,96,0|0,0:0|0:1,0:0:0:0:
216,28,185001,1,0,0:0:0:0:
288,88,185243,2,0,P|325:117|331:164,2,96,0|0|0,1:0|0:0|1:0,0:0:0:0:
384,280,185969,6,0,B|332:280|332:280|308:316,1,96,0|0,0:0|1:0,0:0:0:0:
204,316,186453,2,0,B|180:280|180:280|128:280,1,96
88,192,186937,1,0,0:0:0:0:
204,68,187179,2,0,B|180:104|180:104|128:104,1,96
88,192,187662,1,0,0:0:0:0:
163,192,187904,6,0,B|218:154|293:229|348:192,1,192
312,104,188630,1,0,0:0:0:0:
200,280,188872,1,0,0:0:0:0:
124,336,189114,2,0,B|76:336|76:336|32:364,2,96,0|0|0,0:0|0:0|0:0,0:0:0:0:
256,352,189840,6,0,L|364:352,1,96,4|0,0:0|0:0,0:0:0:0:
400,268,190324,1,8,0:0:0:0:
480,216,190566,2,0,B|428:164|376:164|376:164|304:164,1,192
304,68,191292,2,0,L|208:68,1,96,8|0,0:0|0:0,0:0:0:0:
208,164,191775,2,0,B|136:164|136:164|84:164|32:216,1,192,0|8,0:0|0:0,0:0:0:0:
44,312,192501,1,0,0:0:0:0:
140,316,192743,2,0,P|180:296|212:256,1,96
372,316,193227,2,0,P|332:296|300:256,1,96,8|0,0:0|0:0,0:0:0:0:
448,192,193711,5,0,0:0:0:0:
400,128,193953,1,0,0:0:0:0:
336,80,194195,1,0,0:0:0:0:
256,48,194437,1,0,0:0:0:0:
176,80,194679,1,0,0:0:0:0:
112,128,194921,1,0,0:0:0:0:
64,192,195162,1,0,0:0:0:0:
112,256,195404,1,0,0:0:0:0:
176,304,195646,1,4,0:0:0:0:
420,344,196856,6,0,P|440:296|424:248,1,96
360,120,197340,2,0,P|340:168|356:216,1,96,0|0,0:0|0:0,0:0:0:0:
296,280,197824,5,0,0:0:0:0:
268,276,197945,1,0,0:0:0:0:
240,272,198066,1,8,0:0:0:0:
184,352,198308,2,0,P|148:332|92:344,1,96
42,261,198792,1,0,0:0:0:0:
72,164,199033,2,0,P|92:115|59:34,1,144,8|0,0:0|0:0,0:0:0:0:
59,34,199517,1,0,0:0:0:0:
192,48,199759,2,0,L|288:56,1,96,0|8,0:0|0:0,0:0:0:0:
360,144,200243,2,0,L|264:136,1,96
204,212,200727,1,0,0:0:0:0:
212,308,200969,2,0,P|172:312|120:336,1,96,8|0,0:0|0:0,0:0:0:0:
112,192,201453,6,0,P|104:144|112:96,1,96
204,72,201937,2,0,P|264:60|336:99,1,144,8|0,0:0|0:0,0:0:0:0:
334,97,202421,2,0,B|360:136|408:168,1,96
344,240,202904,2,0,B|334:285|345:341,1,96,8|0,0:0|0:0,0:0:0:0:
208,344,203388,1,0,0:0:0:0:
112,320,203630,1,0,0:0:0:0:
40,168,203872,1,8,0:0:0:0:
136,192,204114,1,0,0:0:0:0:
172,104,204356,2,0,P|216:88|272:96,1,96,0|2,0:0|0:0,0:0:0:0:
228,260,204840,2,0,P|216:214|230:159,1,96,2|2,0:0|0:0,0:0:0:0:
316,200,205324,6,0,P|360:184|384:144,1,96,4|0,0:0|0:0,0:0:0:0:
320,72,205808,1,8,0:0:0:0:
404,116,206050,2,0,P|456:176|440:288,1,192
356,320,206775,2,0,L|256:308,1,96,8|0,0:0|0:0,0:0:0:0:
168,328,207259,1,0,0:0:0:0:
96,264,207501,1,0,0:0:0:0:
56,128,207743,1,8,0:0:0:0:
128,192,207985,1,0,0:0:0:0:
188,116,208227,2,0,P|176:76|188:24,1,96
272,72,208711,1,8,0:0:0:0:
356,28,208953,2,0,P|368:73|355:119,1,96
344,208,209437,5,0,0:0:0:0:
356,232,209558,1,0,0:0:0:0:
368,256,209679,1,8,0:0:0:0:
296,348,209921,2,0,P|248:332|184:344,1,96
76,268,210404,1,0,0:0:0:0:
124,352,210646,1,8,0:0:0:0:
160,256,210888,1,0,0:0:0:0:
112,172,211130,6,0,L|104:76,1,96,2|0,0:0|0:0,0:0:0:0:
128,72,211493,1,0,0:0:0:0:
152,68,211614,1,8,0:0:0:0:
268,112,211856,1,4,0:0:0:0:
256,192,211977,12,0,213066,0:0:0:0:
268,112,213308,5,0,0:0:0:0:
360,140,213550,2,0,P|408:132|448:104,1,96,2|0,0:0|0:0,0:0:0:0:
288,204,214033,2,2,P|259:243|251:291,1,96
244,312,214396,1,2,0:0:0:0:
156,276,214638,1,0,0:0:0:0:
156,276,214759,1,0,0:0:0:0:
76,328,215001,6,0,B|52:284|64:236,1,96
120,100,215485,2,0,B|144:144|132:192,1,96,8|0,0:0|0:0,0:0:0:0:
44,144,215969,1,0,0:0:0:0:
208,96,216211,1,0,0:0:0:0:
236,76,216332,2,0,B|276:144|236:212,1,144
328,288,216937,6,0,P|376:288|412:316,1,96
196,324,217421,2,0,P|148:324|112:296,1,96,8|0,0:0|0:0,0:0:0:0:
56,232,217904,2,0,P|52:172|48:116,1,96,2|0,0:0|0:0,0:0:0:0:
124,48,218267,2,0,P|128:108|132:164,1,96,2|0,0:0|0:0,0:0:0:0:
208,160,218630,1,2,0:0:0:0:
332,88,218872,6,0,P|392:85|448:83,1,96,0|0,0:0|0:0,0:0:0:0:
440,180,219356,1,8,0:0:0:0:
452,276,219598,2,0,P|391:278|335:280,1,96,0|0,0:0|0:0,0:0:0:0:
312,352,220082,1,8,0:0:0:0:
280,344,220203,1,0,0:0:0:0:
256,336,220324,1,8,0:0:0:0:
232,344,220445,1,0,0:0:0:0:
208,352,220566,1,8,0:0:0:0:
120,312,220808,6,0,P|80:284|32:288,1,96,4|0,0:0|0:0,0:0:0:0:
20,192,221292,1,8,0:0:0:0:
34,97,221533,2,0,P|81:99|120:72,1,96
216,60,222017,1,0,0:0:0:0:
216,60,222138,2,0,P|272:96|272:168,1,144
348,228,222743,6,0,P|368:268|412:292,1,96
256,264,223227,2,0,L|256:360,1,96,8|0,0:0|0:0,0:0:0:0:
164,228,223711,2,0,P|144:268|100:292,1,96
100,291,224074,1,0,0:0:0:0:
136,140,224316,1,0,0:0:0:0:
136,140,224437,1,0,0:0:0:0:
72,68,224679,6,0,P|164:40|256:68,1,192,4|8,0:0|0:0,0:0:0:0:
258,317,225525,1,0,0:0:0:0:
258,317,225646,2,0,P|349:343|440:316,1,192,0|8,0:0|0:0,0:0:0:0:
256,192,226372,12,0,228066,0:0:0:0:
256,16,228550,5,4,0:0:0:0:
96,72,229033,2,8,B|192:40|256:144|256:144|320:40|416:72,1,384
480,192,230485,1,0,0:0:0:0:
416,312,230969,2,8,B|320:344|256:240|256:240|192:344|96:312,1,384
32,192,232421,1,0,0:0:0:0:
88,72,232904,2,0,P|171:32|255:72,2,192,8|0|8,0:0|0:0|0:0,0:0:0:0:
172,120,234114,1,0,0:0:0:0:
256,168,234356,2,0,P|172:207|88:167,2,192,0|8|0,0:0|0:0|0:0,0:0:0:0:
424,72,235808,1,8,0:0:0:0:
356,252,236292,6,0,B|389:319|322:386|255:352,1,192,0|8,0:0|0:0,0:0:0:0:
164,320,237017,2,0,B|114:219|215:117|316:168,1,288,0|8,0:0|0:0,0:0:0:0:
416,128,237985,1,0,0:0:0:0:
472,204,238227,6,0,P|488:288|412:356,1,192,0|8,0:0|0:0,0:0:0:0:
272,320,238953,2,0,P|256:236|332:168,1,192,0|0,0:0|0:0,0:0:0:0:
416,128,239679,2,0,B|388:84|408:16,1,96,8|0,0:0|0:0,0:0:0:0:
328,168,240162,6,0,B|252:176|252:176|228:188|228:188|140:196,1,192,0|8,0:0|0:0,0:0:0:0:
84,116,240888,1,0,0:0:0:0:
48,204,241130,2,0,P|32:264|124:348,1,192,0|8,0:0|0:0,0:0:0:0:
320,256,242098,6,0,P|340:212|324:160,1,96
188,48,242582,2,0,P|168:92|184:144,1,96,8|0,0:0|0:0,0:0:0:0:
256,192,243066,12,0,245969,0:0:0:0:
